<?xml version="1.0" standalone="no"?>
<!DOCTYPE svg PUBLIC "-//W3C//DTD SVG 1.1//EN" "http://www.w3.org/Graphics/SVG/1.1/DTD/svg11.dtd" >
<svg xmlns="http://www.w3.org/2000/svg">
<metadata></metadata>
<defs>
<font id="kyrial_display_proultraLtIt" horiz-adv-x="1241" >
<font-face units-per-em="2048" ascent="1536" descent="-512" />
<missing-glyph horiz-adv-x="491" />
<glyph unicode="&#xfb01;" horiz-adv-x="1075" d="M-160 -463l8 47h62q149 0 219 54.5t92 183.5l180 1124h-194l6 45h195l30 187q9 57 29 102t42.5 73.5t57 49t60.5 30t66.5 15t62 6t59.5 0.5h78l-4 -47h-78q-152 0 -223.5 -54.5t-91.5 -183.5l-29 -178h590l-156 -991h-59l149 946h-532l-183 -1132q-9 -57 -29 -102 t-42.5 -73.5t-56.5 -49t-60.5 -30.5t-66.5 -15.5t-61.5 -6t-57.5 -0.5h-62zM1044 1370q7 43 50 43q50 0 43 -43q-7 -41 -58 -41q-42 0 -35 41z" />
<glyph unicode="&#xfb02;" horiz-adv-x="1175" d="M-160 -463l8 47h62q149 0 219 54.5t92 183.5l180 1124h-194l6 45h195l30 187q9 57 29 102t42.5 73.5t57 49t60.5 30t66.5 15t62 6t59.5 0.5h268h43l-190 -1202q-20 -118 31.5 -161.5t189.5 -43.5l-6 -55q-170 0 -233 55t-39 205l186 1155h-254q-152 0 -223.5 -54.5 t-91.5 -183.5l-29 -178h303l-6 -45h-305l-183 -1132q-9 -57 -29 -102t-42.5 -73.5t-56.5 -49t-60.5 -30.5t-66.5 -15.5t-61.5 -6t-57.5 -0.5h-62z" />
<glyph unicode="&#xfb03;" horiz-adv-x="1742" d="M-160 -463l8 47h62q149 0 219 54.5t92 183.5l180 1124h-194l6 45h195l30 187q9 57 29 102t42.5 73.5t57 49t60.5 30t66.5 15t62 6t59.5 0.5h78l-4 -47h-78q-152 0 -223.5 -54.5t-91.5 -183.5l-29 -178h608l31 187q9 57 29 102t42.5 73.5t57 49t60.5 30t66.5 15t62 6 t59.5 0.5h78l-5 -47h-77q-153 0 -224.5 -54.5t-91.5 -183.5l-28 -178h589l-155 -991h-60l150 946h-533l-182 -1132q-9 -57 -29 -102t-42.5 -73.5t-57 -49t-61 -30.5t-67.5 -15.5t-63 -6t-59 -0.5h-61l8 47h61q152 0 223 54.5t93 183.5l180 1124h-610l-183 -1132 q-9 -57 -29 -102t-42.5 -73.5t-56.5 -49t-60.5 -30.5t-66.5 -15.5t-61.5 -6t-57.5 -0.5h-62zM1712 1370q3 21 14 32t35 11q50 0 43 -43q-7 -41 -57 -41q-42 0 -35 41z" />
<glyph unicode="&#xfb04;" horiz-adv-x="1843" d="M-160 -463l8 47h62q149 0 219 54.5t92 183.5l180 1124h-194l6 45h195l30 187q9 57 29 102t42.5 73.5t57 49t60.5 30t66.5 15t62 6t59.5 0.5h78l-4 -47h-78q-152 0 -223.5 -54.5t-91.5 -183.5l-29 -178h608l31 187q9 57 29 102t42.5 73.5t57 49t60.5 30t66.5 15t62 6 t59.5 0.5h268h43l-190 -1202q-20 -118 31.5 -161.5t189.5 -43.5l-6 -55q-170 0 -233.5 55t-39.5 205l187 1155h-254q-153 0 -224.5 -54.5t-91.5 -183.5l-28 -178h303l-6 -45h-306l-182 -1132q-9 -57 -29 -102t-42.5 -73.5t-57 -49t-61 -30.5t-67.5 -15.5t-63 -6t-59 -0.5 h-61l8 47h61q152 0 223 54.5t93 183.5l180 1124h-610l-183 -1132q-9 -57 -29 -102t-42.5 -73.5t-56.5 -49t-60.5 -30.5t-66.5 -15.5t-61.5 -6t-57.5 -0.5h-62z" />
<glyph horiz-adv-x="2048" />
<glyph horiz-adv-x="2048" />
<glyph unicode="&#xd;" horiz-adv-x="2048" />
<glyph unicode=" "  horiz-adv-x="491" />
<glyph unicode="&#x09;" horiz-adv-x="491" />
<glyph unicode="&#xa0;" horiz-adv-x="491" />
<glyph unicode="!" horiz-adv-x="444" d="M176 25q7 49 55 49q28 0 36 -13t5 -36q-4 -48 -57 -48q-43 0 -39 48zM254 350l164 1063h55l-174 -1063h-45z" />
<glyph unicode="&#x22;" horiz-adv-x="499" d="M305 946l72 467h49l-76 -467h-45zM449 946l71 467h49l-75 -467h-45z" />
<glyph unicode="#" horiz-adv-x="1445" d="M168 459l20 57h310l147 363h-309l24 57h310l190 477h58l-191 -477h395l191 477h57l-190 -477h319l-24 -57h-320l-147 -363h319l-20 -57h-322l-182 -459h-58l183 459h-396l-182 -459h-57l182 459h-307zM555 516h395l148 363h-396z" />
<glyph unicode="$" horiz-adv-x="1132" d="M135 70l8 63q79 -38 198.5 -68t199.5 -30q131 0 226 27t164.5 96.5t94.5 181.5q11 58 -5.5 105t-46.5 79.5t-96 65.5t-120.5 53.5t-151.5 52.5l-88 29q-59 20 -103.5 49t-68.5 60.5t-39.5 64.5t-19 62.5t-3.5 53t2 37.5l3 13q32 160 157.5 256t339.5 111l35 206h51 l-34 -204h26q76 0 167 -19t155 -43l-10 -59q-63 25 -155 44t-165 19q-222 0 -350 -83t-160 -232q-1 -4 -2 -11.5t-1.5 -29.5t3.5 -43.5t17 -50.5t34 -54.5t59 -50.5t89 -43l80 -24q218 -74 299 -118q139 -76 160 -185q10 -52 -3 -115q-38 -177 -159.5 -260t-315.5 -96 l-37 -222h-51l37 219h-23q-88 0 -207.5 29t-189.5 64z" />
<glyph unicode="%" horiz-adv-x="1437" d="M127 0l1352 1413h63l-1352 -1413h-63zM293 1133q13 78 48 139t82.5 95t98 51t101.5 16q56 0 102 -15t83 -47.5t52 -93t2 -143.5q-24 -146 -114.5 -222.5t-221.5 -76.5q-52 -1 -97 15.5t-81.5 50.5t-52 93.5t-2.5 137.5zM350 1133q-10 -63 2.5 -111.5t41.5 -75.5 t65.5 -40.5t77.5 -12.5q105 0 176.5 62t91.5 180q11 67 -1 116t-42 75t-66.5 38t-81.5 12q-89 2 -166.5 -59t-97.5 -184zM793 274q13 79 48 139.5t82 94.5t98.5 51t102.5 16q56 0 101.5 -15t83 -47.5t52 -93t1.5 -143.5q-24 -146 -114 -222.5t-220 -76.5q-52 -1 -97.5 15.5 t-82 50.5t-52.5 93.5t-3 137.5zM850 274q-10 -63 2.5 -111.5t41.5 -75.5t65 -40t77 -12q105 0 178 61.5t93 179.5q11 67 -1 116t-42.5 75.5t-67.5 38.5t-82 12q-89 2 -166.5 -59.5t-97.5 -184.5z" />
<glyph unicode="&#x26;" horiz-adv-x="1361" d="M225 346q1 10 3 23.5t11 46.5t20.5 63.5t34 68t50.5 67.5t70 55t92 35q-60 19 -99.5 62t-53.5 87t-17.5 94t-1 75t5.5 38q33 172 168 272.5t358 100.5q103 0 208 -18t143 -34l-11 -57q-49 19 -148.5 35t-199.5 16q-92 0 -167.5 -19.5t-125.5 -50.5t-87 -73t-56 -85 t-27 -89q-13 -100 7 -167q42 -135 194 -159h838l-9 -55h-262l-92 -572q-112 -64 -234 -97.5t-202 -33.5q-223 0 -327.5 99.5t-82.5 271.5zM283 346q-18 -145 73 -229t287 -84q75 0 187 29t186 73l88 543h-516q-193 -20 -270 -200q-26 -59 -35 -132z" />
<glyph unicode="'" horiz-adv-x="356" d="M305 946l72 467h49l-76 -467h-45z" />
<glyph unicode="(" horiz-adv-x="706" d="M197 512q69 436 250 679t421 243l-6 -54q-214 -5 -378.5 -233t-229.5 -635q-63 -402 29 -632t303 -236l-11 -54q-239 0 -343.5 245.5t-34.5 676.5z" />
<glyph unicode=")" horiz-adv-x="706" d="M0 -410l10 54q207 6 373 237.5t229 630.5q65 407 -26.5 635t-302.5 233l8 54q240 0 344 -243t35 -679q-70 -431 -251.5 -676.5t-418.5 -245.5z" />
<glyph unicode="*" horiz-adv-x="958" d="M293 1100l8 53l320 -6l-123 276l55 29l111 -287l200 287l43 -29l-205 -276l320 6l-8 -53l-320 6l121 -277l-53 -28l-113 282l-198 -282l-45 28l206 277z" />
<glyph unicode="+" horiz-adv-x="1124" d="M199 547l8 55h422l69 422h56l-70 -422h422l-8 -55h-422l-70 -422h-55l70 422h-422z" />
<glyph unicode="," horiz-adv-x="380" d="M10 -221l199 377h53l-207 -377h-45z" />
<glyph unicode="-" horiz-adv-x="917" d="M240 557l8 53h614l-8 -53h-614z" />
<glyph unicode="." horiz-adv-x="344" d="M127 25q7 49 55 49q28 0 36 -13t5 -36q-4 -48 -57 -48q-43 0 -39 48z" />
<glyph unicode="/" horiz-adv-x="804" d="M90 0l795 1411h55l-795 -1411h-55z" />
<glyph unicode="0" horiz-adv-x="1304" d="M233 702q25 154 76 279t115.5 208t143 139.5t156 81t155.5 24.5t148 -25t131 -80t98 -140.5t50 -207t-14 -279.5q-54 -331 -229.5 -528t-415.5 -197t-354 197.5t-60 527.5zM291 702q-49 -305 50.5 -486t313.5 -181t372.5 181t207.5 486q25 146 14 258t-43.5 190.5 t-87 129t-116.5 73.5t-132 23t-139 -22.5t-139 -74.5t-128 -128t-104 -191.5t-69 -257.5z" />
<glyph unicode="1" horiz-adv-x="815" d="M96 0l8 59h310l204 1289l-337 -193l10 66l330 192h67l-215 -1354h307l-8 -59h-676z" />
<glyph unicode="2" horiz-adv-x="1050" d="M76 0l4 41l747 719q112 104 163 182t57 121q24 143 -69 228t-288 85q-92 0 -197.5 -31t-177.5 -73l11 65q176 97 372 97q223 0 329.5 -101.5t78.5 -269.5q-8 -54 -64.5 -141t-142.5 -166l-729 -699h776l-6 -57h-864z" />
<glyph unicode="3" horiz-adv-x="1079" d="M123 33l10 61q73 -22 176.5 -41.5t169.5 -19.5q196 0 313.5 84t147.5 229q0 1 2.5 17.5t4.5 36.5t0.5 49t-6.5 56.5t-19.5 56t-36.5 51t-59 39.5t-85 22h-325l10 59h1h1h1h1h1h1h1h1h1h1h1h1h1h1h1h1h1h1h1h1h1h1h1h1h1h1h1h1h1h1h1h1h1h1h1h1h1h1h1h1h1h1h1h1h1h1h1h1h1 h1h1h1h1h1h1h1h1h1h1h1h1h1h1h1h1h1h2h1h1h1h1h1h1h1h2h1h1h1h1h2h1h1h1h1h2h1h1h1h1h2h1h1h1h2h1h1h2h1h1h1h2h1h1h2h1h1h2h1h1h2h1h1h2h1h2h1h1h2h1h2h1h1h2h1h2h1h2h1h1h2h1h2h1h2h1h2h1h2h1h2h1h2h1h2h1h2h1h2h1h2h1h2h2h1h2h1h2h1h2h2h1h2h1h2h2h1h2h1h2h2h1h2h2h1h2h1 h2h2h1h2h2h1h2h2h2h1h2h2h1h2h2h1h2h2h2h1h2h2h2h1h2h2h2h1h2h2h2h2h1h2h2h2h2h1h2h2h2h2h1h2h2h2h2h2h1h2h2h2h2h2h2h8q75 11 133.5 48t88.5 79.5t49.5 89.5t24.5 73t5 36q18 147 -72.5 232t-286.5 85q-100 0 -204.5 -16t-159.5 -35l10 57q44 17 151.5 34.5t210.5 17.5 q223 0 327.5 -100.5t82.5 -272.5q-2 -14 -7 -38t-24.5 -74.5t-48 -94.5t-81.5 -87t-120 -62q53 -12 90.5 -42.5t53.5 -70t24 -78.5t5.5 -79t-4.5 -59t-5 -30q-33 -172 -167 -271.5t-357 -99.5q-67 0 -170 18t-178 40z" />
<glyph unicode="4" horiz-adv-x="1177" d="M106 352l9 49l932 1012h73l-159 -1003h215l-11 -58h-215l-53 -352h-57l53 352h-787zM186 410h717l150 933z" />
<glyph unicode="5" horiz-adv-x="1146" d="M117 47l12 59q234 -71 428 -71q195 0 335 108.5t167 272.5q3 18 4 28.5t2 41.5t-2 53t-11.5 56t-24 58.5t-42 52.5t-62.5 45t-88.5 28.5t-117.5 11.5h-436l155 622h754l-8 -57h-701l-133 -508h375q74 0 134.5 -13t101.5 -33.5t71.5 -51.5t48 -60t27.5 -67t13.5 -65 t2 -61.5t-3 -48t-4.5 -32.5q-30 -190 -187.5 -314.5t-377.5 -124.5q-186 0 -432 70z" />
<glyph unicode="6" horiz-adv-x="1202" d="M205 522q71 442 273.5 677t496.5 235q126 0 229 -35l-8 -60l-14 5q-15 6 -17.5 6.5t-17 5t-21 5.5t-22 4.5t-28 4.5t-30 3t-37.5 2.5t-42 0.5q-250 0 -429.5 -193t-256.5 -558q80 105 214.5 174t280.5 69q96 0 172.5 -25.5t122.5 -69t76 -101t34.5 -121.5t-3.5 -131 q-32 -207 -177 -325t-372 -118q-242 0 -355 133t-69 412zM245 304q14 -92 69 -151.5t136.5 -88.5t186.5 -29q200 0 327 102t156 283q12 74 -1.5 142t-53 124.5t-116 90.5t-181.5 34q-140 0 -281 -77.5t-223 -205.5l-2 -6q-31 -126 -17 -218z" />
<glyph unicode="7" horiz-adv-x="1005" d="M131 0l987 1352h-835l8 61h899l-10 -74l-983 -1339h-66z" />
<glyph unicode="8" horiz-adv-x="1198" d="M180 381l3 15t11 39t21.5 56.5t36 64.5t53.5 67.5t75.5 60t98.5 47.5q-55 24 -91 67t-48.5 87.5t-17 85t-1.5 66.5l3 26q11 68 47.5 132t93.5 117t141.5 86.5t181.5 35.5h60q100 -2 175 -35.5t116 -86.5t56.5 -117t4.5 -132q-2 -10 -5.5 -26t-22 -61.5t-44.5 -85 t-76.5 -83.5t-113.5 -70q71 -22 118 -67t64 -93t24 -93t4 -74l-3 -29q-12 -74 -55 -144.5t-109.5 -128t-162 -93.5t-202.5 -38h-43q-105 2 -188 38t-130 93.5t-67 128t-8 144.5zM238 383q-9 -62 9 -122.5t59.5 -110.5t113.5 -81.5t164 -33.5h41q93 2 177 34t142 81.5 t96 110.5t47 122q1 7 2.5 18.5t0 45t-9 64t-28.5 67.5t-53.5 63.5t-90 45t-132.5 18.5h-127q-74 0 -137 -18t-104 -46t-73.5 -62.5t-50 -69t-28.5 -62.5t-14 -46zM379 1004q1 -31 7 -59.5t23.5 -63.5t44.5 -60t75 -42t110 -17h135q91 4 162 36.5t108.5 76t61.5 86.5t30 73 l7 29q10 56 -3.5 109.5t-49 99t-101 74t-151.5 30.5h-56q-84 -2 -157 -30.5t-122.5 -73.5t-81 -99t-40.5 -110q-1 -6 -2 -17t0 -42z" />
<glyph unicode="9" horiz-adv-x="1202" d="M221 12l10 60q30 -12 48.5 -17.5t67.5 -12.5t112 -7q250 0 428.5 193t257.5 558q-82 -105 -215 -174t-279 -69q-81 0 -147.5 18t-112 49.5t-79.5 74.5t-49 92.5t-20.5 104t5.5 109.5q32 207 177 325t372 118q242 0 355 -133t69 -412q-71 -442 -273.5 -677t-496.5 -235 q-132 0 -230 35zM305 991q-11 -74 3 -141.5t53.5 -124.5t116 -91t181.5 -34q139 0 279 77.5t223 205.5l2 6q31 126 17 218t-69 151.5t-136.5 88.5t-186.5 29q-200 0 -327.5 -102t-155.5 -283z" />
<glyph unicode=":" horiz-adv-x="399" d="M154 25q7 49 55 49q28 0 36 -13t5 -36q-4 -48 -57 -48q-43 0 -39 48zM299 942q7 49 55 49q28 0 36 -13t5 -36q-4 -47 -55 -47q-45 0 -41 47z" />
<glyph unicode=";" horiz-adv-x="468" d="M53 -221h47l207 377h-53zM369 942q7 49 53 49q50 0 43 -49q-4 -47 -57 -47q-43 0 -39 47z" />
<glyph unicode="&#x3c;" d="M176 526l12 72l1074 432l-11 -63l-1005 -406l876 -403l-10 -64z" />
<glyph unicode="=" horiz-adv-x="1208" d="M217 319l10 70h877l-10 -70h-877zM289 772l10 68h877l-11 -68h-876z" />
<glyph unicode="&#x3e;" d="M154 94l10 64l1007 403l-878 406l10 63l936 -432l-10 -72z" />
<glyph unicode="?" horiz-adv-x="940" d="M236 25q7 49 55 49q28 0 36 -13t5 -36q-2 -21 -16.5 -34.5t-41.5 -13.5q-25 0 -32.5 12.5t-5.5 35.5zM301 354q19 118 127 222t256 167l-4 -2q66 28 116.5 68t77 75.5t44.5 77.5t22.5 63.5t7.5 43.5q13 68 1 125t-45 98t-99.5 63t-161.5 21q-64 -2 -170.5 -30t-159.5 -58 l9 60q64 34 161 59t166 27q215 3 300 -95.5t57 -269.5l-5.5 -33t-12.5 -46t-23 -58t-37 -62.5t-54 -65t-75.5 -60.5t-100.5 -54q-133 -55 -224.5 -141.5t-115.5 -194.5h-57z" />
<glyph unicode="@" horiz-adv-x="2123" d="M201 535q39 244 203.5 451t406.5 327.5t502 120.5q187 0 338 -46t246 -121t155.5 -172t79 -198.5t2.5 -200.5q-16 -102 -48 -189t-73.5 -150t-92.5 -114t-104 -83.5t-110.5 -54t-109 -30.5t-101.5 -9q-32 0 -61 6.5t-58.5 22.5t-49 49.5t-23.5 80.5q-70 -55 -173 -92 t-178 -37q-48 0 -92.5 10t-90 40.5t-71 79t-23 134t43.5 195.5q38 104 107 188.5t150 136.5t164.5 79.5t159.5 27.5q148 0 248 -92l35 72h43l-252 -674q-15 -51 -8 -84t34.5 -52t53 -26.5t49.5 -7.5q64 0 129.5 16.5t137.5 58t131.5 104.5t107 164.5t68.5 229.5 q15 92 -3 185t-74.5 182.5t-146 158.5t-231.5 111.5t-317 42.5q-184 0 -363 -66.5t-320 -179t-239 -268.5t-125 -327q-28 -173 13 -327.5t141.5 -271t269 -185t383.5 -68.5q195 0 402.5 56.5t342.5 151.5l-10 -71q-149 -90 -352.5 -142.5t-390.5 -52.5q-228 0 -406.5 73 t-285 197.5t-150 289.5t-14.5 350zM737 414q-10 -62 0.5 -110t34 -75.5t58 -45t66 -23.5t65.5 -6q65 0 164 35.5t194 107.5l197 541q-118 92 -224 92q-67 0 -141.5 -25t-147 -71t-134.5 -122t-97 -169v2q-28 -77 -35 -131z" />
<glyph unicode="A" horiz-adv-x="1282" d="M63 0q185 390 365 722.5t410 690.5h53q114 -345 184.5 -663.5t143.5 -749.5h-62q-13 70 -39.5 222.5t-42.5 234.5h-725q-140 -273 -225 -457h-62zM373 508h690q-81 428 -211 829q-244 -388 -479 -829z" />
<glyph unicode="B" horiz-adv-x="1294" d="M209 0l223 1413h567q27 0 56 -6t63 -21t60.5 -40t48.5 -64q23 -38 27 -91q2 -18 1 -37q0 -39 -6 -87q-7 -44 -28.5 -95.5t-55 -103.5t-86 -91.5t-112.5 -51.5q60 -1 107.5 -21.5t76.5 -55.5t47 -81q18 -47 20 -99q0 -9 -1 -18q0 -44 -5 -90q-28 -183 -149.5 -271.5 t-312.5 -88.5h-541zM272 53h508q142 0 247 77t130 230q6 39 6 74q-1 36 -7 68q-14 62 -43.5 97t-74.5 57.5t-88 30t-90 7.5h-483zM383 745h471q71 0 132 29t101.5 77t66 103.5t34.5 112.5q7 41 7 76q-1 35 -7 63q-12 58 -46.5 91t-81 48t-106.5 15h-471z" />
<glyph unicode="C" horiz-adv-x="1271" d="M236 444q-10 55 -10 116q0 67 12 142q28 171 107.5 311.5t191 231t246 140t276.5 49.5q189 0 348 -31l-10 -60q-179 33 -346 33q-130 0 -253.5 -45.5t-227 -129t-177 -213t-98.5 -286.5q-11 -69 -11 -132q0 -56 9 -106q19 -106 68.5 -186.5t124 -134.5t165 -81t191.5 -27 q207 0 352 37l-10 -62q-182 -33 -350 -33q-109 0 -207.5 29.5t-179.5 88t-135.5 146t-75.5 203.5z" />
<glyph unicode="D" horiz-adv-x="1406" d="M209 0l223 1413h438q124 0 229.5 -46.5t180.5 -133t106 -224.5q16 -73 16 -154q0 -73 -13 -153q-28 -172 -102 -309t-176 -221t-220.5 -128t-243.5 -44h-438zM272 53h381q114 0 222 41t201.5 119t161.5 204.5t93 284.5q12 75 12 143q0 75 -14 141q-27 128 -94 208 t-162.5 123t-208.5 43h-381z" />
<glyph unicode="E" horiz-adv-x="1118" d="M240 233l186 1180h793l-9 -57h-735l-98 -611h686l-8 -57h-686l-72 -455l-2 3q-3 -22 -3 -40q0 -66 34 -98q42 -40 153 -41h-2h524l-6 -57h-524q-143 3 -196 54q-40 38 -40 119q0 28 5 60z" />
<glyph unicode="F" horiz-adv-x="993" d="M209 0l223 1413h709l-8 -57h-652l-96 -596h600l-8 -58h-600l-111 -702h-57z" />
<glyph unicode="G" horiz-adv-x="1441" d="M232 444q-8 52 -8 111q0 70 12 147q28 171 110.5 311.5t199 231t257.5 140t289 49.5q192 0 364 -43l-10 -60q-185 45 -363 45q-137 0 -266.5 -45.5t-237.5 -129t-184.5 -213t-101.5 -286.5q-11 -72 -11 -136q0 -54 8 -102q17 -107 64 -187t116.5 -134t152.5 -81t174 -27 q87 0 146.5 2.5t152.5 16.5t166 40l73 461h-395l8 57h453l-88 -557q-193 -78 -525 -78q-100 0 -191 29.5t-167 88t-127 146t-71 203.5z" />
<glyph unicode="H" horiz-adv-x="1449" d="M209 0l223 1413h57l-102 -645h918l102 645h57l-223 -1413h-57l112 715h-917l-113 -715h-57z" />
<glyph unicode="I" horiz-adv-x="475" d="M209 0l223 1413h57l-223 -1413h-57z" />
<glyph unicode="J" horiz-adv-x="514" d="M-348 -455l10 52q97 -9 131 -9q67 0 122 10.5t112 40.5t99 79t77 131.5t53 193.5l217 1370h55l-225 -1417q-13 -82 -39 -149.5t-58.5 -114.5t-74.5 -82.5t-83.5 -56.5t-88.5 -34t-86.5 -17.5t-81.5 -4.5q-53 0 -139 8z" />
<glyph unicode="K" horiz-adv-x="1089" d="M209 0l223 1413h57l-116 -741q496 421 796 741h74q-311 -336 -788 -743q334 -273 622 -670h-76q-269 361 -630 657l-105 -657h-57z" />
<glyph unicode="L" horiz-adv-x="1062" d="M240 233l186 1180h57l-186 -1180q-3 -23 -4 -42q0 -63 33 -93q42 -39 151 -41h543l-6 -57h-543q-143 3 -196 54q-40 38 -40 119q0 28 5 60z" />
<glyph unicode="M" horiz-adv-x="1929" d="M154 0l360 1413h80q250 -588 395 -1243q363 667 793 1243h80l-86 -1413h-58l82 1339q-397 -532 -776 -1220h-86q-152 678 -383 1220l-344 -1339h-57z" />
<glyph unicode="N" horiz-adv-x="1433" d="M209 0l223 1413h66q190 -225 378.5 -592t303.5 -731l211 1323h57l-223 -1413h-74q-115 363 -302.5 740t-369.5 601l-213 -1341h-57z" />
<glyph unicode="O" horiz-adv-x="1650" d="M238 700q25 154 86 280t142 209t181 139.5t200.5 81t203.5 24.5q85 0 164 -17.5t153 -54.5t130 -95.5t95.5 -140t48.5 -187.5q3 -34 3 -71q0 -78 -13 -168q-54 -331 -276 -527t-539 -196q-317 1 -475 197q-118 146 -118 367q0 75 14 159zM293 700q-11 -70 -11 -135 q0 -115 35 -212q55 -152 187 -237t321 -85q290 0 497 186t255 483q13 76 13 143q0 59 -10 110q-21 111 -70 191.5t-124.5 133t-161.5 77.5t-180 25t-188 -24.5t-186 -78.5t-167.5 -132t-131.5 -192.5t-78 -252.5z" />
<glyph unicode="P" horiz-adv-x="1208" d="M209 0l223 1413h563q56 0 111.5 -25t101 -71.5t67.5 -122.5q13 -45 13 -95q0 -34 -6 -71q-16 -98 -54 -173.5t-83 -118t-100.5 -70t-99.5 -36.5t-85 -9h-498l-96 -621h-57zM373 678h497q34 0 71 7.5t83.5 31t84.5 60.5t70.5 102t45.5 149q5 31 5 60q0 43 -11 82 q-18 65 -55.5 104t-84 60.5t-92.5 21.5h-506z" />
<glyph unicode="Q" horiz-adv-x="1650" d="M238 700q24 154 85 280t141.5 209t180.5 139.5t200.5 81t203.5 24.5q85 0 164 -17.5t153 -54.5t129.5 -95.5t95 -140t49.5 -187.5q3 -35 3 -74q0 -76 -13 -165q-52 -326 -268 -520t-526 -200v-11q0 -130 66 -193q70 -65 198 -65q147 0 227 27l-8 -55q-104 -29 -229 -29 q-154 0 -236 80q-77 73 -77 220q0 13 1 26q-298 14 -444 206q-109 143 -109 357q0 74 13 157zM293 700q-11 -71 -11 -136q0 -114 34 -211q55 -152 186.5 -237t320.5 -85q290 0 498 186.5t256 482.5q13 76 13 143q0 58 -10 110q-21 111 -70.5 191.5t-125.5 133t-162 77.5 t-180 25t-188 -24.5t-185.5 -78.5t-166.5 -132t-131 -192.5t-78 -252.5z" />
<glyph unicode="R" horiz-adv-x="1247" d="M209 0l223 1411h533q78 0 141 -24.5t106.5 -71.5t61.5 -121q9 -40 9 -84q0 -39 -7 -82q-33 -200 -163 -300q-126 -97 -323 -97h-12q27 -14 54.5 -38t50 -49t47.5 -64t43 -68t40.5 -76.5t35 -74.5t32.5 -77t27 -68.5t24 -64.5t19 -51h-66q-91 244 -160 369 q-140 251 -286 260h-274l-99 -629h-57zM375 688h416q373 0 426 340q6 39 6 73q-1 103 -57 167q-76 86 -212 86h-473z" />
<glyph unicode="S" horiz-adv-x="1140" d="M141 70l9 63q79 -38 198 -68t199 -30q131 0 226 27t164.5 96.5t94.5 181.5q4 22 4 43q0 31 -10 61q-17 48 -47 80.5t-96.5 65.5t-120.5 53.5t-152 52.5l-88 29q-59 20 -103.5 49t-68 60.5t-39 64.5t-18.5 62.5t-3.5 53t2.5 37.5l3 13q35 174 180.5 271.5t394.5 97.5 q76 0 167 -19t155 -43l-10 -59q-63 25 -155 44t-165 19q-222 0 -350 -83t-160 -232q-1 -4 -2 -11.5t-1.5 -29.5t3.5 -43.5t17 -50.5t34 -54.5t59 -50.5t89 -43l80 -24q218 -74 299 -118q139 -76 160 -185q4 -23 4 -47q0 -32 -7 -68q-22 -100 -70.5 -170.5t-121.5 -111 t-160 -59t-196 -18.5q-88 0 -208 29t-190 64z" />
<glyph unicode="T" horiz-adv-x="1097" d="M258 1356l8 57h1012l-8 -57h-475l-215 -1356h-60l215 1356h-477z" />
<glyph unicode="U" horiz-adv-x="1470" d="M273 416q1 72 14 155l133 842h57l-133 -842q-14 -65 -14 -120q0 -17 1 -33q6 -68 13 -121.5t34 -93t49.5 -67.5t60.5 -46.5t66.5 -29.5t67 -16.5t62.5 -7t53 -1.5q484 0 570 536l133 842h57l-133 -842q-96 -594 -635 -594q-29 0 -53.5 1.5t-61.5 5.5t-67.5 14t-67 24.5 t-64.5 38.5t-56.5 55t-46.5 76q-16 45 -28 99q-11 50 -11 114v11z" />
<glyph unicode="V" horiz-adv-x="1189" d="M287 1413h63l250 -1358l688 1358h62l-713 -1413h-86z" />
<glyph unicode="W" horiz-adv-x="2068" d="M289 1413h63l209 -1364q257 598 635 1194h74q184 -601 250 -1194l643 1364h63l-672 -1413h-88q-86 668 -243 1190q-341 -546 -621 -1190h-88z" />
<glyph unicode="X" horiz-adv-x="1069" d="M43 0l569 735l-307 678h66l288 -631l486 631h63l-522 -676l342 -737h-67l-318 690l-537 -690h-63z" />
<glyph unicode="Y" horiz-adv-x="1071" d="M268 1413h66l311 -735l535 735h65l-583 -799l-97 -614h-57l96 612z" />
<glyph unicode="Z" horiz-adv-x="1214" d="M66 0l8 66l1216 1294h-962l6 53h1022l-10 -67l-1219 -1293h1003l-6 -53h-1058z" />
<glyph unicode="[" horiz-adv-x="573" d="M111 -410l290 1823h322l-6 -53h-262l-275 -1716h262l-10 -54h-321z" />
<glyph unicode="\" horiz-adv-x="804" d="M311 1411h56l348 -1411h-56z" />
<glyph unicode="]" horiz-adv-x="573" d="M10 -410l8 54h261l274 1716h-262l6 53h321l-290 -1823h-318z" />
<glyph unicode="_" horiz-adv-x="1290" d="M119 -139l6 51h1003l-6 -51h-1003z" />
<glyph unicode="`" horiz-adv-x="804" d="M592 1413h63l93 -227h-58z" />
<glyph unicode="a" horiz-adv-x="1073" d="M139 270q23 143 150.5 220t328.5 77q128 0 281 -43l12 74q10 55 10 100q-1 23 -3 43q-8 61 -27 102.5t-54 67t-75 36.5t-88 11q-156 0 -361 -77l11 57q202 78 360 78q58 0 105.5 -12.5t89.5 -42t66 -77.5q23 -48 33 -119q3 -25 4 -54q0 -51 -11 -113l-78 -479 q-1 -10 -1 -18q0 -27 14 -45q20 -22 57 -23q53 0 129 33l-11 -58q-71 -31 -127 -31q-37 0 -63.5 14.5t-38 36.5t-16 42t-2.5 36q-47 -39 -189.5 -84t-228.5 -45q-284 0 -284 220q0 34 7 73zM197 270q-5 -30 -5 -56q0 -179 232 -179q87 0 212.5 37t207.5 96l49 305 q-142 37 -285 37q-174 0 -282.5 -62t-128.5 -178z" />
<glyph unicode="b" horiz-adv-x="1169" d="M174 0l229 1454h60l-84 -547q91 57 184 83t164 26q88 0 168 -32.5t141.5 -93t89.5 -158.5q17 -59 17 -126q0 -45 -8 -94q-17 -108 -54.5 -195.5t-87 -144t-104 -96.5t-114 -60.5t-107.5 -29.5t-93 -9q-86 0 -182.5 43t-140.5 107l-29 -127h-49zM260 182q40 -55 144 -101 t180 -46q48 0 99.5 10.5t116 42.5t117.5 82t97.5 139t62.5 203q7 44 7 84t-7 76q-14 72 -48 125.5t-84 89t-108 53.5t-120 18q-70 0 -166 -27.5t-182 -80.5z" />
<glyph unicode="c" horiz-adv-x="935" d="M188 496q21 121 79 221.5t135 164.5t165.5 99t175.5 35q140 0 263 -25l-7 -53q-102 20 -266 20q-76 0 -153.5 -31t-145 -88t-118.5 -146.5t-70 -196.5q-7 -48 -7 -91q0 -57 12 -108q22 -90 72 -146.5t118 -87t145 -30.5q168 0 270 20l-8 -55q-126 -23 -270 -23 q-87 0 -165 34.5t-135.5 98.5t-83.5 165q-15 58 -14 123q0 48 8 100z" />
<glyph unicode="d" horiz-adv-x="1212" d="M184 375q-1 11 -1 22q0 53 12 115q19 121 79 219.5t141 159t172 93t179 32.5q168 0 315 -109l84 547h60l-213 -1335q-1 -10 -1 -19q0 -28 14 -44q19 -22 56 -23q53 0 129 33l-10 -58q-71 -31 -127 -31q-60 0 -92 38q-26 31 -26 81q0 11 1 23q-74 -61 -182 -101.5 t-192 -40.5q-29 0 -58.5 3.5t-64 12t-65.5 23t-63.5 36t-57 51.5t-46 69.5t-31 90t-12.5 112.5zM242 376q0 -60 16 -107.5t36 -83.5t50.5 -62t60 -43t64 -27t63.5 -14t58 -4q77 0 197.5 46t175.5 101l108 668q-68 53 -156 80.5t-159 27.5q-62 0 -126 -17.5t-126 -54.5 t-113 -88.5t-88 -125.5t-51 -160q-10 -71 -10 -130v-6z" />
<glyph unicode="e" horiz-adv-x="1124" d="M196 266q-9 48 -9 105q0 61 10 133q19 120 72.5 218.5t127.5 162t161.5 97.5t178.5 34q211 0 309 -144q69 -102 70 -258q0 -64 -12 -137h-856q-7 -50 -6 -95q0 -152 76 -238q98 -112 280 -113q174 2 354 45l-8 -53q-195 -44 -354 -46q-103 0 -183 30.5t-136.5 94.5 t-74.5 164zM256 526h797q5 43 5 82q0 146 -68 236q-86 114 -263 114q-162 0 -296.5 -115.5t-174.5 -316.5z" />
<glyph unicode="f" horiz-adv-x="667" d="M-160 -463l8 47h62q149 0 219 54.5t92 183.5l180 1124h-194l6 45h195l30 187q9 57 28.5 102t42 73.5t57 49t60.5 30t67 15t62.5 6t59.5 0.5h78l-4 -47h-78q-152 0 -223.5 -54.5t-91.5 -183.5l-31 -178h305l-6 -45h-305l-183 -1132q-9 -57 -29 -102t-42.5 -73.5t-56.5 -49 t-60.5 -30.5t-66.5 -15.5t-61.5 -6t-57.5 -0.5h-62z" />
<glyph unicode="g" horiz-adv-x="1171" d="M190 479q21 129 72 228.5t111 155.5t133 92t131.5 47.5t114.5 11.5q86 0 181.5 -43t141.5 -107l31 127h47l-186 -1177q-12 -75 -54.5 -130t-108 -86.5t-142 -46t-166.5 -14.5q-104 0 -248 37l10 59q152 -39 248 -39q105 0 187 20.5t141.5 71.5t72.5 130l43 268 q-92 -58 -184.5 -83.5t-163.5 -25.5q-88 0 -169 32.5t-143.5 93t-91.5 159.5q-16 57 -16 123q0 46 8 96zM248 479q-7 -43 -7 -83q0 -59 15 -112q25 -87 79.5 -140.5t125.5 -82t149 -28.5q70 0 166 27.5t182 80.5l109 668q-40 55 -145 101t-181 46q-33 0 -68.5 -5 t-79.5 -19.5t-84.5 -37t-82.5 -60t-76 -85.5t-61 -117.5t-41 -152.5z" />
<glyph unicode="h" horiz-adv-x="1148" d="M174 0l229 1454h58l-88 -563q203 125 387 125q332 0 332 -294q0 -48 -9 -104l-98 -618h-57l96 618q8 51 8 93q0 111 -54 169q-76 80 -228 81q-73 0 -180.5 -35t-207.5 -95l-131 -831h-57z" />
<glyph unicode="i" horiz-adv-x="407" d="M174 0l156 991h59l-156 -991h-59zM375 1370q7 43 51 43q42 0 42 -33q0 -5 -1 -10q-7 -41 -55 -41q-38 0 -38 31q0 4 1 10z" />
<glyph unicode="j" horiz-adv-x="403" d="M-174 -461l6 45q58 3 103.5 12.5t76 21t54 33.5t36 38.5t22 46t13 46.5t8.5 50l185 1159h55l-186 -1173q-24 -151 -115 -215t-258 -64zM375 1370q3 21 14 32t35 11q44 0 44 -33q0 -5 -1 -10q-7 -41 -57 -41q-36 0 -36 30q0 5 1 11z" />
<glyph unicode="k" horiz-adv-x="888" d="M174 0l229 1454h60l-141 -895q255 212 481 432h74q-340 -321 -486 -442q338 -286 490 -549h-68q-138 238 -496 541l-84 -541h-59z" />
<glyph unicode="l" horiz-adv-x="507" d="M209 252l192 1202h58l-191 -1202q-6 -33 -6 -60q0 -70 38 -102q52 -44 189 -43l-6 -55q-170 0 -234 55q-47 40 -47 130q0 34 7 75z" />
<glyph unicode="m" horiz-adv-x="1918" d="M174 0l156 991h49l-8 -112q205 137 399 137q44 0 69.5 -1t62 -5.5t60.5 -15t51.5 -27.5t49 -45t39.5 -66q116 96 218.5 128t207.5 32q41 0 73.5 -3t68 -11.5t62.5 -24t51.5 -38.5t40 -58.5t24.5 -80.5q8 -40 9 -94q0 -6 -1 -12q-1 -62 -13 -137l-88 -557h-59l88 557 q12 71 12 129q0 63 -10 107q-10 42 -29.5 73t-43.5 50t-57 30t-64.5 15t-71.5 4q-100 0 -207.5 -42t-198.5 -135l-125 -788h-59l117 750q3 20 3 38q0 81 -66 123q-80 52 -224 52q-83 0 -198.5 -41t-203.5 -113l-127 -809h-57z" />
<glyph unicode="n" horiz-adv-x="1148" d="M174 0l156 991h47l-4 -100q203 125 387 125q332 0 332 -294q0 -48 -9 -104l-98 -618h-57l96 618q8 51 8 93q0 111 -54 169q-76 80 -228 81q-73 0 -180.5 -35t-207.5 -95l-131 -831h-57z" />
<glyph unicode="o" d="M193 496q21 130 76.5 231t135 163t175 93t202.5 31t192 -31t144.5 -93t83.5 -162q12 -53 12 -115q0 -55 -10 -117q-21 -130 -76.5 -231.5t-135 -163t-174.5 -93t-202 -31.5t-192 31.5t-145 93.5q-59 60 -83 162q-12 54 -13 116q0 55 10 116zM250 496q-9 -56 -9 -106 q1 -54 11 -101q20 -91 72.5 -147.5t128 -85.5t170.5 -29q197 0 342 120t182 349q9 56 9 106q0 54 -10 101q-20 91 -73 147.5t-128.5 85.5t-170.5 29q-197 0 -342 -120t-182 -349z" />
<glyph unicode="p" horiz-adv-x="1169" d="M96 -463l234 1454h49l-10 -127q65 64 176 107t198 43q29 0 58.5 -3.5t64 -12t65.5 -23t63.5 -36t57 -51.5t46 -69.5t30.5 -90t12 -112.5v-19q0 -54 -12 -118q-20 -121 -79 -219.5t-139.5 -159t-170.5 -93t-178 -32.5q-71 0 -155 25.5t-160 83.5l-90 -547h-60zM254 141 q68 -53 156 -80.5t159 -27.5q78 0 158 28.5t151 82t123.5 141t69.5 194.5q10 75 10 135.5t-15.5 108t-35.5 83.5t-50.5 62t-60.5 43t-64.5 27t-63.5 14t-58 4q-76 0 -196 -46t-177 -101z" />
<glyph unicode="q" horiz-adv-x="1169" d="M188 479q21 129 72 228.5t111 155.5t133 92t131.5 47.5t114.5 11.5q86 0 181.5 -43t141.5 -107l31 127h49l-235 -1454h-60l90 547q-92 -58 -184.5 -83.5t-163.5 -25.5q-88 0 -169 32.5t-143.5 93t-91.5 159.5q-16 57 -16 123q0 46 8 96zM246 479q-7 -43 -7 -83 q0 -59 15 -112q25 -87 79.5 -140.5t125.5 -82t149 -28.5q70 0 166 27.5t182 80.5l109 668q-40 55 -145 101t-181 46q-33 0 -68.5 -5t-79.5 -19.5t-84.5 -37t-82.5 -60t-76 -85.5t-61 -117.5t-41 -152.5z" />
<glyph unicode="r" horiz-adv-x="704" d="M174 0l156 991h47l-4 -100q203 125 387 125q7 0 22.5 -1t22.5 -1l-10 -56q-21 3 -45 3q-73 0 -180.5 -35t-207.5 -95l-131 -831h-57z" />
<glyph unicode="s" horiz-adv-x="894" d="M133 27l10 55q96 -51 256 -51q74 0 131 9t109 31.5t86.5 65.5t50.5 105q5 24 5 45q0 23 -6 41q-12 36 -61.5 66t-85 44.5t-127.5 45.5l-18 6t-16 5.5t-18 6.5l-66 22q-55 19 -91.5 50t-49 62t-17 59t-1.5 45l3 18q25 125 136 196q99 63 266 63q21 0 43 -1q93 -3 221 -39 l-8 -55q-136 38 -226 41q-18 1 -35 1q-143 0 -227 -52q-94 -58 -112 -158q-1 -5 -2.5 -13t2 -31.5t14 -44t40 -45t73.5 -40.5l61 -23q19 -7 56 -20q44 -15 65 -23t57.5 -22.5t54 -24t44 -25.5t38 -29.5t26 -33.5t18.5 -40.5t4 -46.5t-5 -56q-19 -78 -58.5 -130.5t-99 -80 t-126 -38t-156.5 -10.5q-61 0 -137 12.5t-121 37.5z" />
<glyph unicode="t" horiz-adv-x="587" d="M197 946l6 45h192l47 273l60 28l-49 -301h254l-7 -45h-254l-108 -684q-5 -31 -7 -50.5t-1.5 -45.5t8 -42.5t23.5 -34.5t41.5 -28t65 -17t91.5 -7l-8 -49q-171 0 -235 56q-46 40 -47 130q0 34 7 76l113 696h-192z" />
<glyph unicode="u" horiz-adv-x="1191" d="M221 373l98 618h58l-98 -618q-8 -50 -8 -92q0 -111 55 -169q76 -80 229 -81q73 0 180 34.5t207 94.5l131 831h57l-139 -872q-1 -9 -1 -18q0 -28 15 -45q20 -23 58 -23q51 0 127 33l-10 -58q-71 -31 -125 -31q-61 1 -95 37q-26 29 -26 75q0 12 2 26q-66 -62 -184.5 -101 t-204.5 -39q-335 0 -335 295q0 48 9 103z" />
<glyph unicode="v" horiz-adv-x="974" d="M207 991h63l228 -921l518 921h63l-561 -991h-61z" />
<glyph unicode="w" horiz-adv-x="1671" d="M209 991h61l203 -932l475 881h72l192 -881l500 932h62l-537 -991h-66l-196 885l-475 -885h-68z" />
<glyph unicode="x" horiz-adv-x="907" d="M59 0l437 494l-281 497h70l252 -456l397 456h70l-437 -497l281 -494h-72l-254 453l-391 -453h-72z" />
<glyph unicode="y" horiz-adv-x="1007" d="M72 -463l10 51h24q5 0 14 1q98 6 136 22q64 29 114 131q3 5 5 10l92 195l-260 1044h61l238 -981l543 981h63l-575 -1030l-123 -248q-55 -106 -127 -142q-68 -34 -179 -34h-12h-24z" />
<glyph unicode="z" horiz-adv-x="1030" d="M74 0l8 66l934 872h-750l6 53h822l-9 -63l-940 -875h799l-6 -53h-864z" />
<glyph unicode="{" horiz-adv-x="636" d="M158 471l12 61q59 8 105.5 42t54.5 88l63 391q59 358 398 358l-9 -57q-281 0 -331 -301l-64 -391q-10 -64 -50.5 -107t-96.5 -55q47 -18 75 -62.5t21 -95.5l-64 -391q-24 -145 33 -223t203 -78l-8 -58q-174 0 -243.5 93t-41.5 266l64 391q7 49 -30 85t-91 44z" />
<glyph unicode="|" horiz-adv-x="403" d="M135 -233l303 1871h51l-303 -1871h-51z" />
<glyph unicode="}" horiz-adv-x="636" d="M6 -408l6 58q282 0 332 301l64 391q7 51 49 95.5t96 62.5q-52 12 -78 55t-16 107l63 391q24 145 -33.5 223t-203.5 78l8 57q175 0 245 -92.5t42 -265.5l-64 -391q-8 -54 28 -88t91 -42l-12 -61q-55 -8 -103 -44.5t-55 -84.5l-64 -391q-29 -173 -126.5 -266t-268.5 -93z " />
<glyph unicode="&#xa1;" horiz-adv-x="403" d="M106 -410l173 1053h45l-162 -1053h-56zM307 969q8 47 55 47q49 0 41 -47q-5 -24 -17 -36.5t-40 -12.5q-50 0 -39 49z" />
<glyph unicode="&#xa2;" horiz-adv-x="997" d="M195 496q21 118 77 217t131 163t160.5 100.5t171.5 39.5l33 207h51l-33 -207q100 -2 226 -25l-6 -53q-98 20 -267 20q-76 0 -153.5 -31t-145 -88t-118.5 -146.5t-70 -196.5q-17 -109 5 -198.5t72 -145.5t118 -86.5t145 -30.5q168 0 270 20l-6 -55q-126 -21 -235 -23 l-35 -225h-51l34 225q-85 3 -159.5 38.5t-130 98.5t-79 162.5t-5.5 219.5z" />
<glyph unicode="&#xa3;" horiz-adv-x="1150" d="M106 0l7 55h206l99 613h-195l8 53h195l41 254q33 206 192.5 332.5t415.5 126.5q61 0 123 -9l-8 -59q-49 4 -127 4q-231 0 -368 -114t-167 -293l-39 -242h283l-8 -53h-283l-98 -613h676l-6 -55h-947z" />
<glyph unicode="&#xa4;" horiz-adv-x="1161" d="M170 227l182 160q-62 103 -41 250q21 138 119 248l-133 155l47 39l133 -153q115 90 264 90q147 0 236 -92l178 157l33 -41l-180 -157q63 -104 41 -246q-21 -145 -123 -250l137 -156l-47 -41l-135 156q-115 -88 -265 -88q-146 0 -231 88l-180 -158zM369 637 q-22 -138 47 -230t211 -92t242 92t122 230t-48 229.5t-212 91.5t-241 -91.5t-121 -229.5z" />
<glyph unicode="&#xa5;" horiz-adv-x="1146" d="M268 229l8 60h316l24 143h-315l10 60h316l16 120l-334 801h66l307 -735l539 735h65l-588 -799l-16 -122h309l-10 -60h-309l-25 -143h309l-8 -60h-309l-35 -229h-55l35 229h-316z" />
<glyph unicode="&#xa6;" horiz-adv-x="514" />
<glyph unicode="&#xa7;" horiz-adv-x="1107" d="M88 -348l18 65q165 -75 269 -84q409 -42 508 263q24 84 -13 157q-33 50 -90.5 93.5t-101 66t-151.5 72.5q-17 8 -25 12l-80 37q-56 26 -96.5 60t-60.5 68t-32 69t-12.5 65t1 53.5t5.5 36.5l4 14q37 124 123 199q-24 45 -29 97t2 81l7 29q51 172 204 256.5t396 60.5 q98 -8 215 -55l-12 -57q-120 46 -215 55q-217 21 -352 -51t-181 -219q-3 -9 -6 -24t-1.5 -58t17.5 -80q24 -49 60 -80.5t100 -62.5l74 -33q68 -31 101.5 -47.5t89 -45t81.5 -48t62.5 -49t51 -56.5t27.5 -61.5t10.5 -73.5t-16.5 -84q-38 -123 -120 -199q52 -95 16 -207 q-30 -99 -86 -166t-129.5 -99t-165.5 -44t-193 0q-104 10 -274 74zM279 605q2 -22 11.5 -53t27.5 -58.5t52 -56.5t81 -52l77 -33q195 -94 254 -131q68 -42 107 -84q72 72 98 166q9 32 9.5 61.5t-4.5 54t-22 49t-33.5 44t-47.5 41.5t-56.5 37.5t-68 37t-74 36.5t-82.5 38 l-82 37q-94 42 -143 111q-68 -62 -96 -160q-1 -4 -3 -11.5t-4.5 -29.5t-0.5 -44z" />
<glyph unicode="&#xa8;" horiz-adv-x="808" d="M455 1298q7 43 53 43t39 -43q-7 -41 -53 -41t-39 41zM672 1298q7 43 53 43t39 -43q-7 -41 -53 -41t-39 41z" />
<glyph unicode="&#xa9;" horiz-adv-x="1679" d="M242 700q25 154 86.5 279.5t144 208.5t184 139.5t204 81.5t206.5 25q86 0 166.5 -17.5t155.5 -55t132 -96t97 -140t50 -187t-9 -238.5q-54 -330 -279 -526.5t-546 -196.5h4q-212 0 -359.5 88.5t-210 253t-26.5 381.5zM299 700q-49 -303 101 -484t446 -181h-4 q195 0 356 81t266 232t138 352q25 146 3 258t-71.5 191t-127.5 129.5t-164.5 74t-182.5 23.5t-190.5 -23t-188 -75t-169.5 -128.5t-132.5 -192t-79.5 -257.5zM543 700q16 99 62.5 181t112 134.5t144.5 81.5t162 29q125 0 213 -20l-8 -51q-122 20 -213 20q-149 0 -269 -101 t-147 -274q-14 -89 5 -161.5t63.5 -117.5t104.5 -69t130 -24q111 0 199 20l14 -8l-8 -39q-108 -22 -215 -22q-81 0 -150.5 27t-120.5 78t-73 133t-6 183z" />
<glyph unicode="&#xaa;" horiz-adv-x="804" d="M256 653l8 43h486l-9 -43h-485zM305 975q15 89 94.5 137.5t204.5 48.5q85 0 166 -20l2 33q19 114 -20.5 163t-114.5 49q-87 0 -231 -51l10 49q130 50 229 50q98 0 150 -61t28 -199l-57 -369h-47l4 61q-40 -32 -114.5 -53.5t-127.5 -21.5q-206 0 -176 184zM354 975 q-21 -139 131 -139q50 0 124 23.5t124 58.5l27 176q-79 20 -164 20q-103 0 -167.5 -36t-74.5 -103z" />
<glyph unicode="&#xab;" horiz-adv-x="735" d="M188 506l304 364h69l-303 -364l184 -365h-69zM375 506l303 364h70l-304 -364l185 -365h-70z" />
<glyph unicode="&#xac;" horiz-adv-x="1304" d="M283 717l10 55h969l-84 -518h-58l74 463h-911z" />
<glyph unicode="&#xad;" horiz-adv-x="917" d="M240 557l8 53h614l-8 -53h-614z" />
<glyph unicode="&#xae;" horiz-adv-x="1679" d="M242 700q25 154 86.5 279.5t144 208.5t184 139.5t204 81.5t206.5 25q86 0 166.5 -17.5t155.5 -55t132 -96t97 -140t50 -187t-9 -238.5q-54 -330 -279 -526.5t-546 -196.5h4q-212 0 -359.5 88.5t-210 253t-26.5 381.5zM299 700q-49 -303 101 -484t446 -181h-4 q195 0 356 81t266 232t138 352q25 146 3 258t-71.5 191t-127.5 129.5t-164.5 74t-182.5 23.5t-190.5 -23t-188 -75t-169.5 -128.5t-132.5 -192t-79.5 -257.5zM614 293l131 819h314q98 0 153 -58t37 -167q-18 -112 -87.5 -171t-178.5 -65q24 -18 47.5 -49t40 -57.5t36.5 -72 t28 -65t25.5 -66.5t17.5 -48h-60q-17 48 -38.5 97.5t-55 114.5t-74 105.5t-78.5 40.5h-145l-57 -358h-56zM735 700h228q200 0 229 187q13 85 -27 130.5t-114 45.5h-258z" />
<glyph unicode="&#xaf;" horiz-adv-x="862" d="M451 1288l8 60h370l-8 -60h-370z" />
<glyph unicode="&#xb0;" horiz-adv-x="735" d="M301 1182q17 105 101 178.5t190 73.5q108 0 170 -73.5t45 -178.5t-101 -178.5t-192 -73.5q-107 0 -168.5 73.5t-44.5 178.5zM358 1182q-14 -82 33.5 -138.5t130.5 -56.5q84 0 149 56.5t79 138.5t-34 138t-132 56q-83 0 -147.5 -56t-78.5 -138z" />
<glyph unicode="&#xb1;" horiz-adv-x="1210" d="M156 0h899l6 51h-899zM260 657l6 56h422l70 422h55l-70 -422h422l-6 -56h-422l-69 -421h-56l70 421h-422z" />
<glyph unicode="&#xb2;" horiz-adv-x="675" d="M223 926l2 37l475 436q55 59 70 119q12 76 -38.5 122t-156.5 46q-52 0 -115 -18.5t-100 -43.5l9 53q100 58 217 58q129 0 187 -59t44 -158q-17 -84 -106 -166l-414 -377h428l-6 -49h-496z" />
<glyph unicode="&#xb3;" horiz-adv-x="671" d="M246 944l8 45q87 -33 180 -33q107 0 171.5 46t76.5 124q2 11 2.5 20.5t1 30.5t-5.5 38t-16 35t-32 30t-52 16h-174l8 47h172q45 10 78.5 34.5t49.5 55t22.5 49.5t8.5 36q14 78 -36.5 124t-157.5 46q-90 0 -191 -33l9 47q96 33 192 33q129 0 187 -58t47 -159 q-32 -160 -162 -195q35 -11 58.5 -33t32.5 -43.5t11 -49.5t0.5 -42t-4.5 -29q-18 -100 -95.5 -157.5t-207.5 -57.5q-93 0 -182 33z" />
<glyph unicode="&#xb4;" horiz-adv-x="804" d="M434 1186l162 227h63l-167 -227h-58z" />
<glyph unicode="&#xb6;" horiz-adv-x="794" d="M293 1171q15 98 95.5 169.5t180.5 72.5h230l-264 -1663h-58l256 1616h-115l-256 -1616h-57l189 1182q-98 2 -157 71.5t-44 167.5z" />
<glyph unicode="&#xb7;" horiz-adv-x="401" d="M272 745q5 24 17 37t39 13q52 0 41 -50q-8 -47 -58 -47q-47 0 -39 47z" />
<glyph unicode="&#xb8;" horiz-adv-x="1015" d="M266 -371l8 62q73 -34 134 -41q76 -9 125.5 29t60.5 100q17 95 -80 241h68q22 -33 43.5 -85t25.5 -87q13 -112 -60.5 -190.5t-197.5 -65.5q-57 5 -127 37z" />
<glyph unicode="&#xb9;" horiz-adv-x="532" d="M240 926l6 51h174l108 686l-188 -109l10 56l191 110h47l-119 -743h172l-6 -51h-395z" />
<glyph unicode="&#xba;" horiz-adv-x="913" d="M289 653l8 43h541l-9 -43h-540zM317 1112q25 158 126.5 240t240.5 82q137 0 213 -82t51 -240q-25 -159 -125.5 -240t-238.5 -81q-139 0 -215.5 81t-51.5 240zM369 1112q-22 -137 40.5 -209t178.5 -72q115 0 200 72t107 209q22 136 -40 207.5t-177 71.5q-116 0 -201.5 -71 t-107.5 -208z" />
<glyph unicode="&#xbb;" horiz-adv-x="735" d="M145 141q238 285 304 365l-185 364h70l184 -364l-303 -365h-70zM332 141q237 285 303 365l-184 364h69l185 -364l-304 -365h-69z" />
<glyph unicode="&#xbc;" horiz-adv-x="1478" d="M219 618l8 52h174l109 686l-188 -109l8 56l190 110h47l-116 -743h172l-9 -52h-395zM412 0l792 1413h51l-792 -1413h-51zM803 197h442l-28 -197h47l28 197h121l6 49h-121l91 549h-52l-528 -559zM872 246l457 481l-78 -481h-379z" />
<glyph unicode="&#xbd;" horiz-adv-x="1521" d="M211 618l8 52h174l109 686l-189 -109l9 56l190 110h47l-117 -743h172l-8 -52h-395zM403 0l793 1413h51l-792 -1413h-52zM918 0l2 37l471 436q56 57 71 119q12 76 -37 122t-155 46q-52 0 -115.5 -18.5t-99.5 -43.5l8 54q95 57 215 57q229 0 229 -217q0 -11 -5.5 -29.5 t-31 -58t-67.5 -78.5l-414 -377h430l-6 -49h-495z" />
<glyph unicode="&#xbe;" horiz-adv-x="1570" d="M229 637l7 45q87 -33 180 -33q107 0 171.5 46t76.5 124q2 13 3 26t-2 39t-12.5 46t-33 37t-58.5 22h-174l8 47h172q45 10 78 34.5t48.5 54.5t22.5 49.5t9 35.5q14 78 -36 124t-157 46q-92 0 -190 -32l8 47q93 32 191 32q130 0 188.5 -58.5t44.5 -158.5 q-32 -160 -160 -194q121 -39 101 -197q-15 -99 -95.5 -157t-211.5 -58q-96 0 -179 33zM504 0l794 1413h52l-795 -1413h-51zM897 197l4 39l529 559h51l-88 -549h120l-6 -49h-121l-30 -197h-47l30 197h-442zM967 246h379l75 481z" />
<glyph unicode="&#xbf;" horiz-adv-x="917" d="M80 -74q-28 -171 56.5 -269t299.5 -95q69 2 166.5 27t161.5 59l8 59q-53 -30 -159.5 -58t-170.5 -30q-95 -1 -161.5 21t-99.5 63t-45 98t1 125q3 22 7.5 43.5t23 63.5t45 77.5t77 75.5t116.5 68l-5 -2q148 63 256 167t127 222h-57q-24 -108 -115.5 -194.5t-224.5 -141.5 q-55 -23 -100.5 -54t-75.5 -60.5t-54 -65t-36.5 -62t-22.5 -58.5t-12.5 -46.5t-5.5 -32.5zM754 971q4 47 57 47q43 0 39 -47q-7 -49 -55 -49q-28 0 -36 13t-5 36z" />
<glyph unicode="&#xc0;" horiz-adv-x="1282" d="M63 0q185 390 365 722.5t410 690.5h53q114 -345 184.5 -663.5t143.5 -749.5h-62q-13 70 -39.5 222.5t-42.5 234.5h-725q-140 -273 -225 -457h-62zM373 508h690q-81 428 -211 829q-244 -388 -479 -829zM745 1835h64l90 -227h-57z" />
<glyph unicode="&#xc1;" horiz-adv-x="1282" d="M63 0q185 390 365 722.5t410 690.5h53q114 -345 184.5 -663.5t143.5 -749.5h-62q-13 70 -39.5 222.5t-42.5 234.5h-725q-140 -273 -225 -457h-62zM373 508h690q-81 428 -211 829q-244 -388 -479 -829zM881 1608l163 227h64l-170 -227h-57z" />
<glyph unicode="&#xc2;" horiz-adv-x="1282" d="M63 0q185 390 365 722.5t410 690.5h53q114 -345 184.5 -663.5t143.5 -749.5h-62q-13 70 -39.5 222.5t-42.5 234.5h-725q-140 -273 -225 -457h-62zM373 508h690q-81 428 -211 829q-244 -388 -479 -829zM666 1608l229 227h76l155 -227h-59l-143 190l-199 -190h-59z" />
<glyph unicode="&#xc3;" horiz-adv-x="1282" d="M63 0q185 390 365 722.5t410 690.5h53q114 -345 184.5 -663.5t143.5 -749.5h-62q-13 70 -39.5 222.5t-42.5 234.5h-725q-140 -273 -225 -457h-62zM373 508h690q-81 428 -211 829q-244 -388 -479 -829zM680 1661q30 119 160 119q27 0 59.5 -14.5t57 -28t49.5 -21t46.5 8 t37.5 57.5h57q-39 -119 -129 -119q-10 0 -20.5 2t-17.5 3.5t-19.5 6.5t-15.5 6.5t-18 8.5t-16 8q-55 31 -77 31q-37 0 -63.5 -18t-35.5 -50h-55z" />
<glyph unicode="&#xc4;" horiz-adv-x="1282" d="M63 0q185 390 365 722.5t410 690.5h53q114 -345 184.5 -663.5t143.5 -749.5h-62q-13 70 -39.5 222.5t-42.5 234.5h-725q-140 -273 -225 -457h-62zM373 508h690q-81 428 -211 829q-244 -388 -479 -829zM760 1720q7 43 51 43q48 0 41 -43q-7 -41 -55 -41q-44 0 -37 41z M977 1720q7 43 51 43q48 0 41 -43q-7 -41 -55 -41q-44 0 -37 41z" />
<glyph unicode="&#xc5;" horiz-adv-x="1282" d="M63 0q185 390 365 722.5t410 690.5h53q114 -345 184.5 -663.5t143.5 -749.5h-62q-13 70 -39.5 222.5t-42.5 234.5h-725q-140 -273 -225 -457h-62zM373 508h690q-81 428 -211 829q-244 -388 -479 -829zM754 1724q26 158 186 158q72 0 111.5 -37t25.5 -121 q-13 -82 -65 -119.5t-123 -37.5q-70 0 -109 37.5t-26 119.5zM803 1724q-8 -58 18.5 -84t75.5 -26q50 0 86.5 26.5t44.5 83.5q8 59 -18.5 85t-75.5 26q-50 0 -86.5 -26.5t-44.5 -84.5z" />
<glyph unicode="&#xc6;" horiz-adv-x="1832" d="M68 0q170 383 340.5 716t390.5 695h1134l-8 -57h-735l-96 -594h684l-9 -58h-684l-75 -466q-12 -98 30.5 -137.5t153.5 -41.5h522l-6 -57h-524q-143 3 -196.5 54t-35.5 179l35 224h-651q-127 -260 -211 -457h-59zM362 510h633l138 844h-304q-245 -404 -467 -844z" />
<glyph unicode="&#xc7;" horiz-adv-x="1269" d="M236 702q28 171 107.5 311.5t191 231t246 140t276.5 49.5q185 0 348 -31l-10 -60q-179 33 -346 33q-130 0 -253.5 -45.5t-227 -129t-177 -213t-98.5 -286.5q-21 -132 -2 -238.5t68.5 -186.5t124 -134t165 -81t191.5 -27q208 0 350 37l-8 -62q-182 -33 -351 -33 q-19 0 -40 3q41 -76 47 -132q14 -112 -59.5 -190.5t-198.5 -65.5q-62 6 -127 37l8 62q68 -33 133 -41q76 -9 125 29t59 100q13 86 -55 207q-120 16 -219 70.5t-168.5 142.5t-97 217.5t-2.5 285.5z" />
<glyph unicode="&#xc8;" horiz-adv-x="1118" d="M240 233l186 1180h793l-9 -57h-735l-98 -611h686l-8 -57h-686l-72 -455l-2 3q-12 -98 30.5 -137.5t153.5 -41.5h-2h524l-6 -57h-524q-143 3 -196 54t-35 179zM756 1835h63l90 -227h-57z" />
<glyph unicode="&#xc9;" horiz-adv-x="1118" d="M240 233l186 1180h793l-9 -57h-735l-98 -611h686l-8 -57h-686l-72 -455l-2 3q-12 -98 30.5 -137.5t153.5 -41.5h-2h524l-6 -57h-524q-143 3 -196 54t-35 179zM780 1608l164 227h64l-170 -227h-58z" />
<glyph unicode="&#xca;" horiz-adv-x="1118" d="M240 233l186 1180h793l-9 -57h-735l-98 -611h686l-8 -57h-686l-72 -455l-2 3q-12 -98 30.5 -137.5t153.5 -41.5h-2h524l-6 -57h-524q-143 3 -196 54t-35 179zM614 1608l230 227h76l155 -227h-59l-144 190l-198 -190h-60z" />
<glyph unicode="&#xcb;" horiz-adv-x="1118" d="M240 233l186 1180h793l-9 -57h-735l-98 -611h686l-8 -57h-686l-72 -455l-2 3q-12 -98 30.5 -137.5t153.5 -41.5h-2h524l-6 -57h-524q-143 3 -196 54t-35 179zM678 1720q7 43 51 43q48 0 41 -43q-7 -41 -55 -41q-44 0 -37 41zM895 1720q7 43 51 43q48 0 41 -43 q-7 -41 -55 -41q-44 0 -37 41z" />
<glyph unicode="&#xcc;" horiz-adv-x="475" d="M209 0l223 1413h57l-223 -1413h-57zM367 1835h63l90 -227h-57z" />
<glyph unicode="&#xcd;" horiz-adv-x="475" d="M209 0l223 1413h57l-223 -1413h-57zM465 1608l164 227h63l-170 -227h-57z" />
<glyph unicode="&#xce;" horiz-adv-x="475" d="M209 0l223 1413h57l-223 -1413h-57zM264 1608l230 227h75l156 -227h-59l-144 190l-198 -190h-60z" />
<glyph unicode="&#xcf;" horiz-adv-x="475" d="M209 0l223 1413h57l-223 -1413h-57zM358 1720q7 43 52 43q48 0 41 -43q-7 -41 -56 -41q-44 0 -37 41zM575 1720q7 43 52 43q48 0 41 -43q-7 -41 -56 -41q-44 0 -37 41z" />
<glyph unicode="&#xd0;" horiz-adv-x="1413" d="M166 709l10 59h160l102 645h439q99 0 186.5 -29t158.5 -86.5t117.5 -143.5t62.5 -199t-7 -253q-28 -172 -102 -309t-176 -221t-220.5 -128t-243.5 -44h-438l111 709h-160zM279 53h380q114 0 222 41t201.5 119t161.5 204.5t93 284.5q25 156 -2 283.5t-94 208t-162.5 123.5 t-208.5 43h-381l-96 -592h324l-10 -59h-324z" />
<glyph unicode="&#xd1;" horiz-adv-x="1433" d="M209 0l223 1413h66q190 -225 378.5 -592t303.5 -731l211 1323h57l-223 -1413h-74q-115 363 -302.5 740t-369.5 601l-213 -1341h-57zM758 1661q30 119 160 119q27 0 59 -14.5t56.5 -28t49.5 -21t46.5 8t37.5 57.5h58q-39 -119 -129 -119q-10 0 -20.5 2t-17.5 3.5 t-19.5 6.5t-15.5 6.5t-18 8.5t-16 8q-55 31 -78 31q-37 0 -63 -18t-35 -50h-55z" />
<glyph unicode="&#xd2;" horiz-adv-x="1650" d="M238 700q25 154 86 280t142 209t181 139.5t200.5 81t203.5 24.5q85 0 164 -17.5t153 -54.5t130 -95.5t95.5 -140t48.5 -187.5t-10 -239q-54 -331 -276 -527t-539 -196q-316 2 -474.5 197.5t-104.5 525.5zM293 700q-31 -195 24 -347t187 -237t321 -85q290 0 497 186 t255 483q24 142 3 253t-70 191.5t-124.5 133t-161.5 77.5t-180 25t-188 -24.5t-186 -78.5t-167.5 -132t-131.5 -192.5t-78 -252.5zM956 1835h64l90 -227h-57z" />
<glyph unicode="&#xd3;" horiz-adv-x="1650" d="M238 700q25 154 86 280t142 209t181 139.5t200.5 81t203.5 24.5q85 0 164 -17.5t153 -54.5t130 -95.5t95.5 -140t48.5 -187.5t-10 -239q-54 -331 -276 -527t-539 -196q-316 2 -474.5 197.5t-104.5 525.5zM293 700q-31 -195 24 -347t187 -237t321 -85q290 0 497 186 t255 483q24 142 3 253t-70 191.5t-124.5 133t-161.5 77.5t-180 25t-188 -24.5t-186 -78.5t-167.5 -132t-131.5 -192.5t-78 -252.5zM1053 1608l164 227h63l-170 -227h-57z" />
<glyph unicode="&#xd4;" horiz-adv-x="1650" d="M238 700q25 154 86 280t142 209t181 139.5t200.5 81t203.5 24.5q85 0 164 -17.5t153 -54.5t130 -95.5t95.5 -140t48.5 -187.5t-10 -239q-54 -331 -276 -527t-539 -196q-316 2 -474.5 197.5t-104.5 525.5zM293 700q-31 -195 24 -347t187 -237t321 -85q290 0 497 186 t255 483q24 142 3 253t-70 191.5t-124.5 133t-161.5 77.5t-180 25t-188 -24.5t-186 -78.5t-167.5 -132t-131.5 -192.5t-78 -252.5zM850 1608l229 227h76l156 -227h-60l-141 190l-201 -190h-59z" />
<glyph unicode="&#xd5;" horiz-adv-x="1650" d="M238 700q25 154 86 280t142 209t181 139.5t200.5 81t203.5 24.5q85 0 164 -17.5t153 -54.5t130 -95.5t95.5 -140t48.5 -187.5t-10 -239q-54 -331 -276 -527t-539 -196q-316 2 -474.5 197.5t-104.5 525.5zM293 700q-31 -195 24 -347t187 -237t321 -85q290 0 497 186 t255 483q24 142 3 253t-70 191.5t-124.5 133t-161.5 77.5t-180 25t-188 -24.5t-186 -78.5t-167.5 -132t-131.5 -192.5t-78 -252.5zM864 1661q33 119 160 119q27 0 59.5 -14.5t57.5 -28t50 -21t46 8t37 57.5h57q-37 -119 -129 -119q-10 0 -20.5 1.5t-17.5 3.5t-18.5 6.5 t-16 7t-17.5 8.5t-16 8q-55 31 -78 31q-37 0 -63 -18t-35 -50h-56z" />
<glyph unicode="&#xd6;" horiz-adv-x="1650" d="M238 700q25 154 86 280t142 209t181 139.5t200.5 81t203.5 24.5q85 0 164 -17.5t153 -54.5t130 -95.5t95.5 -140t48.5 -187.5t-10 -239q-54 -331 -276 -527t-539 -196q-316 2 -474.5 197.5t-104.5 525.5zM293 700q-31 -195 24 -347t187 -237t321 -85q290 0 497 186 t255 483q24 142 3 253t-70 191.5t-124.5 133t-161.5 77.5t-180 25t-188 -24.5t-186 -78.5t-167.5 -132t-131.5 -192.5t-78 -252.5zM944 1720q7 43 51 43q48 0 41 -43q-7 -41 -53 -41t-39 41zM1161 1720q7 43 51 43q48 0 41 -43q-7 -41 -53 -41t-39 41z" />
<glyph unicode="&#xd7;" horiz-adv-x="999" d="M184 260l367 313l-264 314l49 41l260 -314l367 314l32 -41l-362 -314l260 -313l-45 -41l-264 313l-363 -313z" />
<glyph unicode="&#xd8;" horiz-adv-x="1650" d="M119 0l209 193q-139 198 -88 507q25 154 86 280t142 209t181 139.5t200.5 81t203.5 24.5q131 0 249 -42t201 -128l201 184l33 -35l-203 -186q154 -196 100 -527q-54 -330 -277 -526.5t-540 -196.5q-303 3 -459 179l-206 -191zM295 700q-46 -279 82 -462l1075 981 q-77 81 -183.5 121t-224.5 40q-94 0 -188 -24.5t-185.5 -78.5t-166.5 -132t-131 -192.5t-78 -252.5zM408 199q146 -168 417 -168q290 0 498 186.5t256 482.5q49 298 -94 482z" />
<glyph unicode="&#xd9;" horiz-adv-x="1470" d="M273 416.5q-1 -71.5 10.5 -125.5t29 -99t46 -76t56.5 -55t64.5 -38.5t67 -24.5t67.5 -14t61.5 -5.5t53.5 -1.5q539 0 635 594l133 842h-57l-133 -842q-86 -536 -570 -536q-29 0 -53 1.5t-62.5 7t-67 16.5t-66.5 29.5t-60.5 46.5t-49.5 67.5t-34 92.5t-13 121.5t13 153.5 l133 842h-57l-133 -842q-13 -83 -14 -154.5zM883 1835h63l90 -227h-57z" />
<glyph unicode="&#xda;" horiz-adv-x="1470" d="M273 416.5q1 71.5 14 154.5l133 842h57l-133 -842q-19 -85 -13 -153.5t13 -121.5t34 -92.5t49.5 -67.5t60.5 -46.5t66.5 -29.5t67 -16.5t62.5 -7t53 -1.5q484 0 570 536l133 842h57l-133 -842q-96 -594 -635 -594q-29 0 -53.5 1.5t-61.5 5.5t-67.5 14t-67 24.5 t-64.5 38.5t-56.5 55t-46 76t-29 99t-10.5 125.5zM895 1608l164 227h63l-170 -227h-57z" />
<glyph unicode="&#xdb;" horiz-adv-x="1470" d="M273 416.5q1 71.5 14 154.5l133 842h57l-133 -842q-19 -85 -13 -153.5t13 -121.5t34 -92.5t49.5 -67.5t60.5 -46.5t66.5 -29.5t67 -16.5t62.5 -7t53 -1.5q484 0 570 536l133 842h57l-133 -842q-96 -594 -635 -594q-29 0 -53.5 1.5t-61.5 5.5t-67.5 14t-67 24.5 t-64.5 38.5t-56.5 55t-46 76t-29 99t-10.5 125.5zM760 1608l229 227h76l156 -227h-60l-143 190l-199 -190h-59z" />
<glyph unicode="&#xdc;" horiz-adv-x="1470" d="M273 416.5q-1 -71.5 10.5 -125.5t29 -99t46 -76t56.5 -55t64.5 -38.5t67 -24.5t67.5 -14t61.5 -5.5t53.5 -1.5q539 0 635 594l133 842h-57l-133 -842q-86 -536 -570 -536q-29 0 -53 1.5t-62.5 7t-67 16.5t-66.5 29.5t-60.5 46.5t-49.5 67.5t-34 92.5t-13 121.5t13 153.5 l133 842h-57l-133 -842q-13 -83 -14 -154.5zM854 1720q7 43 51 43q48 0 41 -43q-7 -41 -55 -41q-44 0 -37 41zM1071 1720q7 43 51 43q48 0 41 -43q-7 -41 -55 -41q-44 0 -37 41z" />
<glyph unicode="&#xdd;" horiz-adv-x="1071" d="M268 1413h66l311 -735l535 735h65l-583 -799l-97 -614h-57l96 612zM756 1608l164 227h63l-170 -227h-57z" />
<glyph unicode="&#xde;" horiz-adv-x="1138" d="M209 0l223 1411h60l-48 -301h428q145 0 230.5 -107.5t56.5 -297.5q-31 -192 -150 -296t-266 -104h-428l-47 -305h-59zM324 362h430q124 0 224 89.5t126 253.5t-44.5 256t-193.5 92h-430z" />
<glyph unicode="&#xdf;" horiz-adv-x="1134" d="M176 0l143 909q9 58 19.5 104.5t29.5 103t43.5 99.5t63 85.5t86.5 70.5t115 45t147 17q69 0 127 -19.5t103 -58.5t64 -106t5 -154q-18 -108 -97 -205t-185 -125q37 -4 82.5 -35t87 -81t63.5 -125t10 -154q-27 -168 -159 -269.5t-299 -101.5h-232l6 57h232q143 0 257.5 86 t137.5 228q12 76 -5 140t-51.5 104.5t-79 69t-84 40.5t-69.5 12h-22l12 68h12q129 0 218 87t108 204q12 72 -4 128t-53.5 88t-86.5 48t-106 16q-96 0 -170.5 -29.5t-118.5 -73t-76.5 -110.5t-46.5 -123t-26 -131l-144 -909h-57z" />
<glyph unicode="&#xe0;" horiz-adv-x="1073" d="M139 270q-50 -293 277 -293q86 0 228.5 45t189.5 84q-2 -16 2.5 -36t16 -42t38 -36.5t63.5 -14.5q56 0 127 31l11 58q-76 -33 -129 -33q-37 0 -56.5 22.5t-13.5 63.5l78 479q17 96 7.5 167t-33.5 119t-66 77.5t-89.5 42t-105.5 12.5q-158 0 -360 -78l-11 -57 q205 77 361 77q48 0 88 -11t75 -36.5t54.5 -67t27 -102.5t-7.5 -143l-12 -74q-153 43 -281 43q-201 0 -328.5 -77t-150.5 -220zM197 270q20 116 128.5 178t282.5 62q143 0 285 -37l-49 -305q-82 -59 -207.5 -96t-212.5 -37q-266 0 -227 235zM602 1413h64l90 -227h-58z" />
<glyph unicode="&#xe1;" horiz-adv-x="1073" d="M139 270q23 143 150.5 220t328.5 77q128 0 281 -43l12 74q15 82 7.5 143t-27 102.5t-54.5 67t-75 36.5t-88 11q-156 0 -361 -77l11 57q202 78 360 78q58 0 105.5 -12.5t89.5 -42t66 -77.5t33.5 -119t-7.5 -167l-78 -479q-6 -41 13.5 -63.5t56.5 -22.5q53 0 129 33 l-11 -58q-71 -31 -127 -31q-37 0 -63.5 14.5t-38 36.5t-16 42t-2.5 36q-47 -39 -189.5 -84t-228.5 -45q-327 0 -277 293zM197 270q-39 -235 227 -235q87 0 212.5 37t207.5 96l49 305q-142 37 -285 37q-174 0 -282.5 -62t-128.5 -178zM637 1186l164 227h63l-170 -227h-57z " />
<glyph unicode="&#xe2;" horiz-adv-x="1073" d="M139 270q23 143 150.5 220t328.5 77q128 0 281 -43l12 74q15 82 7.5 143t-27 102.5t-54.5 67t-75 36.5t-88 11q-156 0 -361 -77l11 57q202 78 360 78q58 0 105.5 -12.5t89.5 -42t66 -77.5t33.5 -119t-7.5 -167l-78 -479q-6 -41 13.5 -63.5t56.5 -22.5q53 0 129 33 l-11 -58q-71 -31 -127 -31q-37 0 -63.5 14.5t-38 36.5t-16 42t-2.5 36q-47 -39 -189.5 -84t-228.5 -45q-327 0 -277 293zM197 270q-39 -235 227 -235q87 0 212.5 37t207.5 96l49 305q-142 37 -285 37q-174 0 -282.5 -62t-128.5 -178zM453 1186l229 227h76l155 -227h-59 l-141 190l-201 -190h-59z" />
<glyph unicode="&#xe3;" horiz-adv-x="1073" d="M139 270q-50 -293 277 -293q86 0 228.5 45t189.5 84q-2 -16 2.5 -36t16 -42t38 -36.5t63.5 -14.5q56 0 127 31l11 58q-76 -33 -129 -33q-37 0 -56.5 22.5t-13.5 63.5l78 479q17 96 7.5 167t-33.5 119t-66 77.5t-89.5 42t-105.5 12.5q-158 0 -360 -78l-11 -57 q205 77 361 77q48 0 88 -11t75 -36.5t54.5 -67t27 -102.5t-7.5 -143l-12 -74q-153 43 -281 43q-201 0 -328.5 -77t-150.5 -220zM197 270q20 116 128.5 178t282.5 62q143 0 285 -37l-49 -305q-82 -59 -207.5 -96t-212.5 -37q-266 0 -227 235zM485 1239q30 119 160 119 q27 0 59 -14.5t56.5 -28t50 -21t47.5 8t39 57.5h57q-42 -119 -131 -119q-10 0 -20.5 1.5t-17.5 3.5t-18.5 6.5t-16 7t-17.5 8.5t-16 8q-55 31 -82 31q-72 0 -94 -68h-56z" />
<glyph unicode="&#xe4;" horiz-adv-x="1073" d="M139 270q-50 -293 277 -293q86 0 228.5 45t189.5 84q-2 -16 2.5 -36t16 -42t38 -36.5t63.5 -14.5q56 0 127 31l11 58q-76 -33 -129 -33q-37 0 -56.5 22.5t-13.5 63.5l78 479q17 96 7.5 167t-33.5 119t-66 77.5t-89.5 42t-105.5 12.5q-158 0 -360 -78l-11 -57 q205 77 361 77q48 0 88 -11t75 -36.5t54.5 -67t27 -102.5t-7.5 -143l-12 -74q-153 43 -281 43q-201 0 -328.5 -77t-150.5 -220zM197 270q20 116 128.5 178t282.5 62q143 0 285 -37l-49 -305q-82 -59 -207.5 -96t-212.5 -37q-266 0 -227 235zM537 1298q7 43 53 43t39 -43 q-7 -41 -54 -41q-45 0 -38 41zM754 1298q7 43 53 43t39 -43q-7 -41 -53 -41t-39 41z" />
<glyph unicode="&#xe5;" horiz-adv-x="1073" d="M139 270q23 143 150.5 220t328.5 77q128 0 281 -43l12 74q15 82 7.5 143t-27 102.5t-54.5 67t-75 36.5t-88 11q-156 0 -361 -77l11 57q202 78 360 78q58 0 105.5 -12.5t89.5 -42t66 -77.5t33.5 -119t-7.5 -167l-78 -479q-6 -41 13.5 -63.5t56.5 -22.5q53 0 129 33 l-11 -58q-71 -31 -127 -31q-37 0 -63.5 14.5t-38 36.5t-16 42t-2.5 36q-47 -39 -189.5 -84t-228.5 -45q-327 0 -277 293zM197 270q-39 -235 227 -235q87 0 212.5 37t207.5 96l49 305q-142 37 -285 37q-174 0 -282.5 -62t-128.5 -178zM543 1303q13 84 64 120.5t124 36.5 q158 0 135 -157q-13 -82 -64.5 -120t-121.5 -38t-110 38t-27 120zM592 1303q-10 -57 17.5 -84t76.5 -27t85 26.5t46 84.5q10 59 -17 84.5t-77 25.5q-113 0 -131 -110z" />
<glyph unicode="&#xe6;" horiz-adv-x="1826" d="M139 270q23 143 150.5 220t328.5 77q128 0 281 -43l12 74q15 82 7.5 143t-27 102.5t-54.5 67t-75 36.5t-88 11q-156 0 -361 -77l11 57q202 78 360 78q128 0 208.5 -65.5t86.5 -213.5q78 133 201 206t258 73q211 0 308.5 -144.5t59.5 -394.5h-856q-29 -222 68.5 -334 t279.5 -112q180 3 355 45l-8 -53q-190 -44 -355 -46q-143 0 -242.5 59.5t-138.5 180.5l-32 -217h-52l11 125q-60 -60 -192.5 -104t-227.5 -44q-327 0 -277 293zM197 270q-39 -235 227 -235q85 0 212 39.5t210 99.5l47 299q-142 37 -285 37q-174 0 -282.5 -62t-128.5 -178z M958 526h797q22 203 -64.5 317.5t-263.5 114.5q-105 0 -200.5 -48.5t-169 -148.5t-99.5 -235z" />
<glyph unicode="&#xe7;" horiz-adv-x="935" d="M190 496q21 121 78.5 221.5t135 164.5t166 99t175.5 35q138 0 261 -25l-7 -53q-98 20 -264 20q-76 0 -153.5 -31t-145 -88t-118.5 -146.5t-70 -196.5q-17 -109 5 -199t72 -146.5t118 -87t145 -30.5q166 0 268 20l-8 -55q-126 -23 -262 -23q37 -76 43 -127 q14 -112 -59.5 -190.5t-198.5 -65.5q-57 5 -127 37l8 62q74 -34 133 -41q76 -9 126 29t60 100q14 87 -53 201q-79 11 -145.5 50t-114.5 102.5t-67 157.5t-1 206z" />
<glyph unicode="&#xe8;" horiz-adv-x="1124" d="M195.5 266q-18.5 100 1.5 238q19 120 72.5 218.5t127.5 162t161.5 97.5t178.5 34q212 0 309.5 -144.5t57.5 -394.5h-856q-29 -221 69.5 -333.5t280.5 -112.5q174 2 354 45l-8 -53q-195 -44 -354 -46q-103 0 -183 30.5t-136.5 94.5t-75 164zM256 526h797q23 203 -63 317.5 t-263 114.5q-162 0 -296.5 -115.5t-174.5 -316.5zM641 1413h64l92 -227h-58z" />
<glyph unicode="&#xe9;" horiz-adv-x="1124" d="M195.5 266q-18.5 100 1.5 238q19 120 72.5 218.5t127.5 162t161.5 97.5t178.5 34q212 0 309.5 -144.5t57.5 -394.5h-856q-29 -221 69.5 -333.5t280.5 -112.5q174 2 354 45l-8 -53q-195 -44 -354 -46q-103 0 -183 30.5t-136.5 94.5t-75 164zM256 526h797q23 203 -63 317.5 t-263 114.5q-162 0 -296.5 -115.5t-174.5 -316.5zM715 1186l162 227h63l-168 -227h-57z" />
<glyph unicode="&#xea;" horiz-adv-x="1124" d="M195.5 266q-18.5 100 1.5 238q19 120 72.5 218.5t127.5 162t161.5 97.5t178.5 34q212 0 309.5 -144.5t57.5 -394.5h-856q-29 -221 69.5 -333.5t280.5 -112.5q174 2 354 45l-8 -53q-195 -44 -354 -46q-103 0 -183 30.5t-136.5 94.5t-75 164zM256 526h797q23 203 -63 317.5 t-263 114.5q-162 0 -296.5 -115.5t-174.5 -316.5zM530 1186l228 227h76l157 -227h-59l-141 190l-201 -190h-60z" />
<glyph unicode="&#xeb;" horiz-adv-x="1124" d="M195.5 266q-18.5 100 1.5 238q19 120 72.5 218.5t127.5 162t161.5 97.5t178.5 34q212 0 309.5 -144.5t57.5 -394.5h-856q-29 -221 69.5 -333.5t280.5 -112.5q174 2 354 45l-8 -53q-195 -44 -354 -46q-103 0 -183 30.5t-136.5 94.5t-75 164zM256 526h797q23 203 -63 317.5 t-263 114.5q-162 0 -296.5 -115.5t-174.5 -316.5zM621 1298q7 48 55 48q52 0 45 -48q-4 -45 -57 -45q-47 0 -43 45zM838 1298q7 48 55 48q52 0 45 -48q-4 -45 -57 -45q-47 0 -43 45z" />
<glyph unicode="&#xec;" horiz-adv-x="407" d="M174 0l156 991h59l-156 -991h-59zM266 1413h64l92 -227h-57z" />
<glyph unicode="&#xed;" horiz-adv-x="407" d="M174 0l156 991h59l-156 -991h-59zM362 1186l162 227h64l-168 -227h-58z" />
<glyph unicode="&#xee;" horiz-adv-x="407" d="M162 1186l227 227h76l158 -227h-60l-141 190l-201 -190h-59zM174 0l156 991h59l-156 -991h-59z" />
<glyph unicode="&#xef;" horiz-adv-x="407" d="M174 0l156 991h59l-156 -991h-59zM254 1298q7 43 53 43t39 -43q-7 -41 -51 -41q-24 0 -34 11.5t-7 29.5zM471 1298q7 43 53 43t39 -43q-7 -41 -51 -41q-24 0 -34 11.5t-7 29.5z" />
<glyph unicode="&#xf0;" horiz-adv-x="1236" d="M188.5 278.5q-17.5 84.5 1.5 196.5q17 110 61 198t102.5 144.5t131 93.5t144 51.5t143.5 12.5q25 0 56.5 -3t82 -13t102.5 -35t91 -62q-37 110 -102.5 212t-147.5 179l-297 -125l8 54l250 104q-101 82 -221 131l27 53q143 -56 253 -157l281 119l-6 -52l-234 -100 q154 -156 233.5 -370t45.5 -429q-18 -117 -61.5 -207.5t-100 -146t-129 -90.5t-143 -48t-148.5 -12q-73 -2 -140 13t-127.5 51t-99.5 94.5t-56.5 143zM245 301q15 -75 49 -127t87.5 -83.5t112.5 -44.5t124 -11q69 -1 132 10t127 42.5t114.5 80.5t89.5 129t56 184 q25 161 -11 301q-146 136 -364 136q-64 2 -127 -10.5t-126.5 -45.5t-115 -83t-90.5 -128.5t-55 -175.5q-18 -99 -3 -174z" />
<glyph unicode="&#xf1;" horiz-adv-x="1148" d="M174 0l156 991h47l-4 -100q203 125 387 125q386 0 323 -398l-98 -618h-57l96 618q29 182 -46.5 262.5t-227.5 80.5q-73 0 -180.5 -35t-207.5 -95l-131 -831h-57zM547 1239q33 119 160 119q27 0 59 -14.5t56.5 -28t49.5 -21t47 8t39 57.5h58q-42 -119 -131 -119 q-10 0 -20.5 2t-17.5 3.5t-19.5 6.5t-15.5 6.5t-18 8.5t-16 8q-55 31 -80 31q-74 0 -96 -68h-55z" />
<glyph unicode="&#xf2;" d="M193 496q-21 -130 2.5 -231.5t83.5 -163t145 -93t192 -31.5t202 31.5t174.5 93t135 163t76.5 231.5q21 131 -2.5 231.5t-83 162.5t-144.5 93t-192 31t-202.5 -31t-175 -93t-135 -163t-76.5 -231zM250 496q37 229 182 349t342 120q95 0 170.5 -29t128 -85.5t73 -147.5 t1.5 -207q-37 -229 -182 -349t-342 -120q-95 0 -170.5 29t-128 85.5t-73 147.5t-1.5 207zM688 1413h64l92 -227h-58z" />
<glyph unicode="&#xf3;" d="M193 496q21 130 76.5 231t135 163t175 93t202.5 31t192 -31t144.5 -93t83 -162.5t2.5 -231.5q-21 -130 -76.5 -231.5t-135 -163t-174.5 -93t-202 -31.5t-192 31.5t-145 93t-83.5 163t-2.5 231.5zM250 496q-19 -116 1.5 -207t73 -147.5t128 -85.5t170.5 -29q197 0 342 120 t182 349q19 116 -1.5 207t-73 147.5t-128 85.5t-170.5 29q-197 0 -342 -120t-182 -349zM770 1186l162 227h63l-168 -227h-57z" />
<glyph unicode="&#xf4;" d="M193 496q21 130 76.5 231t135 163t175 93t202.5 31t192 -31t144.5 -93t83 -162.5t2.5 -231.5q-21 -130 -76.5 -231.5t-135 -163t-174.5 -93t-202 -31.5t-192 31.5t-145 93t-83.5 163t-2.5 231.5zM250 496q-19 -116 1.5 -207t73 -147.5t128 -85.5t170.5 -29q197 0 342 120 t182 349q19 116 -1.5 207t-73 147.5t-128 85.5t-170.5 29q-197 0 -342 -120t-182 -349zM578 1186l227 227h76l157 -227h-59l-141 190l-201 -190h-59z" />
<glyph unicode="&#xf5;" d="M193 496q-21 -130 2.5 -231.5t83.5 -163t145 -93t192 -31.5t202 31.5t174.5 93t135 163t76.5 231.5q21 131 -2.5 231.5t-83 162.5t-144.5 93t-192 31t-202.5 -31t-175 -93t-135 -163t-76.5 -231zM250 496q37 229 182 349t342 120q95 0 170.5 -29t128 -85.5t73 -147.5 t1.5 -207q-37 -229 -182 -349t-342 -120q-95 0 -170.5 29t-128 85.5t-73 147.5t-1.5 207zM592 1239q33 119 160 119q27 0 59.5 -14.5t57 -28t50 -21t47 8t38.5 57.5h57q-39 -119 -131 -119q-10 0 -20.5 2t-17.5 3.5t-19.5 6.5t-15.5 6.5t-18 8.5t-16 8q-55 31 -80 31 q-74 0 -96 -68h-55z" />
<glyph unicode="&#xf6;" d="M193 496q-21 -130 2.5 -231.5t83.5 -163t145 -93t192 -31.5t202 31.5t174.5 93t135 163t76.5 231.5q21 131 -2.5 231.5t-83 162.5t-144.5 93t-192 31t-202.5 -31t-175 -93t-135 -163t-76.5 -231zM250 496q37 229 182 349t342 120q95 0 170.5 -29t128 -85.5t73 -147.5 t1.5 -207q-37 -229 -182 -349t-342 -120q-95 0 -170.5 29t-128 85.5t-73 147.5t-1.5 207zM672 1298q7 43 51 43q48 0 41 -43q-7 -41 -53 -41t-39 41zM889 1298q7 43 51 43q48 0 41 -43q-7 -41 -53 -41t-39 41z" />
<glyph unicode="&#xf7;" horiz-adv-x="1101" d="M260 616l10 58h770l-10 -58h-770zM532 254q7 51 62 51q56 0 49 -51q-7 -49 -63 -49q-28 0 -39.5 13.5t-8.5 35.5zM657 1030q7 51 62 51q56 0 49 -51q-2 -22 -18.5 -35.5t-47.5 -13.5q-49 0 -45 49z" />
<glyph unicode="&#xf8;" d="M125 -33l145 146q-116 132 -77 383q21 130 76.5 231t135 163t175 93t202.5 31q183 0 299 -88l136 141l36 -31l-143 -141q138 -141 94 -399q-21 -130 -76.5 -231.5t-135 -163t-174.5 -93t-202 -31.5q-200 0 -315 103l-143 -146zM250 496q-36 -214 63 -340l721 727 q-98 82 -260 82q-197 0 -342 -120t-182 -349zM342 123q99 -96 281 -96q197 0 342 120t182 349q39 233 -78 356z" />
<glyph unicode="&#xf9;" horiz-adv-x="1191" d="M221 373l98 618h58l-98 -618q-29 -181 47 -261.5t229 -80.5q73 0 180 34.5t207 94.5l131 831h57l-139 -872q-6 -40 14 -63t58 -23q51 0 127 33l-10 -58q-71 -31 -125 -31q-61 0 -94.5 36.5t-24.5 101.5q-66 -62 -184.5 -101t-204.5 -39q-389 0 -326 398zM666 1413h63 l92 -227h-57z" />
<glyph unicode="&#xfa;" horiz-adv-x="1191" d="M221 373l98 618h58l-98 -618q-29 -181 47 -261.5t229 -80.5q73 0 180 34.5t207 94.5l131 831h57l-139 -872q-6 -40 14 -63t58 -23q51 0 127 33l-10 -58q-71 -31 -125 -31q-61 0 -94.5 36.5t-24.5 101.5q-66 -62 -184.5 -101t-204.5 -39q-389 0 -326 398zM725 1186 l162 227h63l-168 -227h-57z" />
<glyph unicode="&#xfb;" horiz-adv-x="1191" d="M221 373l98 618h58l-98 -618q-29 -181 47 -261.5t229 -80.5q73 0 180 34.5t207 94.5l131 831h57l-139 -872q-6 -40 14 -63t58 -23q51 0 127 33l-10 -58q-71 -31 -125 -31q-61 0 -94.5 36.5t-24.5 101.5q-66 -62 -184.5 -101t-204.5 -39q-389 0 -326 398zM524 1186 l228 227h75l158 -227h-59l-142 190l-200 -190h-60z" />
<glyph unicode="&#xfc;" horiz-adv-x="1191" d="M221 373l98 618h58l-98 -618q-29 -181 47 -261.5t229 -80.5q73 0 180 34.5t207 94.5l131 831h57l-139 -872q-6 -40 14 -63t58 -23q51 0 127 33l-10 -58q-71 -31 -125 -31q-61 0 -94.5 36.5t-24.5 101.5q-66 -62 -184.5 -101t-204.5 -39q-389 0 -326 398zM610 1298 q7 43 54 43q45 0 38 -43q-7 -41 -51 -41q-24 0 -34 11.5t-7 29.5zM827 1298q7 43 54 43q46 0 39 -43q-7 -41 -52 -41q-24 0 -34 11.5t-7 29.5z" />
<glyph unicode="&#xfd;" horiz-adv-x="1007" d="M72 -463l10 51h24q5 0 14 1q98 6 136 22q64 29 114 131q3 5 5 10l92 195l-260 1044h61l238 -981l543 981h63l-575 -1030l-123 -248q-55 -106 -126.5 -141t-191.5 -35h-24zM641 1186l162 227h63l-168 -227h-57z" />
<glyph unicode="&#xfe;" horiz-adv-x="1169" d="M106 -410l297 1864h60l-84 -547q91 57 184 83t164 26q88 0 168 -32.5t141.5 -93t89.5 -159t9 -219.5q-17 -108 -54.5 -195.5t-87 -144t-104 -96.5t-114 -60.5t-107.5 -29.5t-93 -9q-86 0 -182.5 43t-140.5 107l-86 -537h-60zM260 182q40 -55 144 -101t180 -46 q48 0 99.5 10.5t116 42.5t117.5 82t97.5 139t62.5 203q14 89 0 160.5t-48 125t-84 89t-108 53.5t-120 18q-70 0 -166 -27.5t-182 -80.5z" />
<glyph unicode="&#xff;" horiz-adv-x="1007" d="M72 -463l10 51h24q5 0 14 1q98 6 136 22q64 29 114 131q3 5 5 10l92 195l-260 1044h61l238 -981l543 981h63l-575 -1030l-123 -248q-55 -106 -126.5 -141t-191.5 -35h-24zM557 1298q7 43 53 43t39 -43q-7 -41 -51 -41q-24 0 -34 11.5t-7 29.5zM774 1298q7 43 53 43 t39 -43q-7 -41 -51 -41q-24 0 -34 11.5t-7 29.5z" />
<glyph unicode="&#x152;" horiz-adv-x="2381" d="M238 700q25 154 86 280t142 209t181 139.5t200.5 81t203.5 24.5q98 0 188 -24t169.5 -72t137 -129.5t82.5 -188.5l62 393h792l-8 -57h-735l-97 -611h687l-9 -57h-686l-75 -452q-10 -98 32 -137.5t152 -41.5h522l-6 -57h-524q-143 3 -196.5 54t-35.5 179l25 154 q-110 -195 -294.5 -302.5t-416.5 -107.5q-316 2 -474.5 197.5t-104.5 525.5zM293 700q-31 -195 24 -347t187 -237t321 -85q285 0 494.5 178t253.5 461l4 30q20 138 0 253t-70 193t-124 131.5t-159.5 78t-179.5 24.5t-188 -24.5t-186 -78.5t-167.5 -132t-131.5 -192.5 t-78 -252.5z" />
<glyph unicode="&#x153;" horiz-adv-x="2078" d="M193 496q21 130 76.5 231t135 163t175 93t202.5 31q173 0 287.5 -81t138.5 -241q73 153 206 238.5t278 85.5q211 0 308.5 -144.5t57.5 -394.5h-856q-29 -221 69.5 -333.5t280.5 -112.5q175 2 355 45l-9 -53q-195 -44 -354 -46q-166 0 -273 79t-128 239 q-74 -157 -214.5 -237.5t-312.5 -80.5q-107 0 -192 31.5t-145 93t-83.5 163t-2.5 231.5zM250 496q-19 -116 1.5 -207t73 -147.5t128 -85.5t170.5 -29q197 0 342 120t182 349q19 116 -1.5 207t-73 147.5t-128 85.5t-170.5 29q-197 0 -342 -120t-182 -349zM1210 526h797 q23 203 -63 317.5t-263 114.5q-162 0 -296.5 -115.5t-174.5 -316.5z" />
<glyph unicode="&#x178;" horiz-adv-x="1071" d="M268 1413h66l311 -735l535 735h65l-583 -799l-97 -614h-57l96 612zM653 1726q7 43 52 43q47 0 40 -43q-7 -40 -55 -40q-44 0 -37 40zM870 1726q7 43 52 43q48 0 41 -43q-7 -40 -56 -40q-44 0 -37 40z" />
<glyph unicode="&#x2c6;" horiz-adv-x="870" d="M393 1186l228 227h75l158 -227h-59l-142 190l-200 -190h-60z" />
<glyph unicode="&#x2dc;" horiz-adv-x="776" d="M360 1239q33 119 160 119q27 0 59 -14.5t56.5 -28t50 -21t47.5 8t39 57.5h57q-39 -119 -131 -119q-10 0 -20.5 1.5t-17.5 3.5t-18.5 6.5t-16 7t-17.5 8.5t-16 8q-55 31 -80 31q-74 0 -96 -68h-56z" />
<glyph unicode="&#x2000;" horiz-adv-x="941" />
<glyph unicode="&#x2001;" horiz-adv-x="1882" />
<glyph unicode="&#x2002;" horiz-adv-x="941" />
<glyph unicode="&#x2003;" horiz-adv-x="1882" />
<glyph unicode="&#x2004;" horiz-adv-x="627" />
<glyph unicode="&#x2005;" horiz-adv-x="470" />
<glyph unicode="&#x2006;" horiz-adv-x="313" />
<glyph unicode="&#x2007;" horiz-adv-x="313" />
<glyph unicode="&#x2008;" horiz-adv-x="235" />
<glyph unicode="&#x2009;" horiz-adv-x="376" />
<glyph unicode="&#x200a;" horiz-adv-x="104" />
<glyph unicode="&#x2010;" horiz-adv-x="917" d="M240 557l8 53h614l-8 -53h-614z" />
<glyph unicode="&#x2011;" horiz-adv-x="917" d="M240 557l8 53h614l-8 -53h-614z" />
<glyph unicode="&#x2012;" horiz-adv-x="917" d="M240 557l8 53h614l-8 -53h-614z" />
<glyph unicode="&#x2013;" horiz-adv-x="1228" d="M231 520l11 55h925l-10 -55h-926z" />
<glyph unicode="&#x2014;" horiz-adv-x="1722" d="M231 520l11 55h1419l-10 -55h-1420z" />
<glyph unicode="&#x2018;" horiz-adv-x="368" d="M299 1110l152 324h41l-142 -324h-51z" />
<glyph unicode="&#x2019;" horiz-adv-x="366" d="M301 1110l141 324h52l-152 -324h-41z" />
<glyph unicode="&#x201a;" horiz-adv-x="370" d="M55 -168l144 324h51l-154 -324h-41z" />
<glyph unicode="&#x201c;" horiz-adv-x="499" d="M299 1110l152 324h41l-142 -324h-51zM430 1110l145 324h48l-142 -324h-51z" />
<glyph unicode="&#x201d;" horiz-adv-x="497" d="M301 1110l141 324h52l-148 -324h-45zM428 1110l145 324h52l-152 -324h-45z" />
<glyph unicode="&#x201e;" horiz-adv-x="501" d="M55 -168l144 324h51l-150 -324h-45zM182 -168l148 324h51l-154 -324h-45z" />
<glyph unicode="&#x2022;" horiz-adv-x="763" d="M238 457q-6 43 4 92q17 111 77 173t189 62q67 0 110 -18.5t60 -50t21.5 -74.5t-5.5 -92q-17 -110 -77.5 -173t-184.5 -63q-65 0 -108.5 18.5t-61.5 50.5t-24 75z" />
<glyph unicode="&#x2026;" horiz-adv-x="1110" d="M127 25q7 49 55 49q28 0 36 -13t5 -36q-4 -48 -57 -48q-43 0 -39 48zM510 25q7 49 55 49q28 0 36 -13t5 -36q-4 -48 -57 -48q-43 0 -39 48zM893 25q7 49 55 49q28 0 36 -13t5 -36q-4 -48 -57 -48q-43 0 -39 48z" />
<glyph unicode="&#x202f;" horiz-adv-x="376" />
<glyph unicode="&#x2039;" horiz-adv-x="548" d="M188 506l304 364h69l-303 -364l184 -365h-69z" />
<glyph unicode="&#x203a;" horiz-adv-x="548" d="M145 141q238 285 304 365l-185 364h70l184 -364l-303 -365h-70z" />
<glyph unicode="&#x205f;" horiz-adv-x="470" />
<glyph unicode="&#x20ac;" horiz-adv-x="1320" d="M190 573l9 56h184q0 7 1 16t2.5 20t2.5 17q7 49 17 82h-185l10 55h189q76 287 282.5 451t483.5 164q49 0 83 -3t75 -10t61 -10l-8 -59q-132 24 -219 24q-250 0 -437 -148t-262 -409h656l-11 -55h-661q-11 -36 -17 -82q-1 -6 -2.5 -17t-2.5 -20t-1 -16h662l-8 -56h-658 q-9 -253 122 -396.5t405 -143.5q112 0 225 24l-6 -57q-23 -3 -66 -10t-78 -10t-84 -3q-153 0 -267 42t-183 121t-100 187.5t-25 245.5h-189z" />
<glyph unicode="&#x2122;" horiz-adv-x="1726" d="M334 1102l6 43h653l195 -625q41 65 183.5 285.5t215.5 339.5h60l-48 -739h-49l39 657l-381 -596h-53l-192 598l-168 -659h-50l179 696h-293l-111 -696h-49l111 696h-248z" />
<glyph unicode="&#xe000;" horiz-adv-x="993" d="M0 0v993h993v-993h-993z" />
</font>
</defs>
</svg>
