<?xml version="1.0" standalone="no"?>
<!DOCTYPE svg PUBLIC "-//W3C//DTD SVG 1.1//EN" "http://www.w3.org/Graphics/SVG/1.1/DTD/svg11.dtd" >
<svg xmlns="http://www.w3.org/2000/svg">
<metadata></metadata>
<defs>
<font id="kyrial_display_proultra_light" horiz-adv-x="1241" >
<font-face units-per-em="2048" ascent="1536" descent="-512" />
<missing-glyph horiz-adv-x="491" />
<glyph unicode="&#xfb01;" horiz-adv-x="1073" d="M57 946v45h195v166q0 45 7.5 82t19.5 64t32 48.5t38 35t46 23t47.5 14t50.5 7t47.5 3t45.5 0.5h78v-48h-78q-153 0 -215 -54t-62 -183v-158h594v-991h-59v946h-535v-946h-57v946h-195zM827 1370q0 43 45 43q48 0 48 -43q0 -41 -48 -41q-45 0 -45 41z" />
<glyph unicode="&#xfb02;" horiz-adv-x="1159" d="M57 946v45h195v166q0 45 7.5 82t19.5 64t32 48.5t38 35t46 23t47.5 14t50.5 7t47.5 3t45.5 0.5h78v-48h-78q-153 0 -215 -54t-62 -183v-158h305v-45h-305v-946h-57v946h-195zM823 252v1202h58v-1202q0 -118 58.5 -161.5t197.5 -43.5v-55q-170 0 -242 55t-72 205z" />
<glyph unicode="&#xfb03;" horiz-adv-x="1746" d="M57 946v45h195v166q0 45 7.5 82t19.5 64t32 48.5t38 35t46 23t47.5 14t50.5 7t47.5 3t45.5 0.5h78v-48h-78q-153 0 -215 -54t-62 -183v-158h617v166q0 45 7.5 82t19.5 64t32 48.5t38 35t46 23t47.5 14t50.5 7t47.5 3t45.5 0.5h77v-48h-77q-153 0 -215 -54t-62 -183v-158 h594v-991h-59v946h-535v-946h-57v946h-617v-946h-57v946h-195zM1501 1370q0 43 45 43q47 0 47 -43q0 -41 -47 -41q-45 0 -45 41z" />
<glyph unicode="&#xfb04;" horiz-adv-x="1832" d="M57 946v45h195v166q0 45 7.5 82t19.5 64t32 48.5t38 35t46 23t47.5 14t50.5 7t47.5 3t45.5 0.5h78v-48h-78q-153 0 -215 -54t-62 -183v-158h617v166q0 45 7.5 82t19.5 64t32 48.5t38 35t46 23t47.5 14t50.5 7t47.5 3t45.5 0.5h77v-48h-77q-153 0 -215 -54t-62 -183v-158 h305v-45h-305v-946h-57v946h-617v-946h-57v946h-195zM1497 252v1202h57v-1202q0 -118 58.5 -161.5t197.5 -43.5v-55q-169 0 -241 55t-72 205z" />
<glyph horiz-adv-x="2048" />
<glyph horiz-adv-x="2048" />
<glyph unicode="&#xd;" horiz-adv-x="2048" />
<glyph unicode=" "  horiz-adv-x="491" />
<glyph unicode="&#x09;" horiz-adv-x="491" />
<glyph unicode="&#xa0;" horiz-adv-x="491" />
<glyph unicode="!" horiz-adv-x="444" d="M174 25q0 49 47 49q49 0 49 -49q0 -48 -49 -48q-47 0 -47 48zM195 1413h55l-6 -1063h-45z" />
<glyph unicode="&#x22;" horiz-adv-x="499" d="M154 1413h49l-2 -467h-45zM297 1413h49l-2 -467h-45z" />
<glyph unicode="#" horiz-adv-x="1445" d="M96 459l13 57h309l88 363h-309l14 57h309l117 477h57l-116 -477h395l117 477h57l-117 -477h320l-15 -57h-319l-88 -363h319l-12 -57h-322l-110 -459h-58l111 459h-395l-111 -459h-57l110 459h-307zM475 516h395l88 363h-395z" />
<glyph unicode="$" horiz-adv-x="1132" d="M120 1040l1 25q5 159 115.5 255.5t322.5 111.5v206h51v-204h27q76 0 169.5 -19t160.5 -43v-59q-66 25 -161.5 44t-168.5 19q-222 0 -337.5 -83t-121.5 -232q2 -1 0 -11t3 -30t11 -43t25 -51.5t43 -54t66.5 -50.5t95.5 -43l84 -24q99 -32 149 -49.5t124.5 -48t110.5 -58 t75 -67t53 -87.5t12 -108q-11 -177 -119.5 -260t-300.5 -96v-222h-51v219h-22q-88 0 -211.5 29t-200.5 64v63q84 -38 208 -68t204 -30q200 0 313 70.5t123 234.5q2 57 -22.5 104.5t-58 78.5t-108.5 65.5t-128 53t-162 54.5l-91 29q-85 28 -145 73.5t-85.5 90t-39 85 t-13.5 66.5z" />
<glyph unicode="%" horiz-adv-x="1437" d="M113 1133q0 63 17 115t44.5 86.5t64.5 57.5t76 33t80 9q56 0 104 -15t91 -47.5t67.5 -93t24.5 -143.5q0 -146 -78 -222.5t-209 -76.5q-52 -1 -100 15.5t-90 50.5t-67 93.5t-25 137.5zM127 0l1128 1413h64l-1129 -1413h-63zM170 1133q0 -63 20 -111.5t53.5 -75.5t72 -40.5 t79.5 -12.5q105 0 167.5 62t62.5 180q0 67 -20 116t-54 75t-72.5 38t-83.5 12q-89 2 -157 -59t-68 -184zM752 274q0 63 17 115t44.5 86.5t64.5 57.5t76 33t80 9q56 0 104 -15t91 -47.5t67.5 -93t24.5 -143.5q0 -146 -78 -222.5t-209 -76.5q-52 -1 -100 15.5t-90 50.5 t-67 93.5t-25 137.5zM809 274q0 -63 20 -111.5t53.5 -75.5t72 -40t79.5 -12q105 0 167.5 61.5t62.5 179.5q0 67 -20 116t-54 75.5t-72.5 38.5t-83.5 12q-89 2 -157 -59.5t-68 -184.5z" />
<glyph unicode="&#x26;" horiz-adv-x="1361" d="M172 346q0 233 133 322q39 26 90 37q-54 16 -95 47.5t-64 72t-37.5 76t-19.5 76.5t-6 55t-1 29q6 172 125 272.5t342 100.5q103 0 210 -18t146 -34v-57q-51 19 -153.5 35t-202.5 16q-196 0 -300 -85t-110 -232q0 -181 109 -268q57 -46 141 -58h838v-55h-262v-572 q-100 -64 -217.5 -97.5t-198.5 -33.5q-223 0 -342 99.5t-125 271.5zM229 346q6 -145 110 -229t300 -84q75 0 182 29t174 73v543h-516q-53 -6 -95.5 -25t-68 -45.5t-44.5 -58.5t-26 -63.5t-12.5 -60t-3.5 -48t0 -27.5v-4z" />
<glyph unicode="'" horiz-adv-x="356" d="M154 1413h49l-2 -467h-45z" />
<glyph unicode="(" horiz-adv-x="706" d="M117 512q0 436 143 679t383 243v-54q-212 -5 -340.5 -233.5t-128.5 -634.5q0 -401 129.5 -631.5t339.5 -236.5v-54q-239 0 -382.5 245.5t-143.5 676.5z" />
<glyph unicode=")" horiz-adv-x="706" d="M63 -356q210 6 339.5 236.5t129.5 631.5q0 406 -128.5 634.5t-340.5 233.5v54q240 0 383.5 -243t143.5 -679q0 -431 -144 -676.5t-383 -245.5v54z" />
<glyph unicode="*" horiz-adv-x="958" d="M119 1100v53l319 -6l-164 276l50 29l155 -287l156 287l49 -29l-164 -276l320 6v-53l-320 6l164 -277l-49 -28l-156 282l-155 -282l-50 28l164 277z" />
<glyph unicode="+" horiz-adv-x="1124" d="M113 547v55h422v422h55v-422h422v-55h-422v-422h-55v422h-422z" />
<glyph unicode="," horiz-adv-x="380" d="M45 -221l139 377h54l-146 -377h-47z" />
<glyph unicode="-" horiz-adv-x="917" d="M152 557v53h614v-53h-614z" />
<glyph unicode="." horiz-adv-x="344" d="M125 25q0 49 47 49q49 0 49 -49q0 -48 -49 -48q-47 0 -47 48z" />
<glyph unicode="/" horiz-adv-x="804" d="M90 0l572 1411h55l-572 -1411h-55z" />
<glyph unicode="0" horiz-adv-x="1304" d="M123 702q0 154 31 279t82 208t120.5 139.5t143 81t151.5 24.5t152 -24.5t143.5 -81t121.5 -139t83 -208t31 -279.5q0 -330 -145.5 -527.5t-385.5 -197.5t-384 197t-144 528zM180 702q0 -305 128.5 -486t342.5 -181q215 0 344 181t129 486q0 142 -28 257.5t-74 191.5 t-107.5 128t-127.5 74.5t-136 22.5t-135.5 -22.5t-127 -74.5t-107.5 -128t-73.5 -191.5t-27.5 -257.5z" />
<glyph unicode="1" horiz-adv-x="815" d="M96 0v59h310v1289l-308 -193v66l299 192h68v-1354h307v-59h-676z" />
<glyph unicode="2" horiz-adv-x="1050" d="M76 0v41l633 719q94 104 132 182t38 121q0 143 -106.5 228t-301.5 85q-92 0 -191 -30.5t-165 -73.5v65q69 43 163 70t193 27q222 0 344.5 -101.5t122.5 -269.5q0 -54 -42.5 -141.5t-115.5 -165.5l-616 -699h776v-57h-864z" />
<glyph unicode="3" horiz-adv-x="1079" d="M121 33v61q76 -22 183 -41.5t173 -19.5q196 0 300 84t110 229q0 82 -14 133q-48 170 -226 194q-5 0 -10 1h-326v59h1h1h1h1h1h1h1h1h1h1h1h1h1h1h1h1h1h1h1h1h1h1h1h1h1h1h1h1h1h1h1h1h1h1h1h1h1h1h1h1h1h1h1h1h1h1h1h1h1h1h1h1h1h1h1h1h1h1h1h1h1h1h1h1h1h1h2h1h1h1h1h1 h1h1h2h1h1h1h1h2h1h1h1h1h2h1h1h1h1h2h1h1h1h2h1h1h2h1h1h1h2h1h1h2h1h1h2h1h1h2h1h1h2h1h2h1h1h2h1h2h1h1h2h1h2h1h2h1h1h2h1h2h1h2h1h2h1h2h1h2h1h2h1h2h1h2h1h2h1h2h1h2h2h1h2h1h2h1h2h2h1h2h1h2h2h1h2h1h2h2h1h2h2h1h2h1h2h2h1h2h2h1h2h2h2h1h2h2h1h2h2h1h2h2h2h1h2h2h2 h1h2h2h2h1h2h2h2h2h1h2h2h2h2h1h2h2h2h2h1h2h2h2h2h2h1h2h2h2h2h2h2h8q52 8 94 29t67.5 46.5t44 60t27 61t12.5 58.5t4.5 44t0.5 25v2q-6 147 -110 232t-300 85q-100 0 -202.5 -16t-153.5 -35v57q39 16 146 34t210 18q223 0 342 -100.5t125 -272.5q0 -15 -1 -29t-6 -55 t-19.5 -76.5t-37.5 -76t-64 -72t-95 -47.5q47 -10 84 -34t60 -51.5t39.5 -65t24 -66t11.5 -63.5t4 -48v-28v-2v-1q-6 -172 -125 -271.5t-342 -99.5q-66 0 -170.5 18t-185.5 40z" />
<glyph unicode="4" horiz-adv-x="1177" d="M53 352v49l770 1012h74v-1003h215v-58h-215v-352h-57v352h-787zM123 410h717v933z" />
<glyph unicode="5" horiz-adv-x="1146" d="M113 47v59q248 -71 442 -71t316 108t122 273q0 22 -1 39.5t-8.5 59t-21.5 74t-44 72.5t-71 66.5t-107 45t-148 18.5h-436l57 622h754v-57h-701l-49 -508h375q94 0 169.5 -21.5t122.5 -52t81 -76.5t50 -83.5t25 -85t10 -68t1 -45.5q0 -190 -138 -314.5t-358 -124.5 q-185 0 -442 70z" />
<glyph unicode="6" horiz-adv-x="1202" d="M123 522q0 441 165.5 676.5t459.5 235.5q130 0 233 -35v-60q-35 12 -52 17.5t-67.5 12.5t-113.5 7q-250 0 -398 -193t-168 -558q65 105 187 174t268 69q96 0 176.5 -25.5t134.5 -69t92 -101.5t55 -121.5t17 -130.5q0 -207 -126 -325t-353 -118q-242 0 -376 133t-134 412z M180 522q0 -249 119.5 -368t333.5 -119q200 0 311 102t111 283q0 74 -25 142t-74 124.5t-131.5 90.5t-187.5 34q-139 0 -267 -77.5t-190 -205.5v-6z" />
<glyph unicode="7" horiz-adv-x="1005" d="M68 1352v61h899v-74l-770 -1339h-66l772 1352h-835z" />
<glyph unicode="8" horiz-adv-x="1198" d="M121 381q0 5 0.5 15t5 39t12.5 56.5t26 64.5t43 67.5t65.5 60t91.5 47.5q-59 24 -102 67t-62.5 87.5t-30.5 85t-12 66.5l-2 26q0 68 26 132t74.5 117t128 86.5t176.5 35.5h60q100 -2 180 -35.5t129.5 -86.5t75.5 -117t26 -132q0 -10 -1.5 -26t-12.5 -61.5t-31 -85 t-63.5 -83.5t-102.5 -70q54 -16 97.5 -44.5t70.5 -61t46.5 -68t28.5 -67.5t14.5 -58t5.5 -42l1 -15q0 -74 -31.5 -144.5t-88.5 -128t-147 -93.5t-197 -38h-43q-105 2 -193.5 38t-145 93.5t-87.5 128t-31 144.5zM178 383q2 -62 29.5 -122.5t77 -110.5t126.5 -81.5t169 -33.5 h41q93 2 172 34t129 82t78 110t28 122q0 7 -0.5 18.5t-7.5 45t-19 64t-39 67.5t-63.5 63.5t-97 45t-135.5 18.5h-127q-74 0 -134.5 -18t-97 -46t-63.5 -62.5t-39 -69t-19 -62.5t-8 -46v-18zM213 1063q0 -6 0.5 -17t6.5 -42t16.5 -59.5t33.5 -63.5t54 -60t81.5 -42t112.5 -17 h135q66 3 119 21t86 45t57 58.5t35 62.5t17.5 56.5t6.5 41.5l1 16q0 56 -22.5 109.5t-65.5 99t-113 74t-156 30.5h-55q-84 -2 -152.5 -30.5t-110.5 -73.5t-64.5 -99t-22.5 -110z" />
<glyph unicode="9" horiz-adv-x="1202" d="M90 991q0 207 126 325t353 118q242 0 376 -133t134 -412q0 -441 -165 -676.5t-459 -235.5q-131 0 -234 35v60q35 -12 52.5 -17.5t68 -12.5t113.5 -7q250 0 397.5 192.5t167.5 558.5q-65 -105 -187 -174t-268 -69q-96 0 -176.5 25.5t-134.5 69t-92 101.5t-55 121.5 t-17 130.5zM147 991q0 -74 25 -142t74 -124.5t131.5 -90.5t187.5 -34q139 0 267 77.5t190 205.5v6q0 249 -119.5 368t-333.5 119q-200 0 -311 -102t-111 -283z" />
<glyph unicode=":" horiz-adv-x="399" d="M152 25q0 49 47 49q49 0 49 -49q0 -48 -49 -48q-47 0 -47 48zM152 942q0 49 47 49q49 0 49 -49q0 -47 -49 -47q-47 0 -47 47z" />
<glyph unicode=";" horiz-adv-x="468" d="M90 -221h47l146 377h-54zM219 942q0 49 47 49q49 0 49 -49q0 -47 -49 -47q-47 0 -47 47z" />
<glyph unicode="&#x3c;" d="M94 526v72l1006 432v-63l-942 -406l942 -403v-64z" />
<glyph unicode="=" horiz-adv-x="1208" d="M166 319v70h876v-70h-876zM166 772v68h876v-68h-876z" />
<glyph unicode="&#x3e;" d="M141 94v64l942 403l-942 406v63l1006 -432v-72z" />
<glyph unicode="?" horiz-adv-x="940" d="M109 1288v60q58 34 151 59t162 27q214 3 315 -95.5t101 -269.5q0 -266 -248 -379q-124 -56 -201.5 -142t-83.5 -194h-57q0 119 90.5 223t228.5 166l-2 -2q215 98 215 328q0 146 -85 228t-271 79q-63 -2 -163.5 -29.5t-151.5 -58.5zM233 25q0 49 48 49q49 0 49 -49 q0 -48 -49 -48q-48 0 -48 48z" />
<glyph unicode="@" horiz-adv-x="2123" d="M117 535q0 182 78 349t208.5 287t309.5 191.5t374 71.5q187 0 345 -46t265 -121t182 -172t109.5 -198.5t34.5 -200.5q0 -102 -18 -189t-49 -150t-74 -114t-90.5 -83.5t-101 -54t-103.5 -30.5t-100 -9q-45 0 -84 11t-79 48.5t-56 99.5q-60 -55 -156.5 -92t-171.5 -37 q-28 0 -56.5 4t-61.5 13t-62 26t-56.5 41t-46.5 60t-30 80t-10 104.5t16 130.5q21 104 76.5 188.5t128 136.5t152 79.5t155.5 27.5q149 0 264 -92l23 72h43l-146 -674q-8 -39 1 -70t27.5 -49t43.5 -30t46.5 -16.5t39.5 -4.5q64 0 126.5 16.5t127.5 58t114 104.5t80 164.5 t31 229.5q0 92 -32 185t-103 182.5t-171 158.5t-249 111.5t-324 42.5q-184 0 -352.5 -66.5t-291.5 -179t-196 -268.5t-73 -327q0 -138 41 -265.5t122.5 -234t194 -185.5t263 -123t323.5 -44q195 0 393 56.5t320 151.5v-71q-133 -89 -329.5 -142t-383.5 -53q-228 0 -418.5 73 t-316.5 197.5t-196 289.5t-70 350zM674 414q0 -62 18.5 -110t46 -75.5t65 -45t70 -23.5t66.5 -6q65 0 158.5 35.5t175.5 107.5l112 541q-137 92 -241 92q-67 0 -138 -25t-135.5 -71t-114.5 -122t-69 -169v2q-14 -79 -14 -131z" />
<glyph unicode="A" horiz-adv-x="1282" d="M63 0q133 411 256.5 736.5t294.5 676.5h54q170 -349 293.5 -674t257.5 -739h-62q-95 292 -153 457h-725q-105 -302 -154 -457h-62zM295 508h690q-156 435 -344 829q-187 -394 -346 -829z" />
<glyph unicode="B" horiz-adv-x="1294" d="M209 0v1413h567q33 0 69.5 -8.5t80 -32.5t77 -60.5t56 -100t22.5 -144.5q0 -44 -13 -95.5t-38.5 -103.5t-72 -91.5t-105.5 -51.5q76 -1 135.5 -32.5t96 -83t55 -115t18.5 -134.5q0 -183 -108 -271.5t-299 -88.5h-541zM266 53h508q92 0 164 31t118 102t46 174 q0 80 -23.5 141.5t-59.5 97t-85 58t-93 30t-91 7.5h-484v-641zM266 745h471q71 0 127.5 29t89 77t49.5 103t17 113q0 155 -78 224t-205 69h-471v-615z" />
<glyph unicode="C" horiz-adv-x="1271" d="M127 702q0 171 57.5 311.5t155.5 231t225 140t269 49.5q187 0 350 -31v-60q-184 33 -350 33q-130 0 -247 -45.5t-207 -129t-143 -213t-53 -286.5q0 -159 55.5 -288.5t148.5 -210.5t209 -124.5t243 -43.5q206 0 344 37v-62q-177 -33 -344 -33q-109 0 -212.5 29t-194 89.5 t-159 145t-108 203.5t-39.5 258z" />
<glyph unicode="D" horiz-adv-x="1406" d="M209 0v1413h438q124 0 236.5 -46.5t201 -133t141 -224.5t52.5 -307q0 -172 -52.5 -309t-141.5 -221t-200.5 -128t-236.5 -44h-438zM266 53h381q114 0 215.5 41t182.5 119t128.5 204.5t47.5 284.5q0 126 -31 233.5t-85.5 184.5t-127 132t-156.5 81.5t-174 26.5h-381v-1307 z" />
<glyph unicode="E" horiz-adv-x="1118" d="M203 233v1180h792v-57h-735v-611h686v-57h-686v-455v3q3 -98 52 -137.5t161 -41.5h-2h524v-57h-524q-141 3 -203 54t-65 179z" />
<glyph unicode="F" horiz-adv-x="993" d="M209 0v1413h709v-57h-652v-596h600v-58h-600v-702h-57z" />
<glyph unicode="G" horiz-adv-x="1441" d="M125 702q0 171 60.5 311.5t163 231t235.5 140t282 49.5q193 0 369 -43v-60q-195 45 -369 45q-137 0 -260 -45.5t-217.5 -129t-150.5 -213t-56 -286.5q0 -159 53.5 -289t141.5 -210.5t196 -124t222 -43.5q87 0 146.5 2.5t149.5 16.5t158 40v461h-395v57h453v-557 q-182 -78 -512 -78q-100 0 -196 29t-182 89.5t-151 145t-103 203.5t-38 258z" />
<glyph unicode="H" horiz-adv-x="1449" d="M209 0v1413h57v-645h918v645h57v-1413h-57v715h-918v-715h-57z" />
<glyph unicode="I" horiz-adv-x="475" d="M209 0v1413h57v-1413h-57z" />
<glyph unicode="J" horiz-adv-x="514" d="M-276 -403q101 -9 133 -9q67 0 121 10.5t106.5 40.5t87.5 79t56.5 131.5t21.5 193.5v1370h55v-1417q0 -113 -29.5 -199t-73.5 -134t-106 -77.5t-116 -39t-115 -9.5q-55 0 -141 8v52z" />
<glyph unicode="K" horiz-adv-x="1089" d="M209 0v1413h57v-741q447 440 680 741h74q-258 -336 -672 -743q380 -272 729 -670h-76q-316 354 -735 657v-657h-57z" />
<glyph unicode="L" horiz-adv-x="1062" d="M203 233v1180h57v-1180q3 -97 51.5 -135.5t159.5 -40.5h543v-57h-543q-141 3 -203 54t-65 179z" />
<glyph unicode="M" horiz-adv-x="1929" d="M154 0l137 1413h80q342 -586 594 -1243q252 657 594 1243h79l138 -1413h-58l-131 1339q-315 -538 -579 -1220h-86q-262 677 -580 1220l-131 -1339h-57z" />
<glyph unicode="N" horiz-adv-x="1433" d="M209 0v1413h65q225 -225 473 -592.5t420 -730.5v1323h58v-1413h-74q-170 361 -418 738.5t-467 602.5v-1341h-57z" />
<glyph unicode="O" horiz-adv-x="1650" d="M127 700q0 154 41 280t109 209t159 139.5t187.5 81t199.5 24.5t200.5 -24.5t189 -81t159.5 -139.5t109 -209t41 -280q0 -330 -191.5 -526.5t-509.5 -196.5q-316 2 -505 197.5t-189 525.5zM182 700q0 -195 79.5 -347t225 -237t334.5 -85q192 0 339 85t226.5 237t79.5 347 q0 138 -37.5 252.5t-100.5 192.5t-147 132t-174 78.5t-184 24.5t-184 -24.5t-173.5 -78.5t-146 -132t-100 -192.5t-37.5 -252.5z" />
<glyph unicode="P" horiz-adv-x="1208" d="M209 0v1413h563q56 0 115 -25t111.5 -71.5t86 -122t33.5 -166.5q0 -98 -25.5 -173.5t-63.5 -118t-88.5 -70t-93 -36.5t-83.5 -9h-498v-621h-57zM266 678h498q34 0 69.5 7.5t78 31t74.5 60.5t53.5 102t21.5 149q0 77 -28 142t-72 104t-93.5 60.5t-95.5 21.5h-506v-678z " />
<glyph unicode="Q" horiz-adv-x="1650" d="M127 700q0 154 41 280t109 209t159 139.5t187.5 81t199.5 24.5t200.5 -24.5t189 -81t159.5 -139.5t109 -209t41 -280q0 -325 -185.5 -519.5t-494.5 -200.5q38 -269 305 -269q151 0 225 27v-55q-96 -29 -225 -29q-154 0 -248.5 79.5t-114.5 246.5q-301 14 -479 206.5 t-178 513.5zM182 700q0 -195 79.5 -347t225 -237t334.5 -85q192 0 339 85t226.5 237t79.5 347q0 138 -37.5 252.5t-100.5 192.5t-147 132t-174 78.5t-184 24.5t-184 -24.5t-173.5 -78.5t-146 -132t-100 -192.5t-37.5 -252.5z" />
<glyph unicode="R" horiz-adv-x="1247" d="M209 0v1411h532q161 0 266 -100t105 -283q0 -200 -114 -300q-110 -97 -306 -97h-12q36 -17 73.5 -46.5t75 -73t67.5 -80.5t66.5 -96t57 -92t54 -95.5t42 -79t35.5 -68.5h-66q-22 43 -34.5 67t-43 78.5t-52.5 91t-58 90.5t-65.5 91t-68 79t-73 67.5t-73.5 44t-76 20.5 h-275v-629h-57zM266 688h416q184 0 277.5 83t93.5 257q0 155 -88.5 240.5t-225.5 85.5h-473v-666z" />
<glyph unicode="S" horiz-adv-x="1140" d="M126 1052l1 13q6 173 136.5 271t379.5 98q76 0 169.5 -19t160.5 -43v-59q-66 25 -161.5 44t-168.5 19q-222 0 -337.5 -83t-121.5 -232q2 -1 0 -11t3 -30t11 -43t25 -51.5t43 -54t66.5 -50.5t95.5 -43l84 -24q99 -32 149 -49.5t124.5 -48t110.5 -58t75 -67t53 -87.5 q12 -42 12 -93v-15q-6 -100 -44 -170.5t-105 -111t-151 -59t-193 -18.5q-88 0 -211.5 29t-200.5 64v63q84 -38 208 -68t204 -30q200 0 313 70.5t123 234.5v9q-1 51 -23 95q-24 48 -57.5 79t-108.5 65.5t-128 53t-162 54.5l-90 29q-62 20 -111 50t-78 61.5t-49.5 64.5 t-28.5 62t-12.5 52t-4.5 37z" />
<glyph unicode="T" horiz-adv-x="1097" d="M43 1356v57h1012v-57h-475v-1356h-60v1356h-477z" />
<glyph unicode="U" horiz-adv-x="1470" d="M197 571v842h57v-842q0 -106 20 -191.5t50 -140t75.5 -95t86.5 -61t93 -32t84.5 -14t71.5 -2.5q40 0 72.5 2.5t85 14t93 32t86 61t75.5 95t50 140t20 191.5v842h57v-842q0 -117 -22 -211.5t-56 -155.5t-84.5 -105.5t-96.5 -67t-104 -36t-95 -16t-81 -2.5t-80.5 2.5 t-94.5 16t-104 36t-96.5 67t-84 105.5t-56 155.5t-22.5 211.5z" />
<glyph unicode="V" horiz-adv-x="1189" d="M63 1413h64l467 -1358l471 1358h61l-489 -1413h-86z" />
<glyph unicode="W" horiz-adv-x="2068" d="M66 1413h63l426 -1364q162 598 442 1194h74q280 -596 442 -1194l426 1364h64l-449 -1413h-88q-185 656 -432 1190q-247 -534 -432 -1190h-88z" />
<glyph unicode="X" horiz-adv-x="1069" d="M43 0l455 735l-416 678h65l388 -631l387 631h63l-414 -676l457 -737h-67l-426 690l-429 -690h-63z" />
<glyph unicode="Y" horiz-adv-x="1071" d="M45 1413h66l426 -735l419 735h66l-457 -799v-614h-57v612z" />
<glyph unicode="Z" horiz-adv-x="1214" d="M66 0v66l1007 1294h-962v53h1022v-67l-1012 -1293h1003v-53h-1058z" />
<glyph unicode="[" horiz-adv-x="573" d="M178 -410v1823h322v-53h-262v-1716h262v-54h-322z" />
<glyph unicode="\" horiz-adv-x="804" d="M88 1411h55l572 -1411h-56z" />
<glyph unicode="]" horiz-adv-x="573" d="M74 -356h262v1716h-262v53h321v-1823h-321v54z" />
<glyph unicode="_" horiz-adv-x="1290" d="M143 -88h1004v-51h-1004v51z" />
<glyph unicode="`" horiz-adv-x="804" d="M369 1413h63l127 -227h-57z" />
<glyph unicode="a" horiz-adv-x="1073" d="M98 270q0 143 115.5 220t316.5 77q127 0 289 -43v74q0 100 -24 172t-66.5 112t-93 58t-111.5 18q-158 0 -350 -77v57q93 37 173.5 57.5t176.5 20.5q58 0 107.5 -12.5t96 -42.5t78.5 -76.5t51.5 -119.5t19.5 -167v-479q0 -40 23 -63t61 -23q50 0 122 33v-58 q-67 -31 -122 -31q-61 0 -100 36.5t-40 101.5q-54 -58 -178.5 -98t-220.5 -40q-324 0 -324 293zM156 270q0 -235 266 -235q87 0 206 37t191 96v305q-145 37 -289 37q-174 0 -274 -62.5t-100 -177.5z" />
<glyph unicode="b" horiz-adv-x="1169" d="M174 0v1454h59v-547q84 58 172.5 83.5t159.5 25.5q88 0 173.5 -32.5t157 -93t115.5 -159t44 -219.5q0 -129 -34.5 -228.5t-85 -155.5t-117.5 -92t-123.5 -47.5t-112.5 -11.5q-86 0 -190 43t-159 107l-10 -127h-49zM233 182q48 -55 160.5 -101t188.5 -46q33 0 67.5 5 t76 19.5t79 37t73.5 60t61.5 85.5t41.5 117.5t16 152.5q0 86 -25.5 160t-68 125.5t-98.5 88.5t-117 54.5t-123 17.5q-70 0 -162.5 -27.5t-169.5 -80.5v-668z" />
<glyph unicode="c" horiz-adv-x="935" d="M113 496q1 121 42.5 221.5t108.5 164.5t150 99t170 35q135 0 266 -25v-53q-98 20 -266 20q-76 0 -149 -31t-132 -88t-95.5 -146.5t-37.5 -196.5q0 -88 23.5 -163.5t64 -129.5t94 -93t112.5 -58t120 -19q168 0 266 20v-55q-121 -23 -266 -23q-87 0 -170.5 34.5t-151 98.5 t-108.5 165t-41 223z" />
<glyph unicode="d" horiz-adv-x="1212" d="M115 512q0 121 44 219.5t115 159t156.5 93t173.5 32.5q71 0 159.5 -25.5t172.5 -83.5v547h59v-1335q0 -40 23 -63t61 -23q51 0 123 33v-58q-67 -31 -123 -31q-61 0 -99.5 38.5t-39.5 103.5q-64 -61 -166 -101.5t-186 -40.5q-56 0 -112.5 11.5t-123.5 47.5t-117.5 92 t-85 155.5t-34.5 228.5zM172 512q0 -114 30.5 -203t75 -139t103.5 -82t109 -42.5t98 -10.5q76 0 188 46t160 101v668q-77 53 -169.5 80.5t-162.5 27.5q-62 0 -123 -17.5t-117 -54.5t-98.5 -88.5t-68 -125.5t-25.5 -160z" />
<glyph unicode="e" horiz-adv-x="1124" d="M117 504q0 120 37.5 218.5t101.5 162t146 97.5t173 34q211 0 332 -144.5t123 -394.5h-856q6 -222 122 -334t298 -112q178 2 348 45v-53q-185 -44 -348 -46q-103 0 -188 31t-150.5 93.5t-102 165t-36.5 237.5zM174 526h797q-11 203 -115 317.5t-281 114.5 q-162 0 -278.5 -115.5t-122.5 -316.5z" />
<glyph unicode="f" horiz-adv-x="667" d="M57 946v45h195v166q0 45 7.5 82t19.5 64t32 48.5t38 35t46 23t47.5 14t50.5 7t47.5 3t45.5 0.5h78v-48h-78q-153 0 -215 -54t-62 -183v-158h305v-45h-305v-946h-57v946h-195z" />
<glyph unicode="g" horiz-adv-x="1171" d="M117 479q0 129 34.5 228.5t85 155.5t117.5 92t123.5 47.5t112.5 11.5q86 0 189.5 -43t158.5 -107l10 127h49v-1177q0 -75 -33.5 -130t-93.5 -86.5t-133.5 -46t-163.5 -14.5q-104 0 -256 37v59q160 -39 256 -39q105 0 184 20.5t130 71.5t51 130v268q-84 -58 -172.5 -83.5 t-159.5 -25.5q-88 0 -173.5 32.5t-156.5 93t-115 159t-44 219.5zM174 479q0 -86 25.5 -160t68 -125.5t98.5 -88.5t117 -54.5t123 -17.5q70 0 162.5 27.5t169.5 80.5v668q-48 55 -160 101t-188 46q-48 0 -98 -10.5t-109 -42.5t-103.5 -82t-75 -139t-30.5 -203z" />
<glyph unicode="h" horiz-adv-x="1148" d="M174 0v1454h57v-563q186 125 367 125q387 0 387 -398v-618h-57v618q0 181 -88.5 262t-241.5 81q-73 0 -174.5 -35t-192.5 -95v-831h-57z" />
<glyph unicode="i" horiz-adv-x="407" d="M158 1370q0 43 45 43q47 0 47 -43q0 -41 -47 -41q-45 0 -45 41zM174 0v991h59v-991h-59z" />
<glyph unicode="j" horiz-adv-x="403" d="M-102 -416q45 2 82 8.5t64 14t48 22t34.5 26t23 31.5t14.5 33t7 37t2.5 37t0.5 39v1159h55v-1173q0 -151 -80.5 -215t-250.5 -64v45zM156 1370q0 43 45 43q47 0 47 -43q0 -41 -47 -41q-45 0 -45 41z" />
<glyph unicode="k" horiz-adv-x="888" d="M174 0v1454h59v-895q199 189 414 432h74q-285 -318 -416 -442q386 -288 576 -549h-72q-186 242 -576 528v-528h-59z" />
<glyph unicode="l" horiz-adv-x="507" d="M172 252v1202h57v-1202q0 -118 58.5 -161.5t197.5 -43.5v-55q-169 0 -241 55t-72 205z" />
<glyph unicode="m" horiz-adv-x="1918" d="M174 0v991h49l8 -112q185 137 377 137q53 0 83 -1.5t74 -10t74.5 -24.5t65 -47.5t64.5 -76.5q99 96 195.5 128t201.5 32q55 0 98.5 -6t90.5 -22.5t81 -49t62 -81.5t42.5 -125t14.5 -175v-557h-59v557q0 103 -18.5 178t-48 118.5t-74.5 69.5t-88.5 34t-100.5 8 q-100 0 -200 -41.5t-177 -135.5v-788h-59v750q0 109 -89 161t-233 52q-83 0 -191.5 -41t-185.5 -113v-809h-57z" />
<glyph unicode="n" horiz-adv-x="1148" d="M174 0v991h47l10 -100q186 125 367 125q387 0 387 -398v-618h-57v618q0 181 -88.5 262t-241.5 81q-73 0 -174.5 -35t-192.5 -95v-831h-57z" />
<glyph unicode="o" d="M115 496q0 130 39.5 231t109.5 163t160 93t197 31t197 -31t159.5 -93t109 -163t39.5 -231q0 -131 -39.5 -231.5t-109 -162.5t-159.5 -93.5t-197 -31.5t-197 31.5t-160 93t-109.5 163t-39.5 231.5zM172 496q0 -116 35 -207t97 -147.5t142 -85.5t175 -29t175 29t141.5 85.5 t96.5 147.5t35 207t-35 207t-96.5 147.5t-141.5 85.5t-175 29t-175 -29t-142 -85.5t-97 -147.5t-35 -207z" />
<glyph unicode="p" horiz-adv-x="1169" d="M174 -463v1454h49l10 -127q55 64 159 107t190 43q56 0 112.5 -11.5t123.5 -47.5t117.5 -92t85 -155.5t34.5 -228.5q0 -121 -44 -219.5t-115.5 -159t-157 -93t-173.5 -32.5q-71 0 -159.5 25.5t-172.5 83.5v-547h-59zM233 141q77 -53 169.5 -80.5t162.5 -27.5 q62 0 123 17.5t117 54.5t98.5 88.5t68 125.5t25.5 160q0 83 -16 152.5t-41.5 117.5t-61.5 85.5t-73.5 60t-79 37t-76 19.5t-67.5 5q-76 0 -188.5 -46t-160.5 -101v-668z" />
<glyph unicode="q" horiz-adv-x="1169" d="M115 479q0 129 34.5 228.5t85 155.5t117.5 92t123.5 47.5t112.5 11.5q86 0 189.5 -43t158.5 -107l10 127h49v-1454h-59v547q-84 -58 -172.5 -83.5t-159.5 -25.5q-88 0 -173.5 32.5t-156.5 93t-115 159t-44 219.5zM172 479q0 -86 25.5 -160t68 -125.5t98.5 -88.5 t117 -54.5t123 -17.5q70 0 162.5 27.5t169.5 80.5v668q-48 55 -160 101t-188 46q-48 0 -98 -10.5t-109 -42.5t-103.5 -82t-75 -139t-30.5 -203z" />
<glyph unicode="r" horiz-adv-x="704" d="M174 0v991h47l10 -100q186 125 367 125q7 0 22.5 -1t22.5 -1v-56q-21 3 -45 3q-73 0 -174.5 -35t-192.5 -95v-831h-57z" />
<glyph unicode="s" horiz-adv-x="894" d="M106 740v18q4 125 104 196q89 63 256 63q21 0 44 -1q89 -3 227 -39v-55q-141 38 -229 41q-18 1 -36 1q-144 0 -220 -52q-86 -58 -88 -158v-13.5t7 -32t21 -44t46.5 -45t78.5 -39.5l68 -23q191 -59 252 -89q122 -57 150 -146q10 -33 10 -72v-14q-6 -63 -28.5 -109.5 t-56.5 -75t-85 -45.5t-105.5 -23t-126.5 -6q-61 0 -139 12.5t-125 37.5v55q105 -51 264 -51q74 0 129.5 9t104 31.5t76.5 65.5t34 105v10q0 36 -13 65q-15 33 -43.5 57t-71 44t-92.5 37t-111 36q-25 7 -37 11l-72 22q-58 20 -99 51t-58.5 62t-26.5 58.5t-9 44.5z" />
<glyph unicode="t" horiz-adv-x="587" d="M47 946v45h193v273l57 28v-301h254v-45h-254v-684q0 -44 2.5 -70t16.5 -59t40 -51t76 -31t123 -14v-49q-172 0 -243.5 55.5t-71.5 206.5v696h-193z" />
<glyph unicode="u" horiz-adv-x="1191" d="M164 373v618h57v-618q0 -342 330 -342q73 0 174.5 34.5t192.5 94.5v831h57v-872q0 -40 23 -63t61 -23q51 0 123 33v-58q-67 -31 -123 -31q-61 0 -99.5 36.5t-39.5 101.5q-56 -62 -169 -101t-200 -39q-387 0 -387 398z" />
<glyph unicode="v" horiz-adv-x="974" d="M51 991h64l372 -921l373 921h64l-406 -991h-61z" />
<glyph unicode="w" horiz-adv-x="1671" d="M53 991h62l350 -932l336 881h71l332 -881l352 932h62l-381 -991h-66l-335 885l-336 -885h-68z" />
<glyph unicode="x" horiz-adv-x="907" d="M59 0l359 494l-359 497h70l324 -456l325 456h70l-359 -497l359 -494h-72l-323 453l-322 -453h-72z" />
<glyph unicode="y" horiz-adv-x="1007" d="M51 991h62l393 -981l387 981h63l-411 -1030l-84 -248q-38 -106 -103 -142q-62 -34 -172 -34h-12h-24v51h24q100 6 132 18q61 21 94 99q8 21 16 47l61 195z" />
<glyph unicode="z" horiz-adv-x="1030" d="M74 0v66l792 872h-749v53h821v-63l-799 -875h799v-53h-864z" />
<glyph unicode="{" horiz-adv-x="636" d="M86 471v61q57 8 98 42t41 88v391q0 358 342 358v-57q-284 0 -284 -301v-391q0 -64 -33.5 -107t-87.5 -55q51 -18 86 -62.5t35 -95.5v-391q0 -301 284 -301v-58q-342 0 -342 359v391q0 49 -42.5 85t-96.5 44z" />
<glyph unicode="|" horiz-adv-x="403" d="M176 -233v1871h51v-1871h-51z" />
<glyph unicode="}" horiz-adv-x="636" d="M70 -350q284 0 284 301v391q0 51 35 95.5t86 62.5q-54 12 -87.5 55t-33.5 107v391q0 301 -284 301v57q342 0 342 -358v-391q0 -54 41 -88t98 -42v-61q-54 -8 -96.5 -44t-42.5 -85v-391q0 -359 -342 -359v58z" />
<glyph unicode="&#xa1;" horiz-adv-x="403" d="M154 969q0 47 47 47q49 0 49 -47q0 -49 -49 -49q-47 0 -47 49zM174 -410l4 1053h45l6 -1053h-55z" />
<glyph unicode="&#xa2;" horiz-adv-x="997" d="M119 496q1 118 41 217t104.5 163t144.5 100.5t166 39.5v207h52v-207q99 -2 229 -25v-53q-98 20 -266 20q-76 0 -149 -31t-132 -88t-95.5 -146.5t-37.5 -196.5q0 -109 36 -198.5t95.5 -145.5t132.5 -86.5t150 -30.5q168 0 266 20v-55q-117 -21 -229 -23v-225h-52v225 q-86 3 -166.5 38.5t-145.5 98.5t-104.5 162.5t-39.5 219.5z" />
<glyph unicode="&#xa3;" horiz-adv-x="1150" d="M106 0v55h207v623h-194v43h194v254q0 206 139 332.5t396 126.5q60 0 125 -9v-59q-51 4 -129 4q-118 0 -209 -32t-146.5 -88.5t-83.5 -128.5t-28 -158v-242h282v-43h-282v-623h676v-55h-947z" />
<glyph unicode="&#xa4;" horiz-adv-x="1161" d="M133 1040l41 39l156 -153q103 90 250 90q149 0 251 -92l154 157l39 -41l-156 -157q80 -107 80 -246q0 -145 -82 -250l160 -156l-39 -41l-160 156q-101 -88 -247 -88q-150 0 -248 88l-156 -158l-41 39l158 160q-82 105 -82 250q0 141 80 248zM268 637q0 -138 85 -230 t227 -92t226.5 92t84.5 230t-84.5 229.5t-226.5 91.5t-227 -91.5t-85 -229.5z" />
<glyph unicode="&#xa5;" horiz-adv-x="1146" d="M86 1413h66l423 -735l422 735h66l-459 -799v-122h309v-60h-309v-143h309v-60h-309v-229h-55v229h-316v60h316v143h-316v60h316v120z" />
<glyph unicode="&#xa6;" horiz-adv-x="514" />
<glyph unicode="&#xa7;" horiz-adv-x="1107" d="M119.5 649.5q-1.5 23.5 0.5 36.5l1 14q16 122 90 199q-19 29 -31.5 60.5t-16 56.5t-5 46t-0.5 32l2 12q24 172 163 256.5t386 60.5q99 -8 223 -55l-4 -57q-122 46 -223 55q-221 21 -344 -51t-144 -219q-2 -9 -2.5 -24t7.5 -58t30 -80q31 -48 71.5 -79.5t108.5 -63.5 l82 -33q116 -50 171.5 -76t134 -72.5t111 -86.5t53.5 -99.5t11 -130.5q-20 -124 -88 -199q63 -88 49 -207q-15 -99 -60.5 -166t-113.5 -99.5t-157.5 -44.5t-192.5 1q-104 8 -285 74l7 65q168 -72 282 -84q93 -11 172 -0.5t139.5 38.5t100 85t53.5 140q11 87 -37 157 q-40 49 -103.5 91.5t-107.5 64t-156 70.5q-9 4 -13.5 6.5t-12.5 5.5t-14 6l-86 37q-60 26 -106 60.5t-72 68.5t-43.5 69t-23 64.5t-7 53zM176.5 678.5q-0.5 -7.5 0.5 -29.5t6.5 -44t20 -53t37 -58.5t62 -56.5t90.5 -52l82 -33q215 -96 284 -137q66 -38 109 -78q55 65 72 166 q18 128 -101 221q-77 61 -280 150q-17 8 -63 28l-86 37q-102 44 -162 111q-58 -64 -70 -160q-1 -4 -1.5 -11.5z" />
<glyph unicode="&#xa8;" horiz-adv-x="808" d="M250 1298q0 43 45 43q47 0 47 -43q0 -41 -47 -41q-45 0 -45 41zM467 1298q0 43 45 43q47 0 47 -43q0 -41 -47 -41q-45 0 -45 41z" />
<glyph unicode="&#xa9;" horiz-adv-x="1679" d="M131 700q0 154 41.5 279.5t111 208.5t162 139.5t191.5 81.5t203 25t202.5 -25t191.5 -81.5t162 -139.5t110.5 -208.5t41.5 -279.5q0 -329 -194 -526t-516 -197h4q-322 0 -516.5 197t-194.5 526zM188 700q0 -303 179 -484t475 -181h-4q296 0 474.5 181t178.5 484 q0 142 -38.5 257.5t-101.5 192t-148.5 128.5t-176 75t-186.5 23t-186.5 -23t-176 -75t-149 -128.5t-102 -192t-38.5 -257.5zM432 700q0 131 58.5 230t151.5 147.5t204 48.5q123 0 215 -20v-51q-123 20 -215 20q-148 0 -252.5 -101t-104.5 -274q0 -89 30.5 -161.5t82 -117.5 t115.5 -69t133 -24q112 0 197 20l14 -8v-39q-105 -22 -211 -22q-81 0 -155 27t-133 78t-94.5 133t-35.5 183z" />
<glyph unicode="&#xaa;" horiz-adv-x="804" d="M152 975q0 89 71.5 137.5t196.5 48.5q87 0 168 -20v33q0 114 -47.5 163t-122.5 49q-91 0 -223 -51v49q126 50 223 50t159 -61t62 -199v-369h-47l-4 61q-38 -32 -109.5 -53.5t-124.5 -21.5q-109 0 -155.5 48t-46.5 136zM154 653v43h485v-43h-485zM201 975q0 -139 153 -139 q50 0 120 23.5t114 58.5v176q-81 20 -168 20q-103 0 -161 -36t-58 -103z" />
<glyph unicode="&#xab;" horiz-adv-x="735" d="M111 506l243 364h70l-244 -364l244 -365h-70zM297 506l244 364h69l-243 -364l243 -365h-69z" />
<glyph unicode="&#xac;" horiz-adv-x="1304" d="M170 717v55h969v-518h-58v463h-911z" />
<glyph unicode="&#xad;" horiz-adv-x="917" d="M152 557v53h614v-53h-614z" />
<glyph unicode="&#xae;" horiz-adv-x="1679" d="M131 700q0 154 41.5 279.5t111 208.5t162 139.5t191.5 81.5t203 25t202.5 -25t191.5 -81.5t162 -139.5t110.5 -208.5t41.5 -279.5q0 -329 -194 -526t-516 -197h4q-322 0 -516.5 197t-194.5 526zM188 700q0 -303 179 -484t475 -181h-4q296 0 474.5 181t178.5 484 q0 142 -38.5 257.5t-101.5 192t-148.5 128.5t-176 75t-186.5 23t-186.5 -23t-176 -75t-149 -128.5t-102 -192t-38.5 -257.5zM569 293v819h314q98 0 161.5 -58t63.5 -167q0 -112 -59.5 -171t-167.5 -65q18 -12 36 -28.5t36 -38.5t32.5 -40.5t32.5 -47t28.5 -45t27.5 -47 t22.5 -41t20.5 -40t16 -30.5h-60q-26 50 -54.5 98t-73 114t-91 106t-84.5 40h-145v-358h-56zM625 700h227q199 0 199 187q0 85 -47 130.5t-121 45.5h-258v-363z" />
<glyph unicode="&#xaf;" horiz-adv-x="862" d="M246 1288v60h370v-60h-370z" />
<glyph unicode="&#xb0;" horiz-adv-x="735" d="M115 1182q0 105 72.5 178.5t179.5 73.5q108 0 181 -73.5t73 -178.5t-73 -178.5t-181 -73.5q-107 0 -179.5 73.5t-72.5 178.5zM172 1182q0 -82 56 -138.5t139 -56.5q84 0 140 56.5t56 138.5t-56 138t-140 56q-83 0 -139 -56t-56 -138z" />
<glyph unicode="&#xb1;" horiz-adv-x="1210" d="M156 0h899v51h-899v-51zM156 657v56h422v422h55v-422h422v-56h-422v-421h-55v421h-422z" />
<glyph unicode="&#xb2;" horiz-adv-x="675" d="M76 926v37l401 436q51 63 51 119q0 76 -56.5 122t-162.5 46q-52 0 -112.5 -18.5t-94.5 -43.5v53q90 58 207 58q130 0 198 -59t68 -158q0 -83 -79 -166l-353 -377h428v-49h-495z" />
<glyph unicode="&#xb3;" horiz-adv-x="671" d="M98 944v45q92 -33 185 -33q107 0 164 46t57 124q0 19 -2.5 36.5t-13 50t-39.5 55t-74 28.5h-174v47h172q43 10 72.5 34.5t40.5 55t14.5 49.5t3.5 36q0 78 -57 124t-164 46q-93 0 -185 -33v47q89 33 185 33q130 0 198.5 -58.5t71.5 -158.5q0 -10 -0.5 -21t-7.5 -40.5 t-19 -52.5t-39.5 -47t-64.5 -34q131 -39 131 -197q0 -99 -69.5 -157t-200.5 -58q-96 0 -185 33z" />
<glyph unicode="&#xb4;" horiz-adv-x="804" d="M246 1186l127 227h63l-133 -227h-57z" />
<glyph unicode="&#xb6;" horiz-adv-x="794" d="M106 1171q0 98 70 169.5t170 72.5h229v-1663h-57v1616h-115v-1616h-57v1182q-99 2 -169.5 71.5t-70.5 167.5z" />
<glyph unicode="&#xb7;" horiz-adv-x="401" d="M154 745q0 50 47 50q49 0 49 -50q0 -47 -49 -47q-47 0 -47 47z" />
<glyph unicode="&#xb8;" horiz-adv-x="1015" d="M328 -309q73 -33 139 -41q76 -9 120 29t44 100q0 97 -119 241h68q29 -34 59 -86t39 -86q31 -112 -29.5 -190.5t-187.5 -65.5q-59 5 -133 37v62z" />
<glyph unicode="&#xb9;" horiz-adv-x="532" d="M92 926v51h174v686l-172 -109v56l174 110h47v-743h172v-51h-395z" />
<glyph unicode="&#xba;" horiz-adv-x="913" d="M141 1112q0 158 88.5 240t227.5 82q137 0 226 -82t89 -240q0 -159 -88.5 -240t-226.5 -81q-139 0 -227.5 81t-88.5 240zM186 653v43h541v-43h-541zM193 1112q0 -137 74 -209t190 -72q115 0 188.5 72t73.5 209q0 136 -73.5 207.5t-188.5 71.5q-116 0 -190 -71.5 t-74 -207.5z" />
<glyph unicode="&#xbb;" horiz-adv-x="735" d="M125 141q191 285 244 365l-244 364h70l243 -364l-243 -365h-70zM311 141q191 285 244 365l-244 364h70l244 -364l-244 -365h-70z" />
<glyph unicode="&#xbc;" horiz-adv-x="1478" d="M123 618v52h174v686l-172 -109v56l174 110h47v-743h172v-52h-395zM412 0l571 1413h51l-571 -1413h-51zM774 197h443v-197h47v197h120v49h-120v549h-52l-438 -559v-39zM838 246l379 481v-481h-379z" />
<glyph unicode="&#xbd;" horiz-adv-x="1521" d="M115 618v52h174v686l-172 -109v56l174 110h47v-743h172v-52h-395zM403 0l572 1413h51l-571 -1413h-52zM918 0v37l401 436q51 63 51 119q0 76 -56.5 122t-162.5 46q-52 0 -112.5 -18.5t-94.5 -43.5v54q88 57 207 57q130 0 198 -59t68 -158q0 -82 -80 -166l-352 -377h428 v-49h-495z" />
<glyph unicode="&#xbe;" horiz-adv-x="1570" d="M129 637v45q92 -33 184 -33q107 0 164.5 46t57.5 124q0 19 -2.5 36.5t-13 50t-39.5 55t-74 28.5h-175v47h172q43 10 72.5 34.5t41 54.5t15 49t3.5 36q0 78 -57.5 124t-164.5 46q-95 0 -184 -32v47q86 32 184 32q130 0 199 -58.5t72 -158.5q0 -10 -0.5 -21t-7.5 -40.5 t-19 -52t-39.5 -46.5t-64.5 -34q131 -39 131 -197q0 -99 -70 -157t-201 -58q-95 0 -184 33zM504 0l571 1413h51l-571 -1413h-51zM866 197v39l439 559h51v-549h121v-49h-121v-197h-47v197h-443zM930 246h379v481z" />
<glyph unicode="&#xbf;" horiz-adv-x="917" d="M92 -74q0 -170 100.5 -264.5t315.5 -91.5q69 2 162 27t151 59v59q-51 -31 -151.5 -58.5t-163.5 -29.5q-356 -5 -356 299q0 230 215 328l-3 -2q138 62 229 166t91 223h-57q-6 -108 -83.5 -194t-201.5 -142q-248 -113 -248 -379zM600 971q0 47 49 47q47 0 47 -47 q0 -49 -47 -49q-49 0 -49 49z" />
<glyph unicode="&#xc0;" horiz-adv-x="1282" d="M63 0q133 411 256.5 736.5t294.5 676.5h54q170 -349 293.5 -674t257.5 -739h-62q-95 292 -153 457h-725q-105 -302 -154 -457h-62zM295 508h690q-156 435 -344 829q-187 -394 -346 -829zM453 1835h63l127 -227h-57z" />
<glyph unicode="&#xc1;" horiz-adv-x="1282" d="M63 0q133 411 256.5 736.5t294.5 676.5h54q170 -349 293.5 -674t257.5 -739h-62q-95 292 -153 457h-725q-105 -302 -154 -457h-62zM295 508h690q-156 435 -344 829q-187 -394 -346 -829zM625 1608l127 227h63l-133 -227h-57z" />
<glyph unicode="&#xc2;" horiz-adv-x="1282" d="M63 0q133 411 256.5 736.5t294.5 676.5h54q170 -349 293.5 -674t257.5 -739h-62q-95 292 -153 457h-725q-105 -302 -154 -457h-62zM295 508h690q-156 435 -344 829q-187 -394 -346 -829zM410 1608l192 227h76l192 -227h-59l-172 190l-170 -190h-59z" />
<glyph unicode="&#xc3;" horiz-adv-x="1282" d="M63 0q133 411 256.5 736.5t294.5 676.5h54q170 -349 293.5 -674t257.5 -739h-62q-95 292 -153 457h-725q-105 -302 -154 -457h-62zM295 508h690q-156 435 -344 829q-187 -394 -346 -829zM416 1661q13 119 141 119q27 0 61.5 -14.5t61 -28t53 -21t45.5 8t29 57.5h57 q-20 -119 -110 -119q-45 0 -113 35q-70 31 -84 31q-37 0 -59 -18t-27 -50h-55z" />
<glyph unicode="&#xc4;" horiz-adv-x="1282" d="M63 0q133 411 256.5 736.5t294.5 676.5h54q170 -349 293.5 -674t257.5 -739h-62q-95 292 -153 457h-725q-105 -302 -154 -457h-62zM295 508h690q-156 435 -344 829q-187 -394 -346 -829zM485 1720q0 43 45 43q48 0 48 -43q0 -41 -48 -41q-45 0 -45 41zM702 1720 q0 43 46 43q47 0 47 -43q0 -41 -47 -41q-46 0 -46 41z" />
<glyph unicode="&#xc5;" horiz-adv-x="1282" d="M63 0q133 411 256.5 736.5t294.5 676.5h54q170 -349 293.5 -674t257.5 -739h-62q-95 292 -153 457h-725q-105 -302 -154 -457h-62zM295 508h690q-156 435 -344 829q-187 -394 -346 -829zM479 1724q0 84 45 121t117 37t117 -37t45 -121q0 -82 -46 -119.5t-116 -37.5 t-116 37.5t-46 119.5zM528 1724q0 -57 32 -83.5t81 -26.5t81 26.5t32 83.5q0 59 -31.5 85t-81.5 26t-81.5 -26t-31.5 -85z" />
<glyph unicode="&#xc6;" horiz-adv-x="1832" d="M68 0q116 400 231.5 727.5t275.5 683.5h1135v-57h-735v-594h684v-58h-684v-466q3 -98 52 -137.5t161 -41.5h522v-57h-524q-141 3 -203 54t-65 179v224h-652q-58 -181 -139 -457h-59zM285 510h633v844h-304q-177 -392 -329 -844z" />
<glyph unicode="&#xc7;" horiz-adv-x="1269" d="M125 702q0 171 57.5 311.5t155 231t224.5 140t269 49.5q188 0 351 -31v-60q-184 33 -351 33q-130 0 -246.5 -45.5t-206.5 -129t-143 -213t-53 -286.5q0 -159 55.5 -288.5t148.5 -210.5t209 -124.5t243 -43.5q206 0 344 37v-62q-177 -33 -344 -33q-20 0 -41 3 q51 -75 67 -132q31 -112 -29.5 -190.5t-187.5 -65.5q-59 5 -133 37v62q73 -33 139 -41q76 -9 120 29t44 100q0 86 -90 207q-122 16 -229 70.5t-191 142t-133 217.5t-49 286z" />
<glyph unicode="&#xc8;" horiz-adv-x="1118" d="M203 233v1180h792v-57h-735v-611h686v-57h-686v-455v3q3 -98 52 -137.5t161 -41.5h-2h524v-57h-524q-141 3 -203 54t-65 179zM463 1835h63l127 -227h-57z" />
<glyph unicode="&#xc9;" horiz-adv-x="1118" d="M203 233v1180h792v-57h-735v-611h686v-57h-686v-455v3q3 -98 52 -137.5t161 -41.5h-2h524v-57h-524q-141 3 -203 54t-65 179zM524 1608l127 227h64l-133 -227h-58z" />
<glyph unicode="&#xca;" horiz-adv-x="1118" d="M203 233v1180h792v-57h-735v-611h686v-57h-686v-455v3q3 -98 52 -137.5t161 -41.5h-2h524v-57h-524q-141 3 -203 54t-65 179zM358 1608l193 227h76l192 -227h-59l-172 190l-170 -190h-60z" />
<glyph unicode="&#xcb;" horiz-adv-x="1118" d="M203 233v1180h792v-57h-735v-611h686v-57h-686v-455v3q3 -98 52 -137.5t161 -41.5h-2h524v-57h-524q-141 3 -203 54t-65 179zM403 1720q0 43 46 43q47 0 47 -43q0 -41 -47 -41q-46 0 -46 41zM621 1720q0 43 45 43q47 0 47 -43q0 -41 -47 -41q-45 0 -45 41z" />
<glyph unicode="&#xcc;" horiz-adv-x="475" d="M74 1835h63l127 -227h-57zM209 0v1413h57v-1413h-57z" />
<glyph unicode="&#xcd;" horiz-adv-x="475" d="M209 0v1413h57v-1413h-57zM209 1608l127 227h63l-133 -227h-57z" />
<glyph unicode="&#xce;" horiz-adv-x="475" d="M8 1608l193 227h75l193 -227h-59l-172 190l-170 -190h-60zM209 0v1413h57v-1413h-57z" />
<glyph unicode="&#xcf;" horiz-adv-x="475" d="M84 1720q0 43 45 43q47 0 47 -43q0 -41 -47 -41q-45 0 -45 41zM209 0v1413h57v-1413h-57zM301 1720q0 43 45 43q47 0 47 -43q0 -41 -47 -41q-45 0 -45 41z" />
<glyph unicode="&#xd0;" horiz-adv-x="1413" d="M55 709v59h160v645h438q124 0 236.5 -46.5t201 -133t141 -224.5t52.5 -307q0 -172 -52.5 -309t-141.5 -221t-200.5 -128t-236.5 -44h-438v709h-160zM272 53h381q114 0 215.5 41t182.5 119t128.5 204.5t47.5 284.5q0 126 -31 233.5t-85.5 184.5t-127 132t-156.5 81.5 t-174 26.5h-381v-592h324v-59h-324v-656z" />
<glyph unicode="&#xd1;" horiz-adv-x="1433" d="M209 0v1413h65q225 -225 473 -592.5t420 -730.5v1323h58v-1413h-74q-170 361 -418 738.5t-467 602.5v-1341h-57zM494 1661q13 119 141 119q27 0 61.5 -14.5t61 -28t53 -21t45.5 8t29 57.5h57q-20 -119 -111 -119q-44 0 -112 35q-70 31 -84 31q-37 0 -59 -18t-27 -50h-55z " />
<glyph unicode="&#xd2;" horiz-adv-x="1650" d="M127 700q0 154 41 280t109 209t159 139.5t187.5 81t199.5 24.5t200.5 -24.5t189 -81t159.5 -139.5t109 -209t41 -280q0 -330 -191.5 -526.5t-509.5 -196.5q-316 2 -505 197.5t-189 525.5zM182 700q0 -195 79.5 -347t225 -237t334.5 -85q192 0 339 85t226.5 237t79.5 347 q0 138 -37.5 252.5t-100.5 192.5t-147 132t-174 78.5t-184 24.5t-184 -24.5t-173.5 -78.5t-146 -132t-100 -192.5t-37.5 -252.5zM664 1835h63l127 -227h-57z" />
<glyph unicode="&#xd3;" horiz-adv-x="1650" d="M127 700q0 154 41 280t109 209t159 139.5t187.5 81t199.5 24.5t200.5 -24.5t189 -81t159.5 -139.5t109 -209t41 -280q0 -330 -191.5 -526.5t-509.5 -196.5q-316 2 -505 197.5t-189 525.5zM182 700q0 -195 79.5 -347t225 -237t334.5 -85q192 0 339 85t226.5 237t79.5 347 q0 138 -37.5 252.5t-100.5 192.5t-147 132t-174 78.5t-184 24.5t-184 -24.5t-173.5 -78.5t-146 -132t-100 -192.5t-37.5 -252.5zM797 1608l127 227h63l-133 -227h-57z" />
<glyph unicode="&#xd4;" horiz-adv-x="1650" d="M127 700q0 154 41 280t109 209t159 139.5t187.5 81t199.5 24.5t200.5 -24.5t189 -81t159.5 -139.5t109 -209t41 -280q0 -330 -191.5 -526.5t-509.5 -196.5q-316 2 -505 197.5t-189 525.5zM182 700q0 -195 79.5 -347t225 -237t334.5 -85q192 0 339 85t226.5 237t79.5 347 q0 138 -37.5 252.5t-100.5 192.5t-147 132t-174 78.5t-184 24.5t-184 -24.5t-173.5 -78.5t-146 -132t-100 -192.5t-37.5 -252.5zM594 1608l192 227h76l193 -227h-60l-172 190l-170 -190h-59z" />
<glyph unicode="&#xd5;" horiz-adv-x="1650" d="M127 700q0 154 41 280t109 209t159 139.5t187.5 81t199.5 24.5t200.5 -24.5t189 -81t159.5 -139.5t109 -209t41 -280q0 -330 -191.5 -526.5t-509.5 -196.5q-316 2 -505 197.5t-189 525.5zM182 700q0 -195 79.5 -347t225 -237t334.5 -85q192 0 339 85t226.5 237t79.5 347 q0 138 -37.5 252.5t-100.5 192.5t-147 132t-174 78.5t-184 24.5t-184 -24.5t-173.5 -78.5t-146 -132t-100 -192.5t-37.5 -252.5zM600 1661q13 119 141 119q27 0 61.5 -14.5t61 -28t53 -21t45.5 8t29 57.5h58q-20 -119 -111 -119q-45 0 -113 35q-70 31 -84 31q-37 0 -59 -18 t-27 -50h-55z" />
<glyph unicode="&#xd6;" horiz-adv-x="1650" d="M127 700q0 154 41 280t109 209t159 139.5t187.5 81t199.5 24.5t200.5 -24.5t189 -81t159.5 -139.5t109 -209t41 -280q0 -330 -191.5 -526.5t-509.5 -196.5q-316 2 -505 197.5t-189 525.5zM182 700q0 -195 79.5 -347t225 -237t334.5 -85q192 0 339 85t226.5 237t79.5 347 q0 138 -37.5 252.5t-100.5 192.5t-147 132t-174 78.5t-184 24.5t-184 -24.5t-173.5 -78.5t-146 -132t-100 -192.5t-37.5 -252.5zM670 1720q0 43 45 43q47 0 47 -43q0 -41 -47 -41q-45 0 -45 41zM887 1720q0 43 45 43q47 0 47 -43q0 -41 -47 -41q-45 0 -45 41z" />
<glyph unicode="&#xd7;" horiz-adv-x="999" d="M145 260l314 313l-314 314l41 41l314 -314l313 314l41 -41l-313 -314l313 -313l-41 -41l-313 313l-314 -313z" />
<glyph unicode="&#xd8;" horiz-adv-x="1650" d="M119 0l180 193q-170 195 -170 507q0 154 41 280t109 209t159 139.5t187.5 81t199.5 24.5q131 0 256.5 -42t221.5 -128l172 184l38 -35l-174 -186q185 -195 185 -527q0 -330 -191.5 -526.5t-509.5 -196.5q-302 3 -487 179l-178 -191zM184 700q0 -277 158 -462l918 981 q-89 80 -202.5 120.5t-232.5 40.5q-94 0 -184 -24.5t-173.5 -78.5t-146 -132t-100 -192.5t-37.5 -252.5zM377 199q176 -168 446 -168q192 0 339 85t226.5 237t79.5 347q0 297 -170 482z" />
<glyph unicode="&#xd9;" horiz-adv-x="1470" d="M197 571q0 -117 22.5 -211.5t56 -155.5t84 -105.5t96.5 -67t104 -36t94.5 -16t80.5 -2.5t81 2.5t95 16t104 36t96.5 67t84.5 105.5t56 155.5t22 211.5v842h-57v-842q0 -106 -20 -191.5t-50 -140t-75.5 -95t-86 -61t-93 -32t-85 -14t-72.5 -2.5q-39 0 -71.5 2.5t-84.5 14 t-93 32t-86.5 61t-75.5 95t-50 140t-20 191.5v842h-57v-842zM590 1835h63l127 -227h-57z" />
<glyph unicode="&#xda;" horiz-adv-x="1470" d="M197 571v842h57v-842q0 -106 20 -191.5t50 -140t75.5 -95t86.5 -61t93 -32t84.5 -14t71.5 -2.5q40 0 72.5 2.5t85 14t93 32t86 61t75.5 95t50 140t20 191.5v842h57v-842q0 -117 -22 -211.5t-56 -155.5t-84.5 -105.5t-96.5 -67t-104 -36t-95 -16t-81 -2.5t-80.5 2.5 t-94.5 16t-104 36t-96.5 67t-84 105.5t-56 155.5t-22.5 211.5zM639 1608l127 227h63l-133 -227h-57z" />
<glyph unicode="&#xdb;" horiz-adv-x="1470" d="M197 571v842h57v-842q0 -106 20 -191.5t50 -140t75.5 -95t86.5 -61t93 -32t84.5 -14t71.5 -2.5q40 0 72.5 2.5t85 14t93 32t86 61t75.5 95t50 140t20 191.5v842h57v-842q0 -117 -22 -211.5t-56 -155.5t-84.5 -105.5t-96.5 -67t-104 -36t-95 -16t-81 -2.5t-80.5 2.5 t-94.5 16t-104 36t-96.5 67t-84 105.5t-56 155.5t-22.5 211.5zM504 1608l192 227h76l193 -227h-60l-172 190l-170 -190h-59z" />
<glyph unicode="&#xdc;" horiz-adv-x="1470" d="M197 571q0 -117 22.5 -211.5t56 -155.5t84 -105.5t96.5 -67t104 -36t94.5 -16t80.5 -2.5t81 2.5t95 16t104 36t96.5 67t84.5 105.5t56 155.5t22 211.5v842h-57v-842q0 -106 -20 -191.5t-50 -140t-75.5 -95t-86 -61t-93 -32t-85 -14t-72.5 -2.5q-39 0 -71.5 2.5t-84.5 14 t-93 32t-86.5 61t-75.5 95t-50 140t-20 191.5v842h-57v-842zM580 1720q0 43 45 43q47 0 47 -43q0 -41 -47 -41q-45 0 -45 41zM797 1720q0 43 45 43q47 0 47 -43q0 -41 -47 -41q-45 0 -45 41z" />
<glyph unicode="&#xdd;" horiz-adv-x="1071" d="M45 1413h66l426 -735l419 735h66l-457 -799v-614h-57v612zM500 1608l127 227h63l-133 -227h-57z" />
<glyph unicode="&#xde;" horiz-adv-x="1138" d="M209 0v1411h59v-301h428q69 0 132 -26.5t112.5 -76t79 -127.5t29.5 -175q0 -98 -29.5 -176t-79 -126t-112 -73t-132.5 -25h-428v-305h-59zM268 362h430q124 0 209.5 89.5t85.5 253.5t-86 256t-209 92h-430v-691z" />
<glyph unicode="&#xdf;" horiz-adv-x="1134" d="M176 0v909q0 58 2.5 104.5t12.5 103t28 99.5t49.5 85.5t75 70.5t108 45t144.5 17q69 0 130 -19.5t112.5 -58.5t81.5 -106t30 -154q0 -107 -55 -196.5t-154 -127.5q51 -18 98.5 -51t91 -81.5t69.5 -118.5t26 -150q0 -84 -32.5 -155t-87.5 -117.5t-127.5 -72.5t-153.5 -26 h-232v57h232q143 0 243.5 86t100.5 228q0 76 -27.5 140t-68 104.5t-89 69t-90 40.5t-71.5 12h-37v68h26q87 0 152.5 43t97 108t31.5 140q0 72 -25.5 128t-68.5 88t-94.5 48t-108.5 16q-70 0 -125.5 -15.5t-93 -40t-65 -62.5t-42.5 -76t-24 -88.5t-11 -92t-2 -92.5v-909h-57z " />
<glyph unicode="&#xe0;" horiz-adv-x="1073" d="M98 270q0 -293 324 -293q96 0 220.5 40t178.5 98q1 -65 40 -101.5t100 -36.5q55 0 122 31v58q-72 -33 -122 -33q-38 0 -61 23t-23 63v479q0 94 -19.5 167t-51.5 119.5t-78.5 76.5t-96 42.5t-107.5 12.5q-96 0 -176.5 -20.5t-173.5 -57.5v-57q192 77 350 77 q61 0 111.5 -18t93 -58t66.5 -112t24 -172v-74q-162 43 -289 43q-201 0 -316.5 -77t-115.5 -220zM156 270q0 115 100 177.5t274 62.5q144 0 289 -37v-305q-72 -59 -191 -96t-206 -37q-266 0 -266 235zM379 1413h63l127 -227h-57z" />
<glyph unicode="&#xe1;" horiz-adv-x="1073" d="M98 270q0 143 115.5 220t316.5 77q127 0 289 -43v74q0 100 -24 172t-66.5 112t-93 58t-111.5 18q-158 0 -350 -77v57q93 37 173.5 57.5t176.5 20.5q58 0 107.5 -12.5t96 -42.5t78.5 -76.5t51.5 -119.5t19.5 -167v-479q0 -40 23 -63t61 -23q50 0 122 33v-58 q-67 -31 -122 -31q-61 0 -100 36.5t-40 101.5q-54 -58 -178.5 -98t-220.5 -40q-324 0 -324 293zM156 270q0 -235 266 -235q87 0 206 37t191 96v305q-145 37 -289 37q-174 0 -274 -62.5t-100 -177.5zM451 1186l127 227h63l-133 -227h-57z" />
<glyph unicode="&#xe2;" horiz-adv-x="1073" d="M98 270q0 143 115.5 220t316.5 77q127 0 289 -43v74q0 100 -24 172t-66.5 112t-93 58t-111.5 18q-158 0 -350 -77v57q93 37 173.5 57.5t176.5 20.5q58 0 107.5 -12.5t96 -42.5t78.5 -76.5t51.5 -119.5t19.5 -167v-479q0 -40 23 -63t61 -23q50 0 122 33v-58 q-67 -31 -122 -31q-61 0 -100 36.5t-40 101.5q-54 -58 -178.5 -98t-220.5 -40q-324 0 -324 293zM156 270q0 -235 266 -235q87 0 206 37t191 96v305q-145 37 -289 37q-174 0 -274 -62.5t-100 -177.5zM266 1186l193 227h76l192 -227h-59l-172 190l-170 -190h-60z" />
<glyph unicode="&#xe3;" horiz-adv-x="1073" d="M98 270q0 -293 324 -293q96 0 220.5 40t178.5 98q1 -65 40 -101.5t100 -36.5q55 0 122 31v58q-72 -33 -122 -33q-38 0 -61 23t-23 63v479q0 94 -19.5 167t-51.5 119.5t-78.5 76.5t-96 42.5t-107.5 12.5q-96 0 -176.5 -20.5t-173.5 -57.5v-57q192 77 350 77 q61 0 111.5 -18t93 -58t66.5 -112t24 -172v-74q-162 43 -289 43q-201 0 -316.5 -77t-115.5 -220zM156 270q0 115 100 177.5t274 62.5q144 0 289 -37v-305q-72 -59 -191 -96t-206 -37q-266 0 -266 235zM289 1239q13 119 141 119q27 0 61.5 -14.5t61 -28t53 -21t45.5 8 t29 57.5h57q-20 -119 -110 -119q-45 0 -113 35q-70 31 -84 31q-37 0 -59 -18t-27 -50h-55z" />
<glyph unicode="&#xe4;" horiz-adv-x="1073" d="M98 270q0 -293 324 -293q96 0 220.5 40t178.5 98q1 -65 40 -101.5t100 -36.5q55 0 122 31v58q-72 -33 -122 -33q-38 0 -61 23t-23 63v479q0 94 -19.5 167t-51.5 119.5t-78.5 76.5t-96 42.5t-107.5 12.5q-96 0 -176.5 -20.5t-173.5 -57.5v-57q192 77 350 77 q61 0 111.5 -18t93 -58t66.5 -112t24 -172v-74q-162 43 -289 43q-201 0 -316.5 -77t-115.5 -220zM156 270q0 115 100 177.5t274 62.5q144 0 289 -37v-305q-72 -59 -191 -96t-206 -37q-266 0 -266 235zM332 1298q0 43 45 43q47 0 47 -43q0 -41 -47 -41q-45 0 -45 41z M549 1298q0 43 45 43q47 0 47 -43q0 -41 -47 -41q-45 0 -45 41z" />
<glyph unicode="&#xe5;" horiz-adv-x="1073" d="M98 270q0 143 115.5 220t316.5 77q127 0 289 -43v74q0 100 -24 172t-66.5 112t-93 58t-111.5 18q-158 0 -350 -77v57q93 37 173.5 57.5t176.5 20.5q58 0 107.5 -12.5t96 -42.5t78.5 -76.5t51.5 -119.5t19.5 -167v-479q0 -40 23 -63t61 -23q50 0 122 33v-58 q-67 -31 -122 -31q-61 0 -100 36.5t-40 101.5q-54 -58 -178.5 -98t-220.5 -40q-324 0 -324 293zM156 270q0 -235 266 -235q87 0 206 37t191 96v305q-145 37 -289 37q-174 0 -274 -62.5t-100 -177.5zM338 1303q0 157 162 157t162 -157q0 -82 -46 -120t-116 -38t-116 38 t-46 120zM387 1303q0 -57 32 -84t81 -27t80.5 26.5t31.5 84.5q0 110 -112 110q-50 0 -81.5 -25.5t-31.5 -84.5z" />
<glyph unicode="&#xe6;" horiz-adv-x="1826" d="M98 270q0 143 115.5 220t316.5 77q127 0 289 -43v74q0 100 -24 172t-66.5 112t-93 58t-111.5 18q-158 0 -350 -77v57q93 37 173.5 57.5t176.5 20.5q61 0 113 -14.5t98.5 -45.5t79.5 -86.5t49 -132.5q56 132 167.5 205.5t246.5 73.5q211 0 332 -144.5t123 -394.5h-856 q6 -222 121.5 -334t297.5 -112q179 3 349 45v-53q-185 -44 -349 -46q-143 0 -252 59.5t-167 180.5v-217h-52l-6 125q-51 -60 -176.5 -104t-220.5 -44q-324 0 -324 293zM156 270q0 -235 266 -235q85 0 204.5 39.5t192.5 99.5v299q-145 37 -289 37q-174 0 -274 -62.5 t-100 -177.5zM877 526h796q-11 203 -115 317.5t-280 114.5q-162 0 -278.5 -115.5t-122.5 -316.5z" />
<glyph unicode="&#xe7;" horiz-adv-x="935" d="M113 496q1 121 42.5 221.5t108.5 164.5t150 99t170 35q135 0 266 -25v-53q-98 20 -266 20q-76 0 -149 -31t-132 -88t-95.5 -146.5t-37.5 -196.5q0 -88 23.5 -163.5t64 -129.5t94 -93t112.5 -58t120 -19q168 0 266 20v-55q-121 -23 -260 -23q48 -68 65 -127 q31 -112 -29.5 -190.5t-187.5 -65.5q-59 5 -133 37v62q73 -33 139 -41q76 -9 120 29t44 100q0 86 -86 201q-64 9 -123 35t-111 70.5t-91 103.5t-61.5 138t-22.5 169z" />
<glyph unicode="&#xe8;" horiz-adv-x="1124" d="M117 504q0 120 37.5 218.5t101.5 162t146 97.5t173 34q211 0 332 -144.5t123 -394.5h-856q6 -222 122 -334t298 -112q178 2 348 45v-53q-185 -44 -348 -46q-103 0 -188 31t-150.5 93.5t-102 165t-36.5 237.5zM174 526h797q-11 203 -115 317.5t-281 114.5 q-162 0 -278.5 -115.5t-122.5 -316.5zM418 1413h63l127 -227h-57z" />
<glyph unicode="&#xe9;" horiz-adv-x="1124" d="M117 504q0 120 37.5 218.5t101.5 162t146 97.5t173 34q211 0 332 -144.5t123 -394.5h-856q6 -222 122 -334t298 -112q178 2 348 45v-53q-185 -44 -348 -46q-103 0 -188 31t-150.5 93.5t-102 165t-36.5 237.5zM174 526h797q-11 203 -115 317.5t-281 114.5 q-162 0 -278.5 -115.5t-122.5 -316.5zM526 1186l127 227h64l-133 -227h-58z" />
<glyph unicode="&#xea;" horiz-adv-x="1124" d="M117 504q0 120 37.5 218.5t101.5 162t146 97.5t173 34q211 0 332 -144.5t123 -394.5h-856q6 -222 122 -334t298 -112q178 2 348 45v-53q-185 -44 -348 -46q-103 0 -188 31t-150.5 93.5t-102 165t-36.5 237.5zM174 526h797q-11 203 -115 317.5t-281 114.5 q-162 0 -278.5 -115.5t-122.5 -316.5zM342 1186l193 227h75l193 -227h-60l-172 190l-170 -190h-59z" />
<glyph unicode="&#xeb;" horiz-adv-x="1124" d="M117 504q0 120 37.5 218.5t101.5 162t146 97.5t173 34q211 0 332 -144.5t123 -394.5h-856q6 -222 122 -334t298 -112q178 2 348 45v-53q-185 -44 -348 -46q-103 0 -188 31t-150.5 93.5t-102 165t-36.5 237.5zM174 526h797q-11 203 -115 317.5t-281 114.5 q-162 0 -278.5 -115.5t-122.5 -316.5zM414 1298q0 48 49 48q51 0 51 -48q0 -45 -51 -45q-49 0 -49 45zM631 1298q0 48 49 48q51 0 51 -48q0 -45 -51 -45q-49 0 -49 45z" />
<glyph unicode="&#xec;" horiz-adv-x="407" d="M43 1413h63l127 -227h-57zM174 0v991h59v-991h-59z" />
<glyph unicode="&#xed;" horiz-adv-x="407" d="M174 0v991h59v-991h-59zM174 1186l127 227h64l-134 -227h-57z" />
<glyph unicode="&#xee;" horiz-adv-x="407" d="M-27 1186l193 227h76l192 -227h-59l-172 190l-170 -190h-60zM174 0v991h59v-991h-59z" />
<glyph unicode="&#xef;" horiz-adv-x="407" d="M49 1298q0 43 45 43q47 0 47 -43q0 -41 -47 -41q-45 0 -45 41zM174 0v991h59v-991h-59zM266 1298q0 43 45 43q47 0 47 -43q0 -41 -47 -41q-45 0 -45 41z" />
<glyph unicode="&#xf0;" horiz-adv-x="1236" d="M117 475q0 110 30 198t79 144.5t115 93.5t135 51.5t142 12.5q25 0 57 -3t85 -13t109 -35t100 -62q-53 109 -136 211t-178 180l-276 -125v54l231 104q-113 83 -241 131l18 53q154 -56 281 -157l262 119v-52l-217 -100q180 -156 293.5 -370t113.5 -429q0 -117 -29 -207.5 t-77 -146t-114.5 -90.5t-135 -48t-146.5 -12q-73 -2 -142 12.5t-135 52t-115 93.5t-79 144t-30 196zM174 475q0 -119 39.5 -209t105 -139.5t140.5 -72t157 -19.5q69 -1 130 10t120.5 42.5t102 80.5t68.5 129t26 184q0 156 -59 301q-169 136 -388 136q-82 3 -157 -19.5 t-140.5 -72t-105 -140t-39.5 -211.5z" />
<glyph unicode="&#xf1;" horiz-adv-x="1148" d="M174 0v991h47l10 -100q186 125 367 125q387 0 387 -398v-618h-57v618q0 181 -88.5 262t-241.5 81q-73 0 -174.5 -35t-192.5 -95v-831h-57zM350 1239q13 119 142 119q27 0 61.5 -14.5t61 -28t52.5 -21t45 8t29 57.5h58q-20 -119 -111 -119q-45 0 -113 35q-70 31 -83 31 q-37 0 -59 -18t-27 -50h-56z" />
<glyph unicode="&#xf2;" d="M115 496q0 -130 39.5 -231.5t109.5 -163t160 -93t197 -31.5t197 31.5t159.5 93.5t109 162.5t39.5 231.5q0 130 -39.5 231t-109 163t-159.5 93t-197 31t-197 -31t-160 -93t-109.5 -163t-39.5 -231zM172 496q0 116 35 207t97 147.5t142 85.5t175 29t175 -29t141.5 -85.5 t96.5 -147.5t35 -207t-35 -207t-96.5 -147.5t-141.5 -85.5t-175 -29t-175 29t-142 85.5t-97 147.5t-35 207zM465 1413h63l127 -227h-57z" />
<glyph unicode="&#xf3;" d="M115 496q0 130 39.5 231t109.5 163t160 93t197 31t197 -31t159.5 -93t109 -163t39.5 -231q0 -131 -39.5 -231.5t-109 -162.5t-159.5 -93.5t-197 -31.5t-197 31.5t-160 93t-109.5 163t-39.5 231.5zM172 496q0 -116 35 -207t97 -147.5t142 -85.5t175 -29t175 29t141.5 85.5 t96.5 147.5t35 207t-35 207t-96.5 147.5t-141.5 85.5t-175 29t-175 -29t-142 -85.5t-97 -147.5t-35 -207zM582 1186l127 227h63l-133 -227h-57z" />
<glyph unicode="&#xf4;" d="M115 496q0 130 39.5 231t109.5 163t160 93t197 31t197 -31t159.5 -93t109 -163t39.5 -231q0 -131 -39.5 -231.5t-109 -162.5t-159.5 -93.5t-197 -31.5t-197 31.5t-160 93t-109.5 163t-39.5 231.5zM172 496q0 -116 35 -207t97 -147.5t142 -85.5t175 -29t175 29t141.5 85.5 t96.5 147.5t35 207t-35 207t-96.5 147.5t-141.5 85.5t-175 29t-175 -29t-142 -85.5t-97 -147.5t-35 -207zM389 1186l193 227h75l193 -227h-59l-173 190l-169 -190h-60z" />
<glyph unicode="&#xf5;" d="M115 496q0 -130 39.5 -231.5t109.5 -163t160 -93t197 -31.5t197 31.5t159.5 93.5t109 162.5t39.5 231.5q0 130 -39.5 231t-109 163t-159.5 93t-197 31t-197 -31t-160 -93t-109.5 -163t-39.5 -231zM172 496q0 116 35 207t97 147.5t142 85.5t175 29t175 -29t141.5 -85.5 t96.5 -147.5t35 -207t-35 -207t-96.5 -147.5t-141.5 -85.5t-175 -29t-175 29t-142 85.5t-97 147.5t-35 207zM395 1239q13 119 142 119q27 0 61.5 -14.5t61 -28t52.5 -21t45 8t29 57.5h58q-20 -119 -111 -119q-44 0 -112 35q-70 31 -84 31q-37 0 -59 -18t-27 -50h-56z" />
<glyph unicode="&#xf6;" d="M115 496q0 -130 39.5 -231.5t109.5 -163t160 -93t197 -31.5t197 31.5t159.5 93.5t109 162.5t39.5 231.5q0 130 -39.5 231t-109 163t-159.5 93t-197 31t-197 -31t-160 -93t-109.5 -163t-39.5 -231zM172 496q0 116 35 207t97 147.5t142 85.5t175 29t175 -29t141.5 -85.5 t96.5 -147.5t35 -207t-35 -207t-96.5 -147.5t-141.5 -85.5t-175 -29t-175 29t-142 85.5t-97 147.5t-35 207zM465 1298q0 43 45 43q47 0 47 -43q0 -41 -47 -41q-45 0 -45 41zM682 1298q0 43 45 43q47 0 47 -43q0 -41 -47 -41q-45 0 -45 41z" />
<glyph unicode="&#xf7;" horiz-adv-x="1101" d="M166 616v58h770v-58h-770zM496 254q0 51 53 51q57 0 57 -51q0 -49 -57 -49q-53 0 -53 49zM496 1030q0 51 53 51q57 0 57 -51q0 -49 -57 -49q-53 0 -53 49z" />
<glyph unicode="&#xf8;" d="M115 496q0 130 39.5 231t109.5 163t160 93t197 31q183 0 311 -88l117 141l38 -31l-118 -141q157 -141 157 -399q0 -131 -39.5 -231.5t-109 -162.5t-159.5 -93.5t-197 -31.5q-200 0 -332 103l-121 -146l-37 33l121 146q-137 134 -137 383zM172 496q0 -217 117 -340 l606 727q-113 82 -274 82q-95 0 -175 -29t-142 -85.5t-97 -147.5t-35 -207zM326 123q113 -96 295 -96q95 0 175 29t141.5 85.5t96.5 147.5t35 207q0 234 -135 356z" />
<glyph unicode="&#xf9;" horiz-adv-x="1191" d="M164 373v618h57v-618q0 -342 330 -342q73 0 174.5 34.5t192.5 94.5v831h57v-872q0 -40 23 -63t61 -23q51 0 123 33v-58q-67 -31 -123 -31q-61 0 -99.5 36.5t-39.5 101.5q-56 -62 -169 -101t-200 -39q-387 0 -387 398zM442 1413h64l127 -227h-58z" />
<glyph unicode="&#xfa;" horiz-adv-x="1191" d="M164 373v618h57v-618q0 -342 330 -342q73 0 174.5 34.5t192.5 94.5v831h57v-872q0 -40 23 -63t61 -23q51 0 123 33v-58q-67 -31 -123 -31q-61 0 -99.5 36.5t-39.5 101.5q-56 -62 -169 -101t-200 -39q-387 0 -387 398zM537 1186l127 227h63l-133 -227h-57z" />
<glyph unicode="&#xfb;" horiz-adv-x="1191" d="M164 373v618h57v-618q0 -342 330 -342q73 0 174.5 34.5t192.5 94.5v831h57v-872q0 -40 23 -63t61 -23q51 0 123 33v-58q-67 -31 -123 -31q-61 0 -99.5 36.5t-39.5 101.5q-56 -62 -169 -101t-200 -39q-387 0 -387 398zM336 1186l192 227h76l193 -227h-60l-172 190 l-170 -190h-59z" />
<glyph unicode="&#xfc;" horiz-adv-x="1191" d="M164 373v618h57v-618q0 -342 330 -342q73 0 174.5 34.5t192.5 94.5v831h57v-872q0 -40 23 -63t61 -23q51 0 123 33v-58q-67 -31 -123 -31q-61 0 -99.5 36.5t-39.5 101.5q-56 -62 -169 -101t-200 -39q-387 0 -387 398zM406 1298q0 43 45 43q47 0 47 -43q0 -41 -47 -41 q-45 0 -45 41zM623 1298q0 43 45 43q47 0 47 -43q0 -41 -47 -41q-45 0 -45 41z" />
<glyph unicode="&#xfd;" horiz-adv-x="1007" d="M51 991h62l393 -981l387 981h63l-411 -1030l-84 -248q-38 -106 -103 -142t-184 -34h-24v51h24q100 6 132 18q61 21 94 99q8 21 16 47l61 195zM453 1186l127 227h63l-133 -227h-57z" />
<glyph unicode="&#xfe;" horiz-adv-x="1169" d="M174 -410v1864h59v-547q84 58 172.5 83.5t159.5 25.5q88 0 173.5 -32.5t157 -93t115.5 -159t44 -219.5q0 -129 -34.5 -228.5t-85 -155.5t-117.5 -92t-123.5 -47.5t-112.5 -11.5q-86 0 -190 43t-159 107v-537h-59zM233 182q48 -55 160.5 -101t188.5 -46q33 0 67.5 5 t76 19.5t79 37t73.5 60t61.5 85.5t41.5 117.5t16 152.5q0 86 -25.5 160t-68 125.5t-98.5 88.5t-117 54.5t-123 17.5q-70 0 -162.5 -27.5t-169.5 -80.5v-668z" />
<glyph unicode="&#xff;" horiz-adv-x="1007" d="M51 991h62l393 -981l387 981h63l-411 -1030l-84 -248q-38 -106 -103 -142t-184 -34h-24v51h24q100 6 132 18q61 21 94 99q8 21 16 47l61 195zM352 1298q0 43 45 43q47 0 47 -43q0 -41 -47 -41q-45 0 -45 41zM569 1298q0 43 45 43q48 0 48 -43q0 -41 -48 -41q-45 0 -45 41 z" />
<glyph unicode="&#x152;" horiz-adv-x="2381" d="M127 700q0 154 41 280t109 209t159 139.5t187.5 81t199.5 24.5q98 0 192 -24t181 -72t157.5 -129.5t112.5 -188.5v393h793v-57h-735v-611h686v-57h-686v-452q3 -98 52 -137.5t161 -41.5h522v-57h-524q-142 3 -204 54t-65 179v154q-77 -195 -245 -302.5t-400 -107.5 q-316 2 -505 197.5t-189 525.5zM182 700q0 -195 79.5 -347t225 -237t334.5 -85q282 0 459 177t186 462v30q0 138 -37.5 252.5t-100.5 192.5t-147 132t-174 78.5t-184 24.5t-184 -24.5t-173.5 -78.5t-146 -132t-100 -192.5t-37.5 -252.5z" />
<glyph unicode="&#x153;" horiz-adv-x="2078" d="M115 496q0 130 39.5 231t109.5 163t160 93t197 31q173 0 300.5 -81t176.5 -241q50 153 168.5 238.5t263.5 85.5q211 0 332 -144.5t123 -394.5h-857q6 -222 122 -334t298 -112q178 2 348 45v-53q-185 -44 -348 -46q-166 0 -285 79t-165 239q-51 -157 -178.5 -237.5 t-298.5 -80.5q-107 0 -197 31.5t-160 93t-109.5 163t-39.5 231.5zM172 496q0 -116 35 -207t97 -147.5t142 -85.5t175 -29t175 29t141.5 85.5t96.5 147.5t35 207t-35 207t-96.5 147.5t-141.5 85.5t-175 29t-175 -29t-142 -85.5t-97 -147.5t-35 -207zM1128 526h797 q-11 203 -115 317.5t-280 114.5q-162 0 -279 -116t-123 -316z" />
<glyph unicode="&#x178;" horiz-adv-x="1071" d="M45 1413h66l426 -735l419 735h66l-457 -799v-614h-57v612zM379 1726q0 43 45 43q47 0 47 -43q0 -40 -47 -40q-45 0 -45 40zM596 1726q0 43 45 43q47 0 47 -43q0 -40 -47 -40q-45 0 -45 40z" />
<glyph unicode="&#x2c6;" horiz-adv-x="870" d="M205 1186l192 227h76l193 -227h-60l-172 190l-170 -190h-59z" />
<glyph unicode="&#x2dc;" horiz-adv-x="776" d="M164 1239q13 119 141 119q27 0 61.5 -14.5t61 -28t53 -21t45.5 8t29 57.5h57q-20 -119 -110 -119q-45 0 -113 35q-70 31 -84 31q-37 0 -59 -18t-27 -50h-55z" />
<glyph unicode="&#x2000;" horiz-adv-x="941" />
<glyph unicode="&#x2001;" horiz-adv-x="1882" />
<glyph unicode="&#x2002;" horiz-adv-x="941" />
<glyph unicode="&#x2003;" horiz-adv-x="1882" />
<glyph unicode="&#x2004;" horiz-adv-x="627" />
<glyph unicode="&#x2005;" horiz-adv-x="470" />
<glyph unicode="&#x2006;" horiz-adv-x="313" />
<glyph unicode="&#x2007;" horiz-adv-x="313" />
<glyph unicode="&#x2008;" horiz-adv-x="235" />
<glyph unicode="&#x2009;" horiz-adv-x="376" />
<glyph unicode="&#x200a;" horiz-adv-x="104" />
<glyph unicode="&#x2010;" horiz-adv-x="917" d="M152 557v53h614v-53h-614z" />
<glyph unicode="&#x2011;" horiz-adv-x="917" d="M152 557v53h614v-53h-614z" />
<glyph unicode="&#x2012;" horiz-adv-x="917" d="M152 557v53h614v-53h-614z" />
<glyph unicode="&#x2013;" horiz-adv-x="1228" d="M152 520v55h925v-55h-925z" />
<glyph unicode="&#x2014;" horiz-adv-x="1722" d="M152 520v55h1419v-55h-1419z" />
<glyph unicode="&#x2018;" horiz-adv-x="368" d="M123 1110l102 324h41l-92 -324h-51z" />
<glyph unicode="&#x2019;" horiz-adv-x="366" d="M125 1110l92 324h51l-102 -324h-41z" />
<glyph unicode="&#x201a;" horiz-adv-x="370" d="M84 -168l92 324h51l-102 -324h-41z" />
<glyph unicode="&#x201c;" horiz-adv-x="499" d="M123 1110l102 324h41l-92 -324h-51zM254 1110l96 324h47l-92 -324h-51z" />
<glyph unicode="&#x201d;" horiz-adv-x="497" d="M125 1110l92 324h51l-98 -324h-45zM252 1110l96 324h51l-102 -324h-45z" />
<glyph unicode="&#x201e;" horiz-adv-x="501" d="M84 -168l92 324h51l-98 -324h-45zM211 -168l96 324h51l-102 -324h-45z" />
<glyph unicode="&#x2022;" horiz-adv-x="763" d="M156 549q0 111 49 173t178 62q67 0 113 -17.5t69.5 -51.5t33 -73.5t9.5 -92.5q0 -110 -50.5 -173t-174.5 -63q-65 0 -111 18t-70.5 51.5t-35 74t-10.5 92.5z" />
<glyph unicode="&#x2026;" horiz-adv-x="1110" d="M125 25q0 49 47 49q49 0 49 -49q0 -48 -49 -48q-47 0 -47 48zM508 25q0 49 47 49q49 0 49 -49q0 -48 -49 -48q-47 0 -47 48zM891 25q0 49 47 49q49 0 49 -49q0 -48 -49 -48q-47 0 -47 48z" />
<glyph unicode="&#x202f;" horiz-adv-x="376" />
<glyph unicode="&#x2039;" horiz-adv-x="548" d="M111 506l243 364h70l-244 -364l244 -365h-70z" />
<glyph unicode="&#x203a;" horiz-adv-x="548" d="M125 141q191 285 244 365l-244 364h70l243 -364l-243 -365h-70z" />
<glyph unicode="&#x205f;" horiz-adv-x="470" />
<glyph unicode="&#x20ac;" horiz-adv-x="1320" d="M100 573v56h185q-2 16 -2 53q0 55 2 82h-185v55h189q34 287 214.5 451t457.5 164q49 0 83 -3t75.5 -10t62.5 -10v-59q-132 24 -221 24q-250 0 -414.5 -148t-198.5 -409h656v-55h-662q-2 -27 -2 -82q0 -37 2 -53h662v-56h-658q32 -253 186.5 -396.5t428.5 -143.5 q113 0 221 24v-57q-21 -3 -62.5 -10t-75.5 -10t-83 -3q-303 0 -471.5 158t-200.5 438h-189z" />
<glyph unicode="&#x2122;" horiz-adv-x="1726" d="M160 1102v43h653l295 -625q37 78 141 293.5t158 331.5h59l70 -739h-49l-66 657l-286 -596h-54l-286 598l-64 -659h-49l68 696h-293v-696h-49v696h-248z" />
<glyph unicode="&#xe000;" horiz-adv-x="993" d="M0 0v993h993v-993h-993z" />
</font>
</defs>
</svg>
