<?xml version="1.0" standalone="no"?>
<!DOCTYPE svg PUBLIC "-//W3C//DTD SVG 1.1//EN" "http://www.w3.org/Graphics/SVG/1.1/DTD/svg11.dtd" >
<svg xmlns="http://www.w3.org/2000/svg">
<metadata></metadata>
<defs>
<font id="kyrial_display_proSBdIt" horiz-adv-x="1640" >
<font-face units-per-em="2048" ascent="1536" descent="-512" />
<missing-glyph horiz-adv-x="450" />
<glyph unicode="&#xfb01;" horiz-adv-x="1302" d="M-137 -410l28 187h138q93 0 127.5 28t46.5 107l143 897h-166l29 182h166l24 154q14 88 51 150t75.5 92.5t102 46.5t100 18t99.5 2h168l-28 -186h-156q-93 0 -126.5 -28t-45.5 -107l-25 -142h701l-156 -991h-241l126 809h-458l-146 -909q-8 -50 -23 -92t-33 -72t-44 -53.5 t-48.5 -39t-56 -26t-56.5 -16t-58.5 -8t-54.5 -3t-52 -0.5h-151zM1102 1298q10 64 46.5 100t115.5 36q78 0 102 -35.5t14 -100.5q-22 -135 -159 -135q-74 0 -101.5 37.5t-17.5 97.5z" />
<glyph unicode="&#xfb02;" horiz-adv-x="1402" d="M-137 -410l28 187h138q93 0 127.5 28t46.5 107l143 897h-166l29 182h166l24 154q14 88 51 150t75.5 92.5t102 46.5t100 18t99.5 2h316h243l-182 -1147q-6 -24 -4 -45t11.5 -37t41.5 -25.5t86 -9.5h64l-33 -202h-98q-194 0 -268.5 64.5t-47.5 232.5l158 983h-303 q-93 0 -126.5 -28t-45.5 -107l-25 -142h267l-29 -182h-266l-146 -909q-8 -50 -23 -92t-33 -72t-44 -53.5t-48.5 -39t-56 -26t-56.5 -16t-58.5 -8t-54.5 -3t-52 -0.5h-151z" />
<glyph unicode="&#xfb03;" horiz-adv-x="2076" d="M-137 -410l28 187h138q93 0 127.5 28t46.5 107l143 897h-166l29 182h166l24 154q14 88 51 150t75.5 92.5t102 46.5t100 18t99.5 2h168l-28 -186h-156q-93 0 -126.5 -28t-45.5 -107l-25 -142h535l25 154q14 88 51 150t75.5 92.5t102 46.5t100 18t99.5 2h167l-28 -186h-156 q-93 0 -126.5 -28t-45.5 -107l-24 -142h700l-156 -991h-241l127 809h-459l-146 -909q-8 -50 -23 -92t-33 -72t-44 -53.5t-48.5 -39t-56 -26t-56.5 -16t-59 -8t-55 -3t-53 -0.5h-153l29 187h141q93 0 127.5 28t46.5 107l143 897h-534l-146 -909q-8 -50 -23 -92t-33 -72 t-44 -53.5t-48.5 -39t-56 -26t-56.5 -16t-58.5 -8t-54.5 -3t-52 -0.5h-151zM1876 1298q10 64 46.5 100t115.5 36q78 0 102 -35.5t14 -100.5q-22 -135 -159 -135q-74 0 -101.5 37.5t-17.5 97.5z" />
<glyph unicode="&#xfb04;" horiz-adv-x="2177" d="M-137 -410l28 187h138q89 0 124.5 26.5t47.5 96.5l145 909h-166l29 182h166l24 154q14 88 51 150t75.5 92.5t102 46.5t100 18t99.5 2h168l-28 -186h-156q-93 0 -126.5 -28t-45.5 -107l-25 -142h535l25 154q14 88 51 150t75.5 92.5t102 46.5t100 18t99.5 2h559l-183 -1147 q-6 -24 -4 -45t12 -37t42 -25.5t86 -9.5h63l-33 -202h-98q-194 0 -268 64.5t-47 232.5l157 983h-303q-93 0 -126.5 -28t-45.5 -107l-24 -142h266l-29 -182h-266l-146 -909q-8 -50 -23 -92t-33 -72t-44 -53.5t-48.5 -39t-56 -26t-56.5 -16t-59 -8t-55 -3t-53 -0.5h-153 l29 187h141q89 0 124.5 26.5t47.5 96.5l145 909h-534l-146 -909q-8 -50 -23 -92t-33 -72t-44 -53.5t-48.5 -39t-56 -26t-56.5 -16t-58.5 -8t-54.5 -3t-52 -0.5h-151z" />
<glyph horiz-adv-x="2048" />
<glyph horiz-adv-x="2048" />
<glyph unicode="&#xd;" horiz-adv-x="2048" />
<glyph unicode=" "  horiz-adv-x="450" />
<glyph unicode="&#x09;" horiz-adv-x="450" />
<glyph unicode="&#xa0;" horiz-adv-x="450" />
<glyph unicode="!" horiz-adv-x="538" d="M137 117q10 67 47 103t121 36q86 0 112.5 -36t16.5 -103q-21 -137 -172 -137q-81 0 -108 36t-17 101zM227 371l144 1040h243l-192 -1040h-195z" />
<glyph unicode="&#x22;" horiz-adv-x="819" d="M281 819l55 592h246l-131 -592h-170zM631 819l55 592h246l-131 -592h-170z" />
<glyph unicode="#" horiz-adv-x="1507" d="M141 358l80 201h225l101 256h-223l77 201h228l151 395h224l-158 -395h248l153 395h221l-155 -395h270l-78 -201h-268l-102 -256h268l-78 -201h-272l-140 -358h-225l143 358h-243l-139 -358h-224l142 358h-226zM670 559h239l103 256h-244z" />
<glyph unicode="$" horiz-adv-x="1204" d="M137 80l35 227q88 -44 204.5 -81.5t223.5 -37.5q132 0 214.5 45t105.5 152q6 28 -1 52t-30 45t-48 37.5t-70 35.5t-79.5 31.5t-91.5 31.5q-62 19 -78 29q-83 30 -139.5 79t-79.5 91t-32.5 95.5t-8.5 71.5t4 41v3q25 162 149.5 266t332.5 131l36 205h168l-34 -198 q86 -4 188.5 -33t157.5 -56l-33 -213q-127 48 -210 69.5t-171 21.5q-151 0 -234.5 -57t-99.5 -146q-2 -8 -2.5 -18.5t3.5 -30t15 -37.5t37 -37t64 -31l76 -26q54 -19 87 -30.5t80 -30t75.5 -32.5t65 -34.5t57.5 -39.5t44.5 -44t34.5 -52t19.5 -59t7 -69.5t-10.5 -79.5 q-29 -126 -100 -209.5t-164 -122.5t-217 -51l-37 -224h-168l35 220q-167 11 -381 100z" />
<glyph unicode="%" horiz-adv-x="1669" d="M174 0l1352 1411h180l-1352 -1411h-180zM261.5 945q-12.5 57 0.5 132q15 90 58 160t101 109.5t121 59t126 17.5q53 0 99.5 -10t90 -34t70 -63.5t39.5 -97.5t-2 -137q-27 -168 -138 -257t-270 -89q-50 -1 -96.5 10t-89 36.5t-70 66t-40 97.5zM471 1083q-13 -85 17 -132.5 t98 -47.5q64 0 107.5 47t56.5 133q12 80 -16 126t-91 46q-67 0 -113.5 -47t-58.5 -125zM927.5 196q-12.5 57 0.5 132q15 90 57.5 160t100.5 109.5t121 59t126 17.5q67 0 123 -17t102 -54.5t65.5 -106.5t4.5 -164q-27 -168 -136.5 -257t-268.5 -89q-50 -1 -96.5 10t-89 36.5 t-70 66t-40 97.5zM1137 334q-14 -85 14.5 -132.5t95.5 -47.5q64 0 109.5 47.5t58.5 132.5q12 80 -17.5 126t-92.5 46q-67 0 -111.5 -46.5t-56.5 -125.5z" />
<glyph unicode="&#x26;" horiz-adv-x="1320" d="M197 377q50 248 223 342q-44 20 -72.5 57.5t-38.5 75t-13 75.5t-1 59t4 26q35 188 181.5 300.5t383.5 112.5q220 0 326 -53l-33 -205q-92 30 -165 42t-165 12q-120 0 -198.5 -66.5t-91.5 -155.5q-1 -5 -1.5 -14t3 -33.5t13.5 -45.5t35 -43.5t62 -33.5h764l-31 -198h-196 l-82 -502q-76 -50 -227 -99.5t-242 -49.5q-240 0 -351.5 106t-86.5 291zM440 387q-11 -88 45.5 -144.5t178.5 -56.5q120 0 213 50l65 395h-242q-48 0 -88.5 -13.5t-66.5 -35t-46.5 -47.5t-31 -52t-17 -47.5t-8.5 -35.5z" />
<glyph unicode="'" horiz-adv-x="468" d="M281 819l55 592h246l-131 -592h-170z" />
<glyph unicode="(" horiz-adv-x="724" d="M164 498q68 425 263.5 669t455.5 244l-27 -176q-54 -1 -107 -27t-106.5 -84t-99 -142.5t-85 -210t-63.5 -277.5q-28 -195 -23.5 -333.5t41 -227t89 -129.5t119.5 -42l-31 -180q-259 0 -376.5 246.5t-49.5 669.5z" />
<glyph unicode=")" horiz-adv-x="724" d="M0 -418l27 180q53 1 105.5 26.5t105.5 82.5t98.5 140.5t84 207.5t62.5 275q29 197 25 337t-40 229.5t-88 131.5t-118 43l27 176q260 0 377 -244t49 -669q-68 -423 -263.5 -669.5t-451.5 -246.5z" />
<glyph unicode="*" horiz-adv-x="976" d="M248 915l33 205l235 -24l-104 204l192 101l68 -232l143 236l154 -102l-168 -207l252 24l-33 -205l-242 23l101 -205l-189 -102l-65 241l-146 -239l-155 100l170 205z" />
<glyph unicode="+" horiz-adv-x="1118" d="M162 453l35 213h352l55 350h230l-56 -350h352l-34 -213h-353l-55 -353h-229l55 353h-352z" />
<glyph unicode="," horiz-adv-x="538" d="M-33 -225l244 458h258l-301 -458h-201z" />
<glyph unicode="-" horiz-adv-x="946" d="M193 428l32 205h697l-33 -205h-696z" />
<glyph unicode="." horiz-adv-x="509" d="M123 117q10 67 47 103t121 36q86 0 112.5 -36t16.5 -103q-21 -137 -172 -137q-81 0 -108 36t-17 101z" />
<glyph unicode="/" horiz-adv-x="933" d="M70 0l798 1411h222l-797 -1411h-223z" />
<glyph unicode="0" horiz-adv-x="1296" d="M219 690q24 151 76 274.5t117.5 204t145 135.5t158 79t156.5 24q80 0 150.5 -24.5t133 -77.5t100 -137t51.5 -203t-13 -275q-52 -325 -229 -517.5t-422 -192.5t-360.5 192.5t-63.5 517.5zM465 690q-37 -222 24 -364t189 -142q127 0 233.5 142.5t143.5 363.5 q20 135 10 232t-46 160t-82 92.5t-99 29.5q-51 0 -105.5 -30.5t-107.5 -90.5t-96 -162t-64 -231z" />
<glyph unicode="1" horiz-adv-x="929" d="M115 0l32 205h259l149 938l-276 -115l34 211l334 147h191l-187 -1181h258l-32 -205h-762z" />
<glyph unicode="2" horiz-adv-x="1150" d="M86 0l23 156l596 508q34 27 63 54t51 49.5t40.5 46t31 40.5t23 37.5t16.5 32.5t11.5 29t7 24t4.5 20.5t3 14.5q10 85 -48.5 139.5t-182.5 54.5q-184 0 -412 -125l33 215q215 115 408 115q240 0 355.5 -107.5t86.5 -281.5q-4 -21 -8 -37t-26.5 -67.5t-54.5 -100 t-97 -122.5t-150 -148l-401 -342h610l-33 -205h-950z" />
<glyph unicode="3" horiz-adv-x="1157" d="M113 61l32 205q201 -80 418 -80q123 0 195 57t88 146q2 12 2.5 29t-4 47t-16 55t-38.5 48t-67 32h-295l31 197h293q49 11 86.5 36.5t56.5 53.5t31 54t15 43l3 17q11 87 -43.5 146t-175.5 59q-97 0 -190.5 -18.5t-217.5 -61.5l33 205q69 26 192 53t212 27 q240 0 353 -106.5t89 -292.5q-19 -75 -44 -124q-71 -137 -206 -192q50 -22 83.5 -63t46.5 -81t17.5 -81.5t3.5 -63t-3 -28.5q-36 -186 -183 -292.5t-387 -106.5q-92 0 -224.5 27.5t-186.5 53.5z" />
<glyph unicode="4" horiz-adv-x="1226" d="M104 319l23 156l809 936h235l-139 -889h203l-33 -203h-203l-51 -319h-241l51 319h-654zM408 522h383l83 543z" />
<glyph unicode="5" horiz-adv-x="1198" d="M113 61l57 207q105 -41 223 -61.5t219 -20.5q125 0 211.5 71.5t104.5 178.5q2 12 3 21t2 31t-3 39.5t-10.5 40t-22.5 39.5t-38 32.5t-57 24t-79 8.5h-473l180 739h823l-32 -205h-598l-80 -323h227q89 0 159.5 -17t116.5 -47.5t77.5 -72.5t44 -93t15.5 -108.5t-9 -118.5 q-24 -121 -103 -221.5t-210 -162.5t-288 -62q-91 0 -249 28.5t-211 52.5z" />
<glyph unicode="6" horiz-adv-x="1261" d="M201 561q68 422 261.5 636t495.5 214q149 0 330 -61l-33 -195q-64 28 -148 43.5t-149 15.5q-182 0 -305.5 -123.5t-181.5 -334.5q48 57 123 94.5t134 50t108 12.5q117 0 204.5 -38.5t135 -103.5t64.5 -145t3 -169q-36 -217 -194 -347t-402 -130q-253 0 -372.5 147.5 t-73.5 433.5zM434 457q-20 -122 41 -197.5t203 -75.5q121 0 213.5 68t114.5 205q18 111 -44.5 180.5t-193.5 69.5q-138 0 -226.5 -65t-107.5 -185z" />
<glyph unicode="7" horiz-adv-x="1081" d="M90 0l856 1204h-670l35 207h953l-29 -180l-879 -1231h-266z" />
<glyph unicode="8" horiz-adv-x="1269" d="M174 379q42 210 172 298q38 25 82 38q-44 20 -72.5 59.5t-38.5 78t-12 81t0 62.5t4 30q33 174 172.5 277t366.5 104h24q224 0 330.5 -103.5t85.5 -277.5q-36 -182 -149 -270q-34 -26 -72 -41q53 -17 88 -58t47 -83.5t15 -90t1 -71t-4 -33.5q-36 -184 -185 -291.5 t-386 -107.5h-25q-237 0 -352.5 107.5t-91.5 291.5zM426 397q-14 -87 40.5 -147.5t170.5 -63.5h53q115 0 188.5 61t92.5 150q1 5 1.5 12.5t-0.5 30.5t-6.5 43.5t-19.5 46t-35 43.5t-58.5 30.5t-86.5 12.5h-74q-64 0 -115 -22.5t-78 -55t-45 -64.5t-23 -54zM545.5 1004.5 q-0.5 -7.5 0.5 -29.5t5.5 -41.5t16.5 -44t30.5 -41.5t50.5 -29t74 -12h82q58 0 104 21.5t71 52.5t41 61.5t21 51.5l5 22q8 81 -39.5 135.5t-155.5 54.5h-49q-110 0 -175.5 -55t-80.5 -135q-1 -4 -1.5 -11.5z" />
<glyph unicode="9" horiz-adv-x="1259" d="M190 41l31 195q64 -28 149 -44t150 -16q182 0 305 124t181 335q-70 -84 -170 -121t-195 -37q-79 0 -145 18t-112 49.5t-80.5 74.5t-50.5 94t-22 107t5 114q34 217 191.5 347t401.5 130q253 0 373.5 -147.5t75.5 -434.5q-67 -421 -262 -635t-498 -214q-150 0 -328 61z M473 934q-18 -111 43.5 -180.5t192.5 -69.5q138 0 227 65t108 185q20 122 -40.5 197t-202.5 75q-121 0 -213.5 -67.5t-114.5 -204.5z" />
<glyph unicode=":" horiz-adv-x="546" d="M141 117q10 67 47 103t121 36q86 0 112.5 -36t16.5 -103q-21 -137 -172 -137q-81 0 -108 36t-17 101zM262 877q10 67 47.5 103t122.5 36q86 0 111.5 -35.5t15.5 -103.5q-21 -138 -172 -138q-81 0 -108 36.5t-17 101.5z" />
<glyph unicode=";" horiz-adv-x="591" d="M-20 -225h200l301 458h-258zM299 852q10 67 47 103t121 36q86 0 112.5 -36t16.5 -103q-21 -137 -172 -137q-81 0 -108 36t-17 101z" />
<glyph unicode="&#x3c;" horiz-adv-x="1282" d="M160 444l33 213l1122 385l-39 -235l-795 -258l713 -254l-37 -234z" />
<glyph unicode="=" horiz-adv-x="1214" d="M180 268l33 213h932l-33 -213h-932zM250 686l33 213h931l-32 -213h-932z" />
<glyph unicode="&#x3e;" horiz-adv-x="1282" d="M141 61l37 234l793 254q-72 26 -324.5 118.5t-386.5 139.5l39 235l997 -385l-34 -213z" />
<glyph unicode="?" horiz-adv-x="1024" d="M240 117q10 67 47 103t121 36q86 0 112.5 -36t16.5 -103q-21 -137 -172 -137q-81 0 -108 36t-17 101zM289 1118l14 201q83 52 162.5 74.5t169.5 29.5q232 13 362 -99t101 -296q-43 -286 -342 -407q-189 -76 -217 -273h-230q17 163 118 285t263 192q47 21 82 51.5 t51.5 60.5t24 51t8.5 36q14 91 -49 142t-189 51q-76 0 -153.5 -25.5t-175.5 -73.5z" />
<glyph unicode="@" horiz-adv-x="2185" d="M165.5 293.5q-4.5 102.5 10.5 212.5q24 150 99 291.5t187.5 255t251 199.5t299.5 133t322 47q100 0 190.5 -12.5t164.5 -35.5t139.5 -55t115.5 -71.5t93 -85t71 -95t49.5 -102t29.5 -106t10.5 -106.5t-7.5 -104q-17 -107 -52.5 -199t-80.5 -159.5t-101.5 -121.5 t-115 -88.5t-122 -58t-121 -33t-113.5 -9.5q-110 0 -176 53t-66 119q-33 -41 -119 -76t-163 -35q-40 0 -82.5 9t-89.5 28.5t-82.5 55.5t-58 85t-18.5 123.5t38 163.5q40 103 111 190t152 142t164 85t154 30q130 0 201 -74l43 74h231l-204 -547q-92 -246 20 -246 q41 0 91.5 13t111.5 47t113 85t95 136t60 190q20 119 -11.5 222t-100.5 176t-165 125.5t-204.5 78t-220.5 25.5q-159 0 -319 -61t-287 -163.5t-217 -243.5t-115 -294q-36 -222 45 -396.5t261.5 -272t430.5 -97.5q453 0 825 258l-28 -178q-149 -116 -381 -183t-457 -67 q-136 0 -257 25t-216.5 71.5t-174.5 111.5t-130.5 145.5t-85 174t-38 196zM900 377q12 -53 49.5 -79t88.5 -26q98 0 181 52l139 387q-57 39 -129 39q-95 0 -175 -70t-128 -170q-38 -80 -26 -133z" />
<glyph unicode="A" horiz-adv-x="1335" d="M39 0q193 428 351.5 742t377.5 669h246q107 -354 165.5 -666t116.5 -745h-245q-10 77 -29.5 218t-26.5 194h-526l-184 -412h-246zM561 604h402q-34 208 -115 541q-136 -238 -287 -541z" />
<glyph unicode="B" horiz-adv-x="1325" d="M180 0l223 1411h603q41 0 84.5 -9.5t91 -37t81.5 -68.5t50 -111q9 -37 8 -80q0 -37 -6 -79q-13 -85 -62 -164t-133 -133q86 -41 134 -125q33 -59 34 -138q0 -33 -6 -69q-33 -202 -170 -299.5t-352 -97.5h-580zM459 209h332q90 0 155 51.5t82 147.5q4 26 4 48q0 29 -7 54 q-13 43 -42 65t-61 31.5t-68 9.5h-332zM557 815h299q81 0 136.5 58t66.5 137q3 20 3 39q0 63 -36 102q-48 51 -121 51h-287z" />
<glyph unicode="C" horiz-adv-x="1331" d="M210 444q-10 55 -10 117q0 67 11 141q22 137 80.5 256t139.5 205t179 148t202.5 92.5t207.5 30.5q129 0 248.5 -17t187.5 -37l-33 -200q-208 43 -387 43q-140 0 -261 -62t-205 -181.5t-109 -277.5q-8 -51 -8 -98q0 -62 14 -119q25 -99 83.5 -163t141.5 -99t180 -35 q58 0 84.5 1t105 9.5t210.5 28.5l-35 -198q-213 -52 -449 -52q-103 0 -198 30t-174 88.5t-132.5 146t-73.5 202.5z" />
<glyph unicode="D" horiz-adv-x="1431" d="M180 0l223 1411h488q104 0 195.5 -28.5t166.5 -86t124 -142.5t67 -198q8 -49 7 -103q0 -71 -13 -151q-28 -172 -104 -309t-182 -221t-229.5 -128t-254.5 -44h-488zM459 209h153q240 0 384 124.5t184 368.5q11 70 11 130q0 370 -419 370h-154z" />
<glyph unicode="E" horiz-adv-x="1187" d="M217 287l180 1124h899l-32 -209h-652l-59 -371h606l-33 -208h-606l-53 -326q-2 -12 -2 -22q0 -66 86 -66h555l-33 -209h-567q-176 4 -243 68q-51 48 -51 150q0 32 5 69z" />
<glyph unicode="F" horiz-adv-x="1083" d="M180 0l223 1411h826l-33 -209h-580l-59 -371h535l-35 -208h-535l-96 -623h-246z" />
<glyph unicode="G" horiz-adv-x="1472" d="M210 444q-10 55 -10 117q0 67 11 141q28 171 111.5 311.5t202 231t262 140t294.5 49.5q208 0 418 -62l-33 -198q-188 30 -244 36.5t-124 6.5q-245 0 -419 -138.5t-212 -376.5q-8 -52 -8 -99q0 -62 13 -117q25 -98 82.5 -160.5t139.5 -96.5t178 -34q136 0 263 32l51 318 h-352l32 207h600l-108 -668q-142 -62 -277.5 -84.5t-294.5 -22.5q-103 0 -197 30t-173 88.5t-132.5 146t-73.5 202.5z" />
<glyph unicode="H" horiz-adv-x="1472" d="M180 0l223 1411h248l-92 -573h617l92 573h248l-224 -1411h-248l99 629h-617l-98 -629h-248z" />
<glyph unicode="I" horiz-adv-x="608" d="M180 0l223 1411h248l-223 -1411h-248z" />
<glyph unicode="J" horiz-adv-x="647" d="M-309 -403l30 198q129 -12 216 -12q60 0 105.5 14.5t85.5 50.5t68 103t44 166l204 1294h246l-211 -1333q-20 -121 -66 -212.5t-102 -144.5t-128.5 -86t-137 -44t-135.5 -11q-74 0 -219 17z" />
<glyph unicode="K" horiz-adv-x="1249" d="M180 0l223 1411h248l-90 -559q254 212 578 559h280q-354 -398 -751 -733q309 -261 589 -678h-311q-208 302 -440 508l-78 -508h-248z" />
<glyph unicode="L" horiz-adv-x="1128" d="M217 287l180 1124h248l-174 -1096q-3 -15 -3 -27q0 -79 103 -79h551l-32 -209h-584q-176 4 -243 68q-51 48 -51 150q0 32 5 69z" />
<glyph unicode="M" horiz-adv-x="1912" d="M133 0l334 1411h268q173 -425 289 -969q279 517 600 969h268l-112 -1411h-240l82 1028q-47 -65 -97 -142t-85 -134t-91.5 -155.5t-80 -140t-88 -159t-80.5 -145.5h-246q-3 12 -20 88t-21 94t-20 86.5t-22.5 93t-22 85.5t-24.5 92t-24 83.5t-27.5 89t-27.5 80.5t-31 84 l-241 -1028h-240z" />
<glyph unicode="N" horiz-adv-x="1458" d="M180 0l223 1411h246q124 -197 249.5 -457.5t201.5 -504.5l153 962h248l-223 -1411h-248q-202 586 -438 1026l-164 -1026h-248z" />
<glyph unicode="O" d="M213 700q24 153 86.5 279t146 209t186.5 139.5t206.5 81.5t208.5 25q106 0 202 -25.5t182 -80.5t141 -141q56 -86 80 -207q12 -58 12 -124q0 -73 -15 -156q-35 -217 -150.5 -381t-293 -253t-392.5 -89q-323 3 -487 199q-125 149 -125 374q0 71 12 150zM459 700 q-9 -58 -9 -111q0 -155 79 -263q106 -144 315 -144q214 0 369 144.5t190 373.5q10 61 10 115q0 65 -14 123q-25 104 -83.5 166t-135 93.5t-164.5 31.5q-69 0 -138.5 -19t-138 -61t-124.5 -102.5t-97.5 -150t-58.5 -196.5z" />
<glyph unicode="P" horiz-adv-x="1253" d="M180 0l223 1411h598q65 0 130.5 -27t119 -76.5t79.5 -131.5q17 -51 17 -110q0 -35 -6 -73q-17 -106 -59.5 -188t-94 -128.5t-115 -75.5t-114.5 -38.5t-100 -9.5h-342l-88 -553h-248zM549 762h344q24 0 51.5 11t59 35t57.5 72t37 113q3 23 3 43q1 62 -31 106 q-42 58 -101 58h-351z" />
<glyph unicode="Q" d="M213 700q24 153 86.5 279t146 209t186.5 139.5t206.5 81.5t208.5 25q106 0 202 -25.5t182 -80.5t141 -141t80 -207q11 -58 11 -124q0 -73 -14 -156q-47 -293 -238 -483.5t-471 -228.5q16 -99 139 -99q66 0 157.5 17.5t158.5 44.5l-29 -199q-65 -27 -151 -42t-158 -15 q-181 0 -277 68q-90 64 -90 207v18q-266 38 -394 230q-95 141 -95 335q0 70 12 147zM459 700q-9 -56 -9 -108q0 -87 25 -162q39 -119 135 -186.5t234 -67.5q213 0 368 147.5t191 376.5q10 61 10 116q0 65 -14 122q-25 106 -83.5 169t-135 95.5t-164.5 32.5q-69 0 -139 -20 t-138 -62.5t-124 -104t-97.5 -151.5t-58.5 -197z" />
<glyph unicode="R" horiz-adv-x="1316" d="M180 0l223 1411h570q188 -1 292 -109q80 -83 80 -220q0 -42 -8 -89q-56 -342 -374 -420q82 -112 164 -274t135 -299h-279q-69 175 -215 438q-41 73 -63.5 97t-57.5 24h-133l-88 -559h-246zM547 762h336q170 0 209 231q4 24 4 46q0 65 -34 106q-46 55 -140 55h-306z" />
<glyph unicode="S" horiz-adv-x="1206" d="M139 80l35 227q88 -44 204.5 -81.5t223.5 -37.5q132 0 214.5 45t105.5 152q6 28 -1 52t-30 45t-48 37.5t-70 35.5t-79.5 31.5t-91.5 31.5q-25 8 -78 29q-82 31 -138.5 80t-80 91t-33.5 95q-9 48 -8 68q0 14 4 44v3q0 82 40 154.5t115.5 129t195.5 89.5t270 33 q90 0 203.5 -31t173.5 -60l-33 -213q-127 48 -210 69.5t-171 21.5q-151 0 -234.5 -57t-99.5 -146q-2 -8 -2 -18.5t3.5 -30t15 -37.5t37.5 -37t65 -31l74 -26q58 -19 97 -32.5t88 -33t81 -36.5t68.5 -40.5t58 -47t41.5 -54t28 -64.5q8 -36 8 -79q0 -39 -10 -84 q-27 -110 -82.5 -187.5t-136 -121t-173.5 -62.5t-210 -19q-181 0 -430 103z" />
<glyph unicode="T" horiz-adv-x="1181" d="M233 1202l33 209h1096l-33 -209h-424l-190 -1202h-248l190 1202h-424z" />
<glyph unicode="U" horiz-adv-x="1482" d="M244 430q0 74 14 158l131 823h246l-127 -786q-12 -70 -12 -129v-9q0 -53 6 -92q6 -42 22.5 -75.5t32 -54t41.5 -35.5t43.5 -22t45.5 -11t40 -4.5t34 -0.5h3h3h3h11q24 0 38.5 1t43.5 4.5t49.5 10.5t50 22t51 36t47 54t44.5 75t36 101t28 129l127 786h246l-131 -823 q-15 -94 -42.5 -174t-60.5 -138t-76 -105t-84.5 -77.5t-91 -53t-90 -34.5t-88 -19t-78 -8.5t-65.5 -1.5q-31 0 -57.5 1.5t-66 6t-72.5 14.5t-72 25t-69.5 40t-61 57t-49.5 78q-19 45 -31 101q-12 53 -13 124q1 3 1 6z" />
<glyph unicode="V" horiz-adv-x="1282" d="M256 1411h264l176 -1083l514 1083h263l-713 -1411h-238z" />
<glyph unicode="W" horiz-adv-x="2052" d="M264 1411h256l133 -1083q163 451 467 923h209q155 -498 172 -923l477 1083h256l-635 -1411h-288q-17 200 -26 292.5t-38.5 279.5t-72.5 356q-142 -246 -238 -459t-195 -469h-288z" />
<glyph unicode="X" horiz-adv-x="1230" d="M20 0l566 733l-307 678h284l199 -491l352 491h285l-527 -678l338 -733h-286l-224 547l-393 -547h-287z" />
<glyph unicode="Y" horiz-adv-x="1204" d="M238 1411h286l211 -580l393 580h283l-590 -805l-94 -606h-248l94 606z" />
<glyph unicode="Z" horiz-adv-x="1310" d="M76 0l26 176l977 1026h-772l33 209h1104l-29 -178l-983 -1024h811l-31 -209h-1136z" />
<glyph unicode="[" horiz-adv-x="681" d="M80 -410l291 1821h463l-29 -184h-219l-234 -1450h219l-28 -187h-463z" />
<glyph unicode="\" horiz-adv-x="933" d="M291 1411h221l352 -1411h-223z" />
<glyph unicode="]" horiz-adv-x="684" d="M8 -410l25 187h219l233 1450h-219l29 184h465l-291 -1821h-461z" />
<glyph unicode="_" horiz-adv-x="1548" d="M176 -254l33 201h1110l-33 -201h-1110z" />
<glyph unicode="`" horiz-adv-x="1005" d="M494 1454h239l90 -315h-184z" />
<glyph unicode="a" horiz-adv-x="1103" d="M121 305q16 103 89.5 177t172 107.5t209.5 33.5q95 0 182 -23l2 18q5 29 5 54q0 61 -29 102q-41 57 -121 57q-88 0 -167.5 -19.5t-184.5 -59.5l28 180q69 27 106 40t117 28.5t162 15.5t146 -22t112 -70q48 -49 66 -136q9 -43 9 -94q0 -52 -9 -112l-55 -334q-2 -13 -2 -24 q-1 -30 15 -44q22 -20 54.5 -14.5t73.5 24.5l-27 -170q-125 -43 -205 -43q-61 0 -105 37.5t-44 71.5q-49 -41 -132.5 -75t-150.5 -34q-323 0 -323 253q0 35 6 75zM358 297q-2 -12 -1 -24q1 -45 25 -77q32 -40 107 -40q51 0 122.5 25.5t103.5 56.5l35 198q-72 10 -132 10 q-238 0 -260 -149z" />
<glyph unicode="b" horiz-adv-x="1204" d="M143 0l230 1454h245l-81 -514q106 76 272 76q95 0 174 -35t133 -99t76 -164q11 -53 11 -111q0 -52 -9 -109q-26 -162 -110.5 -282.5t-199.5 -179.5t-243 -59q-71 0 -149 28.5t-107 70.5l-25 -76h-217zM422 221q94 -49 178 -49q73 0 136 29t105.5 76.5t70.5 103.5t38 115 q4 34 4 67q0 13 -1 26q-2 46 -20 88t-46 74t-74.5 51t-105.5 19q-77 0 -197 -51z" />
<glyph unicode="c" horiz-adv-x="989" d="M162 496q20 120 79 220.5t139.5 164.5t173.5 99.5t185 35.5q176 0 316 -37l-29 -180q-116 26 -246 30q-86 0 -153 -27.5t-109 -75.5t-66.5 -104.5t-35.5 -123.5q-7 -56 -6 -103q0 -46 16 -88q17 -43 46 -74.5t80.5 -50t121.5 -18.5q121 4 256 31l-29 -181 q-151 -37 -328 -37q-92 0 -173.5 35t-141.5 99q-58 65 -86 165q-17 61 -17 128q0 45 7 92z" />
<glyph unicode="d" horiz-adv-x="1261" d="M164 498q26 160 110.5 280t199.5 179t243 59q167 0 246 -76l81 514h246l-192 -1206q-2 -14 -2 -25q0 -29 15 -43q21 -20 54 -14.5t74 24.5l-29 -170q-118 -43 -202 -43q-61 0 -105.5 37.5t-46.5 71.5q-49 -49 -140 -79t-165 -30q-197 -1 -311 139q-85 105 -86 267 q0 54 10 115zM406 404q2 -46 21 -88t46.5 -74t74 -51t105.5 -19q87 0 195 49l88 549q-98 51 -176 51q-73 0 -136 -29t-106 -76.5t-71 -103.5t-39 -116q-2 -28 -3 -57q0 -17 1 -35z" />
<glyph unicode="e" horiz-adv-x="1130" d="M168 268q-11 51 -11 110.5t11 125.5q19 119 75 217t133.5 160.5t170 96.5t188.5 34q224 0 328 -141q75 -101 74 -256q0 -61 -11 -130l-16 -77h-713q-1 -15 -1 -29q0 -95 60 -151q68 -64 187 -64q184 0 383 61l-29 -174q-74 -28 -189 -51t-224 -23q-108 0 -192.5 31.5 t-143 94.5t-80.5 165zM426 575h477q1 16 1 31q0 88 -48 148q-58 70 -154 69.5t-174.5 -70t-101.5 -178.5z" />
<glyph unicode="f" horiz-adv-x="774" d="M-137 -410l28 187h138q93 0 127.5 28t46.5 107l-2 -12l145 909h-166l29 182h166l24 154q14 88 51 150t75.5 92.5t102 46.5t100 18t99.5 2h168l-28 -186h-156q-93 0 -126.5 -28t-45.5 -107l-25 -142h267l-29 -182h-266l-146 -909q-8 -50 -23 -92t-33 -72t-44 -53.5 t-48.5 -39t-56 -26t-56.5 -16t-58.5 -8t-54.5 -3t-52 -0.5h-151z" />
<glyph unicode="g" horiz-adv-x="1206" d="M166 498q26 160 110.5 280t199.5 179t243 59q71 0 149 -29t109 -72l24 76h218l-179 -1108q-13 -84 -61 -146.5t-120.5 -98t-156 -52t-180.5 -16.5q-161 0 -315 55l29 189q172 -60 296 -60q74 0 127 11.5t80.5 25.5t45 41t21.5 43t9 47l25 154q-44 -42 -130 -70.5 t-157 -28.5q-198 0 -311 139q-86 105 -86 267q0 54 10 115zM408 404q3 -46 21.5 -88t46 -74t74 -51t105.5 -19q87 0 195 49l88 549q-98 51 -176 51q-73 0 -136 -29t-106 -76.5t-71 -103.5t-39 -116q-2 -28 -2 -57v-35z" />
<glyph unicode="h" horiz-adv-x="1171" d="M143 0l230 1454h233l-84 -534q50 39 120.5 67.5t131.5 28.5q95 0 166.5 -22t122.5 -70t69 -130q9 -42 9 -92q0 -48 -8 -104l-95 -598h-254l84 537q10 65 10 115q0 65 -18 104q-32 69 -143 69q-43 0 -107 -20.5t-108 -54.5l-117 -750h-242z" />
<glyph unicode="i" horiz-adv-x="528" d="M143 0l156 991h242l-156 -991h-242zM328 1298q10 64 46 100t115 36t103 -36q17 -25 17 -65q0 -16 -3 -35q-22 -135 -160 -135q-74 -1 -101 37q-20 27 -20 67q0 15 3 31z" />
<glyph unicode="j" horiz-adv-x="526" d="M-158 -420l31 195h64q49 0 83.5 7.5t53 18t30 30t15 34t6.5 39.5l174 1087h240l-177 -1100q-27 -169 -129.5 -240t-293.5 -71h-97zM328 1298q10 65 45.5 100.5t113.5 35.5q79 0 104 -36q18 -26 18 -66q0 -16 -3 -34q-22 -135 -160 -135q-74 0 -101 37q-20 28 -20 67 q0 15 3 31z" />
<glyph unicode="k" horiz-adv-x="1011" d="M143 0l230 1454h241l-116 -735l288 272h295l-479 -430q113 -103 228 -261.5t180 -299.5h-277q-117 236 -289 387l-59 -387h-242z" />
<glyph unicode="l" horiz-adv-x="628" d="M182 285l187 1169h243l-182 -1147q-6 -24 -4 -45t11.5 -37t41.5 -25.5t86 -9.5h64l-33 -202h-98q-194 0 -268 64q-55 47 -55 151q0 37 7 82z" />
<glyph unicode="m" horiz-adv-x="1804" d="M143 0l156 991h219l2 -80q54 44 120.5 74.5t127.5 30.5q113 0 190.5 -25.5t120.5 -91.5q71 57 159 87t169 30q45 0 81 -3.5t75 -12t68.5 -24.5t57 -39.5t44.5 -59.5t27 -82q10 -42 10 -98v-11q-1 -62 -13 -137l-86 -549h-252l84 537q11 70 11 122q0 65 -17 105 q-31 70 -143 70q-54 0 -116 -31.5t-97 -73.5l-115 -729h-248l90 573q8 47 8 85q0 68 -24 110q-38 66 -139 66q-48 0 -108 -25t-103 -59l-117 -750h-242z" />
<glyph unicode="n" horiz-adv-x="1171" d="M143 0l156 991h217l6 -80q111 105 252 105q43 0 78 -3.5t73.5 -12t68.5 -24.5t58 -39.5t45.5 -59.5t28.5 -82q11 -44 10 -103v-6q0 -62 -12 -137l-86 -549h-254l90 569q8 51 8 93q0 72 -26 112q-40 64 -137 64q-48 0 -110.5 -30t-108.5 -67l-115 -741h-242z" />
<glyph unicode="o" horiz-adv-x="1249" d="M166 492q18 109 65 200t110 150.5t140 100.5t153 58q68 15 134 15h16h16q68 0 132 -16q72 -18 136.5 -58t108.5 -100t62 -150q9 -45 9 -95t-9 -105q-17 -108 -63.5 -197t-109.5 -147.5t-140.5 -98.5t-155.5 -57q-69 -15 -138 -15h-16h-16q-66 0 -128 15q-70 17 -134 57 t-108 98.5t-62 147.5q-10 46 -10 98q0 47 8 99zM410 500q-6 -42 -6 -78q0 -100 48 -166q66 -88 197.5 -88t226.5 88.5t119 243.5q7 40 7 76q0 96 -49 160q-67 88 -199 89q-131 0 -225 -88t-119 -237z" />
<glyph unicode="p" horiz-adv-x="1191" d="M76 -410l223 1401h217l4 -86q119 111 252 111q34 0 69 -4.5t76.5 -16t77.5 -30.5t72 -48t60.5 -69t43 -93.5t19.5 -120.5v-11q0 -63 -10 -140q-17 -107 -63 -194.5t-105.5 -144t-131.5 -95.5t-140 -55.5t-132 -16.5q-65 0 -123.5 16t-93.5 40l-69 -443h-246zM422 215 q83 -43 168 -43q126 0 223.5 90.5t120.5 231.5q8 43 8 79q0 27 -4 51q-11 55 -32 92t-55.5 59t-68 31t-69.5 9q-60 0 -119.5 -30t-91.5 -66z" />
<glyph unicode="q" horiz-adv-x="1191" d="M164 483q21 127 72.5 226t113 155t137.5 92t137 48t119 12q129 0 213 -111l31 86h217l-223 -1401h-246l70 443q-41 -24 -105 -40t-129 -16q-64 0 -126.5 16.5t-121.5 55.5t-100 95.5t-59 143.5q-8 45 -8 94q0 48 8 101zM412 494q-6 -36 -6 -68q0 -96 51 -164 q68 -90 194 -90q84 0 185 43l79 504q-22 37 -70 66.5t-108 29.5q-46 0 -92.5 -15.5t-95 -49.5t-85.5 -100.5t-52 -155.5z" />
<glyph unicode="r" horiz-adv-x="784" d="M143 0l156 991h207l8 -76q67 45 142.5 73t129.5 28q46 0 105 -8l-35 -213q-59 6 -104 6q-51 0 -120 -18.5t-130 -49.5l-115 -733h-244z" />
<glyph unicode="s" horiz-adv-x="950" d="M113 66l30 192q189 -86 318 -86q90 0 143.5 22t67.5 80q4 18 -0.5 33t-20.5 29t-32 24.5t-48 23.5t-53.5 20.5t-62.5 21.5l-54 18q-67 22 -111.5 58.5t-61 70.5t-21 70t-2 53.5t5.5 26.5q29 140 151 220q110 72 294 72q21 0 42 -1q63 -1 145.5 -21.5t129.5 -44.5 l-31 -190q-143 71 -285 71q-180 0 -204 -108q-1 -2 -1.5 -6t0.5 -14.5t5 -20t15 -20.5t28 -17l88 -31q34 -12 58 -21t54.5 -21t52 -23t46 -25.5t40.5 -29.5t32 -33.5t25 -39t15 -44t5 -51t-7 -58.5q-17 -72 -51 -124.5t-77 -83.5t-103 -49.5t-118.5 -25t-133.5 -6.5 q-57 0 -124 17.5t-101.5 32t-87.5 39.5z" />
<glyph unicode="t" horiz-adv-x="743" d="M176 809l29 182h162l36 223l252 68l-49 -291h217l-28 -182h-217l-80 -496q-6 -24 -4 -45t12 -36.5t42 -25t87 -9.5h63l-32 -211h-99q-195 0 -267 64q-53 47 -53 149q0 38 7 84l84 526h-162z" />
<glyph unicode="u" horiz-adv-x="1228" d="M190 318q0 57 11 124l88 549h252l-90 -569q-8 -50 -8 -91q-1 -73 25 -113q40 -62 138 -62q49 0 113 29.5t102 64.5l121 741h242l-121 -743q-2 -13 -2 -24q0 -30 16 -44q22 -20 54.5 -14.5t72.5 24.5l-26 -170q-125 -43 -203 -43q-61 0 -105.5 37.5t-46.5 71.5 q-54 -54 -130 -81.5t-140 -27.5q-33 0 -62 2.5t-62.5 9t-61.5 17.5t-56.5 30t-49.5 43.5t-38 60t-25 78.5t-8 100z" />
<glyph unicode="v" horiz-adv-x="1064" d="M182 991h258l138 -694l358 694h258l-543 -991h-235z" />
<glyph unicode="w" horiz-adv-x="1628" d="M188 991h263l96 -667l289 596h247l99 -592l307 663h262l-483 -991h-256l-103 610l-295 -610h-254z" />
<glyph unicode="x" horiz-adv-x="1064" d="M31 0l434 500l-272 491h280l164 -342l270 342h275l-426 -491l276 -500h-276l-168 346l-277 -346h-280z" />
<glyph unicode="y" horiz-adv-x="1079" d="M59 -418l29 187l117 2q45 3 75.5 22t59.5 70l80 164l-240 964h266l144 -680l352 680h266q-88 -159 -172.5 -312t-140 -252.5t-108 -194.5t-83 -150.5t-59.5 -107.5t-43.5 -78.5t-27.5 -51t-19 -37t-12 -24.5q-33 -66 -69 -107t-82.5 -62t-95.5 -28q-37 -4 -87 -4h-33 h-117z" />
<glyph unicode="z" horiz-adv-x="1091" d="M76 0l22 158l686 643h-544l28 190h887l-25 -155l-688 -639h588l-31 -197h-923z" />
<glyph unicode="{" horiz-adv-x="727" d="M137 428l25 145q52 8 95.5 35.5t49.5 65.5l62 370q59 367 415 367h97l-29 -180h-61q-43 0 -75.5 -13.5t-51 -32t-31 -47t-17 -48t-8.5 -46.5l-47 -299q-29 -177 -196 -243q146 -57 116 -246l-47 -299q-5 -28 -6.5 -47t2 -48t15.5 -46.5t40.5 -31t71.5 -13.5h61l-28 -181 h-96q-360 0 -301 367l61 373q4 34 -33 63t-84 35z" />
<glyph unicode="|" horiz-adv-x="462" d="M111 -221l292 1820h168l-292 -1820h-168z" />
<glyph unicode="}" horiz-adv-x="727" d="M6 -410l25 181h61q43 0 75.5 13.5t50.5 31t31 47t17.5 47.5t9.5 47l48 299q30 189 196 246q-148 65 -119 243l50 299q4 28 5.5 46.5t-2.5 48t-16 47t-40.5 31.5t-71.5 14h-62l29 180h96q362 0 303 -367l-59 -370q-7 -38 29 -65t86 -36l-23 -145q-50 -6 -95.5 -35 t-51.5 -63l-60 -373q-59 -367 -420 -367h-92z" />
<glyph unicode="&#xa1;" horiz-adv-x="501" d="M61 -410l191 1041h194l-141 -1041h-244zM242 879q21 137 170 137q82 0 109.5 -36t17.5 -101q-10 -67 -49 -103.5t-125 -36.5q-84 0 -108.5 36t-14.5 104z" />
<glyph unicode="&#xa2;" horiz-adv-x="1036" d="M178 496q19 110 70 203.5t121.5 157t153 103.5t169.5 52l31 209h168l-31 -209q110 -10 211 -33l-29 -180q-118 26 -247 30q-86 0 -153 -27.5t-109 -75.5t-67 -104.5t-36 -123.5q-6 -52 -6.5 -100t16.5 -91t46 -74.5t80.5 -50t121.5 -18.5q120 4 258 31l-31 -181 q-96 -21 -219 -32l-34 -203h-168l34 203q-83 11 -153.5 50.5t-121 103t-71.5 157t-4 203.5z" />
<glyph unicode="&#xa3;" horiz-adv-x="1198" d="M111 0l30 201h176l68 432h-164l29 172h164l24 164q36 212 198.5 338.5t426.5 126.5q105 0 199 -21l-31 -196q-119 14 -205 14q-147 0 -234 -78t-106 -195l-24 -153h235l-29 -172h-235l-68 -432h570l-31 -201h-993z" />
<glyph unicode="&#xa4;" horiz-adv-x="1271" d="M168 272l162 142q-28 93 -11 207q17 124 80 217l-118 141l170 147l120 -143q102 52 222 49h14q122 3 205 -49q32 32 82 72l82 71l122 -147l-168 -143q37 -92 19 -215q-19 -122 -78 -207l115 -142l-170 -145l-117 135q-104 -49 -223 -43h-14q-132 0 -211 43l-160 -135z M549 621q-17 -98 27 -146t112 -45h25q69 0 127 47t75 144q17 99 -26 149.5t-113 48.5h-18q-69 2 -130.5 -49t-78.5 -149z" />
<glyph unicode="&#xa5;" horiz-adv-x="1308" d="M295 1386h280l209 -544l387 544h279l-580 -792l-8 -51h250l-25 -150h-249l-15 -96h250l-24 -147h-250l-21 -150h-246l21 150h-244l25 147h244l14 96h-244l25 150h243l9 51z" />
<glyph unicode="&#xa6;" horiz-adv-x="456" />
<glyph unicode="&#xa7;" horiz-adv-x="1093" d="M66 -307l90 192q144 -64 256 -75q58 -5 61 -5q148 0 193 111h-2q10 22 10.5 42t-4.5 35.5t-22 32.5t-32 28.5t-44 26.5t-49 24.5t-56 25.5l-33 14h4l-63 33q-50 23 -87 53.5t-57.5 60.5t-32.5 65t-15 62t-1 57t4.5 45t6.5 30q47 160 206 252q-35 45 -53.5 94.5t-18.5 91 t3 63.5t8 40q42 145 170 230t319 85q57 0 86 -4q116 -16 238 -72q-73 -147 -94 -192q-100 46 -203 57q-112 11 -181 -24.5t-93 -100.5q1 -1 0 -9.5t3 -25.5t11 -33.5t24 -35t41 -29.5q15 -10 23 -14q19 -11 33 -17q97 -45 155 -78.5t115.5 -81.5t78 -106t9.5 -131 q-4 -32 -16 -68q-29 -77 -81 -143t-118 -111q92 -106 72 -223q-2 -15 -19 -65q-61 -153 -175 -228t-265 -75q-57 0 -115 6q-154 19 -290 90zM414 547q-12 -81 67.5 -154t210.5 -104l19 4q120 76 133 160q13 79 -70.5 145.5t-222.5 103.5q-124 -71 -137 -155z" />
<glyph unicode="&#xa8;" horiz-adv-x="1089" d="M449 1274q18 125 147 125q72 0 94.5 -33t14.5 -92q-19 -123 -150 -123q-125 0 -106 123zM791 1274q18 125 147 125q72 0 94.5 -33t14.5 -92q-19 -123 -150 -123q-125 0 -106 123z" />
<glyph unicode="&#xa9;" horiz-adv-x="1630" d="M217 700q25 154 86.5 279.5t144 208.5t184 139.5t204 81.5t206.5 25q86 0 166.5 -17.5t155.5 -55t132 -96t97 -140t50 -187t-9 -238.5q-54 -330 -279 -526.5t-546 -196.5h4q-212 0 -359.5 88.5t-210 253t-26.5 381.5zM377 700q-41 -254 85 -406.5t376 -152.5h-4 q250 0 425 152.5t216 406.5q21 123 2.5 217.5t-60 161t-107 109.5t-138.5 62.5t-154 19.5t-160.5 -19t-158.5 -63t-143 -108.5t-112 -162.5t-67 -217zM582 698q-13 -81 5 -148t58.5 -109t95.5 -64.5t117 -22.5q121 0 225 29l19 115q-50 -8 -87.5 -12t-49.5 -5t-37.5 -0.5 t-26.5 0.5q-83 0 -131.5 59t-34.5 158q15 99 83 158t157 59q102 0 192 -18l19 119q-101 26 -213 26q-131 0 -248.5 -94.5t-142.5 -249.5z" />
<glyph unicode="&#xaa;" horiz-adv-x="821" d="M221 545l23 133h549l-23 -133h-549zM281 973q12 69 56.5 119t99 72t110.5 22q21 0 76 -6.5t73 -12.5q-1 4 0.5 15t1.5 12q0 102 -129 102q-76 0 -207 -39l21 129q130 48 254 48q52 0 96.5 -14.5t81 -45.5t51.5 -88t2 -133l-59 -367h-166l8 66q-24 -29 -89 -47.5 t-111 -18.5q-86 0 -135 48.5t-35 138.5zM457 985q-4 -25 10.5 -45t58.5 -20q23 0 71.5 12t64.5 24l14 103q-8 2 -51 6t-52 4q-102 0 -116 -84z" />
<glyph unicode="&#xab;" horiz-adv-x="1073" d="M152 506l354 426h246l-357 -426l219 -428h-245zM543 506l354 426h246l-357 -426l220 -428h-246z" />
<glyph unicode="&#xac;" horiz-adv-x="1286" d="M215 592l35 215h1012l-95 -592h-231l59 377h-780z" />
<glyph unicode="&#xad;" horiz-adv-x="946" d="M193 428l32 205h697l-33 -205h-696z" />
<glyph unicode="&#xae;" horiz-adv-x="1630" d="M217 700q25 154 86.5 279.5t144 208.5t184 139.5t204 81.5t206.5 25q86 0 166.5 -17.5t155.5 -55t132 -96t97 -140t50 -187t-9 -238.5q-54 -330 -279 -526.5t-546 -196.5h4q-212 0 -359.5 88.5t-210 253t-26.5 381.5zM377 700q-41 -254 85 -406.5t376 -152.5h-4 q250 0 425 152.5t216 406.5q21 123 2.5 217.5t-60 161t-107 109.5t-138.5 62.5t-154 19.5t-160.5 -19t-158.5 -63t-143 -108.5t-112 -162.5t-67 -217zM633 365l110 667h277q93 0 144 -53t36 -150q-13 -88 -58.5 -139t-113.5 -59q41 -60 80 -135t57 -131h-166 q-39 106 -94 204q-26 47 -41 47h-41l-41 -251h-149zM844 735h129q64 0 78 86q6 35 -13 59.5t-53 24.5h-115z" />
<glyph unicode="&#xaf;" horiz-adv-x="995" d="M432 1176l27 170h504l-27 -170h-504z" />
<glyph unicode="&#xb0;" horiz-adv-x="747" d="M274 1157q13 76 44.5 131t76 86t95 45.5t108.5 14.5q127 0 197.5 -65.5t46.5 -211.5q-23 -143 -115 -209.5t-217 -66.5q-121 0 -190 66.5t-46 209.5zM432 1157q-10 -62 21.5 -91.5t83.5 -29.5q55 0 95 29t50 92t-21.5 92t-87.5 29q-53 0 -92 -29t-49 -92z" />
<glyph unicode="&#xb1;" horiz-adv-x="1193" d="M131 0l31 207h932l-31 -207h-932zM236 664l32 213h350l56 337h231l-55 -337h350l-33 -213h-350l-55 -340h-232l56 340h-350z" />
<glyph unicode="&#xb2;" horiz-adv-x="753" d="M213 881l23 133l286 260q14 12 44 37.5t49.5 43t42 39.5t35 40.5t14.5 33.5q6 41 -20.5 64.5t-88.5 23.5q-100 0 -258 -77l25 153q134 78 262 78q150 0 219.5 -63t52.5 -177q0 -4 -3 -14.5t-14.5 -34.5t-30 -51.5t-54 -66t-82.5 -76.5l-219 -189h335l-24 -157h-594z" />
<glyph unicode="&#xb3;" horiz-adv-x="757" d="M231 924l25 159q133 -53 260 -53q53 0 86 26t41 64q-2 3 0.5 20.5t-11 41t-40.5 28.5h-168l27 150h161q30 4 51 28.5t27 47.5l6 22q6 39 -18.5 66.5t-77.5 27.5q-104 0 -258 -53l25 156q38 17 121 36t137 19q150 0 217.5 -65t52.5 -181q-1 -12 -6.5 -29t-19 -46.5 t-42.5 -57t-69 -43.5q33 -13 53 -40.5t24 -53.5t6 -49.5t-1 -28.5v-2q-22 -116 -111.5 -181t-239.5 -65q-55 0 -140.5 19.5t-117.5 36.5z" />
<glyph unicode="&#xb4;" horiz-adv-x="1005" d="M446 1139l189 315h239l-243 -315h-185z" />
<glyph unicode="&#xb6;" horiz-adv-x="1042" d="M260 1118q20 122 120 207.5t224 85.5h467l-260 -1649h-184l235 1489h-137l-236 -1489h-184l168 1067q-109 14 -170.5 95.5t-42.5 193.5z" />
<glyph unicode="&#xb7;" horiz-adv-x="526" d="M201 543q10 66 48 102.5t122 36.5t110.5 -36.5t16.5 -102.5q-10 -65 -49.5 -101t-120.5 -36t-109 36t-18 101z" />
<glyph unicode="&#xb8;" horiz-adv-x="1095" d="M266 -369l25 160l123 -39q56 -19 91 2.5t40 57.5q7 42 -5.5 103.5t-47.5 104.5h143q34 -32 61.5 -81.5t32.5 -85.5q6 -43 0 -74q-16 -96 -94.5 -156.5t-194.5 -50.5q-62 4 -174 59z" />
<glyph unicode="&#xb9;" horiz-adv-x="626" d="M229 881l25 157h145l78 480l-155 -64l26 145l207 101h147l-106 -662h145l-24 -157h-488z" />
<glyph unicode="&#xba;" horiz-adv-x="909" d="M244 545l22 139h596l-22 -139h-596zM283 1100q14 87 56.5 154.5t99.5 106t118.5 57t120.5 16.5q64 0 119 -17t101.5 -53t67 -103t5.5 -157q-25 -160 -133.5 -246t-259.5 -86q-61 -2 -117.5 17t-102.5 56.5t-67.5 104t-7.5 150.5zM461 1106q-13 -84 27.5 -137.5 t111.5 -53.5q73 0 127.5 51.5t67.5 139.5q13 84 -25.5 134t-110.5 50q-70 0 -128 -53t-70 -131z" />
<glyph unicode="&#xbb;" horiz-adv-x="1073" d="M90 78l354 428l-219 426h246l217 -426l-352 -428h-246zM481 78l355 428l-220 426h246l217 -426l-352 -428h-246z" />
<glyph unicode="&#xbc;" horiz-adv-x="1718" d="M201 592l24 158h146l78 479l-154 -64l24 146l207 100h148l-107 -661h146l-25 -158h-487zM424 0l938 1411h147l-938 -1411h-147zM983 180h369l-27 -180h197l26 180h103l26 148h-102l78 491h-178l-474 -526zM1204 328l209 235l-35 -235h-174z" />
<glyph unicode="&#xbd;" horiz-adv-x="1757" d="M199 592l24 158h146l77 479l-153 -64l24 146l207 100h148l-107 -661h146l-25 -158h-487zM422 0l938 1411h147l-938 -1411h-147zM1067 0l18 133l287 260q12 11 45 38.5t51 44t41.5 39t35.5 40.5t14 33q6 42 -18.5 65t-86.5 23q-99 0 -262 -78l25 154q135 77 262 77 q138 0 205 -59t67 -180q0 -4 -3.5 -15t-15 -35t-30 -51.5t-54.5 -66t-81 -76.5l-219 -188h335l-22 -158h-594z" />
<glyph unicode="&#xbe;" horiz-adv-x="1787" d="M203 635l26 160q133 -54 258 -54q53 0 87 26t40 64q-2 3 1 20.5t-10 41.5t-40 29h-168l25 149h162q30 4 51.5 28.5t28.5 46.5l6 23q5 40 -20 67.5t-77 27.5q-101 0 -260 -54l27 156q39 17 120.5 36t135.5 19q150 0 218 -64.5t54 -180.5q-1 -12 -6.5 -29t-19 -46.5 t-43.5 -57.5t-70 -44q33 -13 53 -40.5t24 -53.5t6 -49.5t-1 -28.5v-2q-21 -115 -109.5 -180t-238.5 -65q-55 0 -141.5 19.5t-118.5 35.5zM479 0l938 1411h148l-938 -1411h-148zM1053 180h368l-26 -180h196l27 180h102l25 148h-103l80 491h-178l-473 -526zM1272 328l211 235 l-37 -235h-174z" />
<glyph unicode="&#xbf;" horiz-adv-x="1005" d="M74 -33q43 286 340 408q189 72 221 272h229q-18 -162 -120 -283.5t-265 -193.5q-46 -20 -80.5 -50t-50.5 -60.5t-23 -52t-8 -36.5q-15 -91 47.5 -141.5t188.5 -50.5q127 0 332 98l-19 -201q-82 -52 -161 -74.5t-170 -29.5q-232 -13 -361 99t-100 296zM635 879 q21 137 172 137q81 0 108 -36t17 -101q-10 -67 -48 -103.5t-122 -36.5q-86 0 -111.5 36t-15.5 104z" />
<glyph unicode="&#xc0;" horiz-adv-x="1335" d="M39 0q193 428 351.5 742t377.5 669h246q107 -354 165.5 -666t116.5 -745h-245q-10 77 -29.5 218t-26.5 194h-526l-184 -412h-246zM561 604h402q-34 208 -115 541q-136 -238 -287 -541zM690 1874h240l86 -315h-185z" />
<glyph unicode="&#xc1;" horiz-adv-x="1335" d="M39 0q193 428 351.5 742t377.5 669h246q107 -354 165.5 -666t116.5 -745h-245q-10 77 -29.5 218t-26.5 194h-526l-184 -412h-246zM561 604h402q-34 208 -115 541q-136 -238 -287 -541zM821 1559l193 315h239l-247 -315h-185z" />
<glyph unicode="&#xc2;" horiz-adv-x="1335" d="M39 0q193 428 351.5 742t377.5 669h246q107 -354 165.5 -666t116.5 -745h-245q-10 77 -29.5 218t-26.5 194h-526l-184 -412h-246zM561 604h402q-34 208 -115 541q-136 -238 -287 -541zM584 1559l262 315h241l156 -315h-180l-119 182l-180 -182h-180z" />
<glyph unicode="&#xc3;" horiz-adv-x="1335" d="M39 0q193 428 351.5 742t377.5 669h246q107 -354 165.5 -666t116.5 -745h-245q-10 77 -29.5 218t-26.5 194h-526l-184 -412h-246zM561 604h402q-34 208 -115 541q-136 -238 -287 -541zM606 1552q10 44 21.5 76.5t30.5 66.5t44 55.5t62.5 35.5t85.5 14q24 0 47.5 -6.5 t35.5 -12.5t38 -20q8 -4 21 -11.5t20 -11t15.5 -6.5t14.5 -3q26 0 42.5 20t31.5 61h148q-11 -44 -22.5 -76t-31 -66t-44.5 -55t-62.5 -34.5t-85.5 -13.5q-24 0 -47.5 7t-33.5 12t-38 20q-54 32 -70 32q-26 0 -43 -21.5t-32 -62.5h2h-150z" />
<glyph unicode="&#xc4;" horiz-adv-x="1335" d="M39 0q193 428 351.5 742t377.5 669h246q107 -354 165.5 -666t116.5 -745h-245q-10 77 -29.5 218t-26.5 194h-526l-184 -412h-246zM561 604h402q-34 208 -115 541q-136 -238 -287 -541zM637 1694q10 59 43 92t104 33q73 0 96 -33t13 -92q-19 -123 -148 -123 q-67 0 -91.5 34t-16.5 89zM979 1694q10 59 43 92t104 33q73 0 96 -33t13 -92q-19 -123 -148 -123q-67 0 -91.5 34t-16.5 89z" />
<glyph unicode="&#xc5;" horiz-adv-x="1335" d="M39 0q193 428 351.5 742t377.5 669h246q107 -354 165.5 -666t116.5 -745h-245q-10 77 -29.5 218t-26.5 194h-526l-184 -412h-246zM561 604h402q-34 208 -115 541q-136 -238 -287 -541zM729 1759q17 101 88.5 158t163.5 57q94 0 148 -55.5t38 -159.5q-14 -98 -88.5 -156.5 t-165.5 -58.5q-93 0 -146.5 55t-37.5 160zM864 1759q-6 -39 15 -62.5t53 -23.5t63 23.5t37 62.5q7 41 -14.5 63.5t-54.5 22.5t-62.5 -22.5t-36.5 -63.5z" />
<glyph unicode="&#xc6;" horiz-adv-x="1828" d="M37 0q188 420 349 737.5t382 673.5h1169l-32 -209h-656l-59 -371h610l-35 -208h-610l-47 -310q-19 -104 98 -104h539l-31 -209h-569q-176 5 -243 68.5t-46 218.5l21 123h-408l-184 -410h-248zM565 606h342l97 596h-117q-158 -260 -322 -596z" />
<glyph unicode="&#xc7;" horiz-adv-x="1331" d="M213 702q22 137 80.5 256t139.5 205t179 148t202.5 92.5t207.5 30.5q129 0 248.5 -17t187.5 -37l-35 -200q-206 43 -385 43q-140 0 -261 -62t-205 -181.5t-109 -277.5q-19 -119 5.5 -217.5t83 -162.5t141 -99t179.5 -35q58 0 84.5 1t105.5 9.5t212 28.5l-35 -198 q-165 -41 -371 -49q52 -72 58 -127q6 -43 0 -74q-16 -96 -94.5 -156.5t-194.5 -50.5q-62 4 -174 59l24 160l123 -39q56 -19 91 2.5t40 57.5q5 33 -1 81t-25 89q-120 13 -221 66t-174 141t-103 221t-4 292z" />
<glyph unicode="&#xc8;" horiz-adv-x="1187" d="M217 287l180 1124h899l-32 -209h-652l-59 -371h606l-33 -208h-606l-53 -326q-15 -88 84 -88h555l-33 -209h-567q-176 5 -243 68.5t-46 218.5zM692 1874h240l88 -315h-184z" />
<glyph unicode="&#xc9;" horiz-adv-x="1187" d="M217 287l180 1124h899l-32 -209h-652l-59 -371h606l-33 -208h-606l-53 -326q-15 -88 84 -88h555l-33 -209h-567q-176 5 -243 68.5t-46 218.5zM721 1559l190 315h240l-246 -315h-184z" />
<glyph unicode="&#xca;" horiz-adv-x="1187" d="M217 287l180 1124h899l-32 -209h-652l-59 -371h606l-33 -208h-606l-53 -326q-15 -88 84 -88h555l-33 -209h-567q-176 5 -243 68.5t-46 218.5zM500 1559l260 315h241l158 -315h-180l-119 182l-180 -182h-180z" />
<glyph unicode="&#xcb;" horiz-adv-x="1187" d="M217 287l180 1124h899l-32 -209h-652l-59 -371h606l-33 -208h-606l-53 -326q-15 -88 84 -88h555l-33 -209h-567q-176 5 -243 68.5t-46 218.5zM553 1694q10 60 42 92.5t103 32.5q132 0 111 -125q-19 -123 -147 -123q-67 0 -92 34t-17 89zM895 1694q10 60 42 92.5t103 32.5 q132 0 111 -125q-19 -123 -147 -123q-67 0 -92 34t-17 89z" />
<glyph unicode="&#xcc;" horiz-adv-x="608" d="M180 0l223 1411h248l-223 -1411h-248zM348 1874h240l86 -315h-185z" />
<glyph unicode="&#xcd;" horiz-adv-x="608" d="M180 0l223 1411h248l-223 -1411h-248zM426 1559l192 315h240l-248 -315h-184z" />
<glyph unicode="&#xce;" horiz-adv-x="608" d="M180 0l223 1411h248l-223 -1411h-248zM221 1559l262 315h242l156 -315h-181l-118 182l-181 -182h-180z" />
<glyph unicode="&#xcf;" horiz-adv-x="608" d="M180 0l223 1411h248l-223 -1411h-248zM274 1694q10 59 43.5 92t104.5 33q73 0 95.5 -33t12.5 -92q-19 -123 -147 -123q-67 0 -92 34t-17 89zM616 1694q10 59 43.5 92t104.5 33q73 0 95.5 -33t12.5 -92q-19 -123 -147 -123q-67 0 -92 34t-17 89z" />
<glyph unicode="&#xd0;" horiz-adv-x="1474" d="M143 596l35 199h172l96 616h488q104 0 195.5 -28.5t166.5 -86t124 -142.5t66.5 -198t-5.5 -254q-28 -172 -104 -309t-182 -221t-229.5 -128t-254.5 -44h-488l92 596h-172zM504 209h153q240 0 383 124.5t183 368.5q79 500 -408 500h-153l-64 -407h272l-34 -199h-273z" />
<glyph unicode="&#xd1;" horiz-adv-x="1458" d="M180 0h248l164 1026q236 -440 438 -1026h248l223 1411h-248l-153 -962q-76 244 -201.5 504.5t-249.5 457.5h-246zM668 1552q13 56 28.5 95t42.5 77t70 57t102 19q24 0 47.5 -6.5t35.5 -12.5t38 -20q8 -4 21.5 -11.5t20 -11t15.5 -6.5t15 -3q26 0 42.5 20t31.5 61h147 q-11 -44 -22.5 -76t-31 -66t-44.5 -55t-62.5 -34.5t-85.5 -13.5q-8 0 -16 0.5t-15.5 2t-13 3t-13.5 4.5l-12 4.5t-12.5 5.5t-11.5 5.5t-12.5 7t-11.5 6.5q-54 32 -70 32q-26 0 -43.5 -21.5t-32.5 -62.5h2h-149z" />
<glyph unicode="&#xd2;" d="M213 700q24 153 86.5 279t146 209t186.5 139.5t206.5 81.5t208.5 25q106 0 202 -25.5t182 -80.5t141 -141t79.5 -207t-2.5 -280q-35 -217 -150.5 -381t-293 -253t-392.5 -89q-323 2 -487.5 198.5t-112.5 524.5zM459 700q-36 -229 70 -373.5t315 -144.5q214 0 369 144.5 t190 373.5q21 133 -4 237.5t-83.5 166.5t-135 93.5t-164.5 31.5q-69 0 -138.5 -19t-138 -61t-124.5 -102.5t-97.5 -150t-58.5 -196.5zM860 1874h240l86 -315h-185z" />
<glyph unicode="&#xd3;" d="M213 700q24 153 86.5 279t146 209t186.5 139.5t206.5 81.5t208.5 25q106 0 202 -25.5t182 -80.5t141 -141t79.5 -207t-2.5 -280q-35 -217 -150.5 -381t-293 -253t-392.5 -89q-323 2 -487.5 198.5t-112.5 524.5zM459 700q-36 -229 70 -373.5t315 -144.5q214 0 369 144.5 t190 373.5q21 133 -4 237.5t-83.5 166.5t-135 93.5t-164.5 31.5q-69 0 -138.5 -19t-138 -61t-124.5 -102.5t-97.5 -150t-58.5 -196.5zM985 1559l193 315h239l-248 -315h-184z" />
<glyph unicode="&#xd4;" d="M213 700q24 153 86.5 279t146 209t186.5 139.5t206.5 81.5t208.5 25q106 0 202 -25.5t182 -80.5t141 -141t79.5 -207t-2.5 -280q-35 -217 -150.5 -381t-293 -253t-392.5 -89q-323 2 -487.5 198.5t-112.5 524.5zM459 700q-36 -229 70 -373.5t315 -144.5q214 0 369 144.5 t190 373.5q21 133 -4 237.5t-83.5 166.5t-135 93.5t-164.5 31.5q-69 0 -138.5 -19t-138 -61t-124.5 -102.5t-97.5 -150t-58.5 -196.5zM737 1559l262 315h242l156 -315h-180l-119 182l-180 -182h-181z" />
<glyph unicode="&#xd5;" d="M213 700q24 153 86.5 279t146 209t186.5 139.5t206.5 81.5t208.5 25q106 0 202 -25.5t182 -80.5t141 -141t79.5 -207t-2.5 -280q-35 -217 -150.5 -381t-293 -253t-392.5 -89q-323 2 -487.5 198.5t-112.5 524.5zM459 700q-36 -229 70 -373.5t315 -144.5q214 0 369 144.5 t190 373.5q21 133 -4 237.5t-83.5 166.5t-135 93.5t-164.5 31.5q-69 0 -138.5 -19t-138 -61t-124.5 -102.5t-97.5 -150t-58.5 -196.5zM758 1552q11 44 22.5 76.5t31 67t44.5 55.5t62.5 35t85.5 14q8 0 16 -0.5t15.5 -2t13 -3t13.5 -4.5l12 -4.5t12.5 -5.5t11.5 -5.5t12.5 -7 t11.5 -6.5q8 -4 21.5 -11.5t20 -11t15.5 -6.5t15 -3q26 0 42.5 20t33.5 61h147q-11 -44 -22.5 -76t-31 -66t-44.5 -55t-62.5 -34.5t-85.5 -13.5q-24 0 -47.5 6.5t-34.5 12t-38 20.5q-54 32 -68 32q-47 0 -78 -84h2h-149z" />
<glyph unicode="&#xd6;" d="M213 700q24 153 86.5 279t146 209t186.5 139.5t206.5 81.5t208.5 25q106 0 202 -25.5t182 -80.5t141 -141t79.5 -207t-2.5 -280q-35 -217 -150.5 -381t-293 -253t-392.5 -89q-323 2 -487.5 198.5t-112.5 524.5zM459 700q-36 -229 70 -373.5t315 -144.5q214 0 369 144.5 t190 373.5q21 133 -4 237.5t-83.5 166.5t-135 93.5t-164.5 31.5q-69 0 -138.5 -19t-138 -61t-124.5 -102.5t-97.5 -150t-58.5 -196.5zM791 1694q10 60 42 92.5t103 32.5q132 0 111 -125q-19 -123 -148 -123q-67 0 -91.5 34t-16.5 89zM1133 1694q10 60 42 92.5t103 32.5 q132 0 111 -125q-19 -123 -148 -123q-67 0 -91.5 34t-16.5 89z" />
<glyph unicode="&#xd7;" horiz-adv-x="1060" d="M156 297l305 264l-221 264l180 156l223 -262l305 262l131 -156l-305 -264l221 -264l-180 -156l-221 265l-307 -265z" />
<glyph unicode="&#xd8;" d="M106 29l193 182q-131 202 -86 489q24 153 86.5 279t146 209t186.5 139.5t206.5 81.5t208.5 25q240 0 389 -109l202 188l117 -131l-190 -186q135 -190 86 -496q-54 -328 -282 -525.5t-554 -197.5q-224 0 -389 109l-186 -182zM461 700q-28 -188 26 -305l770 756 q-116 78 -241 78q-69 0 -138.5 -19t-137.5 -61t-123.5 -102.5t-97 -150t-58.5 -196.5zM600 256q110 -74 244 -74q214 0 368 144.5t191 373.5q29 189 -27 314z" />
<glyph unicode="&#xd9;" horiz-adv-x="1482" d="M243.5 429.5q-0.5 -73.5 12 -129t31.5 -101.5t49.5 -78t61 -57t69.5 -40t72 -25t72.5 -14.5t66 -6t57.5 -1.5q35 0 65.5 1.5t78 8.5t88 19t90 34.5t91 53t84.5 77.5t76 105t60.5 138t42.5 174l131 823h-246l-127 -786q-11 -70 -28 -129t-35.5 -101t-44.5 -75t-47.5 -54 t-51.5 -36t-49.5 -22t-49.5 -10.5t-43.5 -4t-38.5 -0.5h-11h-9q-21 0 -34 0.5t-40 4t-45.5 10.5t-43.5 22t-41 35.5t-32 54t-22.5 75.5t-6 101t11.5 129l127 786h-246l-131 -823q-14 -85 -14.5 -158.5zM786 1874h240l88 -315h-184z" />
<glyph unicode="&#xda;" horiz-adv-x="1482" d="M243.5 429.5q0.5 73.5 14.5 158.5l131 823h246l-127 -786q-11 -70 -11.5 -129t5.5 -101t22.5 -75.5t32 -54t41.5 -35.5t43.5 -22t45.5 -11t40 -4h34h3h3h3h11q24 0 38.5 0.5t43.5 4t49.5 10.5t50 22t51 36t47 54t44.5 75t36 101t28 129l127 786h246l-131 -823 q-15 -94 -42.5 -174t-60.5 -138t-76 -105t-84.5 -77.5t-91 -53t-90 -34.5t-88 -19t-78 -8.5t-65.5 -1.5q-31 0 -57.5 1.5t-66 6t-72.5 14.5t-72 25t-69.5 40t-61 57t-49.5 78t-31.5 101.5t-12 129zM858 1559l191 315h239l-246 -315h-184z" />
<glyph unicode="&#xdb;" horiz-adv-x="1482" d="M243.5 429.5q-0.5 -73.5 12 -129t31.5 -101.5t49.5 -78t61 -57t69.5 -40t72 -25t72.5 -14.5t66 -6t57.5 -1.5q35 0 65.5 1.5t78 8.5t88 19t90 34.5t91 53t84.5 77.5t76 105t60.5 138t42.5 174l131 823h-246l-127 -786q-11 -70 -28 -129t-35.5 -101t-44.5 -75t-47.5 -54 t-51.5 -36t-49.5 -22t-49.5 -10.5t-43.5 -4t-38.5 -0.5h-11h-9q-21 0 -34 0.5t-40 4t-45.5 10.5t-43.5 22t-41 35.5t-32 54t-22.5 75.5t-6 101t11.5 129l127 786h-246l-131 -823q-14 -85 -14.5 -158.5zM659 1559l261 315h241l158 -315h-180l-121 182l-178 -182h-181z" />
<glyph unicode="&#xdc;" horiz-adv-x="1482" d="M243.5 429.5q-0.5 -73.5 12 -129t31.5 -101.5t49.5 -78t61 -57t69.5 -40t72 -25t72.5 -14.5t66 -6t57.5 -1.5q35 0 65.5 1.5t78 8.5t88 19t90 34.5t91 53t84.5 77.5t76 105t60.5 138t42.5 174l131 823h-246l-127 -786q-11 -70 -28 -129t-35.5 -101t-44.5 -75t-47.5 -54 t-51.5 -36t-49.5 -22t-49.5 -10.5t-43.5 -4t-38.5 -0.5h-11h-9q-21 0 -34 0.5t-40 4t-45.5 10.5t-43.5 22t-41 35.5t-32 54t-22.5 75.5t-6 101t11.5 129l127 786h-246l-131 -823q-14 -85 -14.5 -158.5zM711 1694q10 59 43 92t104 33q73 0 96 -33t13 -92q-19 -123 -148 -123 q-67 0 -91.5 34t-16.5 89zM1053 1694q10 59 43 92t104 33q73 0 96 -33t13 -92q-19 -123 -148 -123q-67 0 -91.5 34t-16.5 89z" />
<glyph unicode="&#xdd;" horiz-adv-x="1204" d="M238 1411h286l211 -580l393 580h283l-590 -805l-94 -606h-248l94 606zM715 1559l192 315h240l-248 -315h-184z" />
<glyph unicode="&#xde;" horiz-adv-x="1191" d="M180 0l223 1411h248l-43 -266h283q82 0 151 -28.5t118 -82t69.5 -138.5t3.5 -191t-64.5 -191t-113.5 -137t-143.5 -79.5t-159.5 -27.5h-283l-41 -270h-248zM502 475h239q106 0 170.5 59.5t81.5 170.5q19 114 -25.5 174.5t-152.5 60.5h-240z" />
<glyph unicode="&#xdf;" horiz-adv-x="1181" d="M143 0l138 868q17 103 43 183t70.5 149.5t105.5 114.5t148.5 70.5t199.5 25.5h37q40 0 82.5 -9.5t90.5 -36t82.5 -67t51 -110.5t2.5 -158q-13 -78 -64 -156.5t-129 -121.5q83 -42 129 -135.5t27 -213.5q-33 -200 -171 -301.5t-347 -101.5h-172l31 197h172 q89 0 159.5 56.5t85.5 149.5q9 51 -1 93.5t-31.5 68t-49 43t-51.5 24.5t-43 7h-106l31 192h96q73 0 126.5 61.5t65.5 137.5q14 89 -30 134.5t-117 45.5q-51 0 -92 -14t-69.5 -41t-48.5 -57t-34 -73t-22 -77t-15 -80l-137 -868h-244z" />
<glyph unicode="&#xe0;" horiz-adv-x="1103" d="M121 305q16 103 89.5 177t172 107.5t209.5 33.5q95 0 182 -23l2 18q17 99 -24 156t-121 57q-88 0 -167.5 -19.5t-184.5 -59.5l28 180q69 27 106 40t117 28.5t162 15.5t146 -22t112.5 -70.5t66 -135.5t-0.5 -206l-55 -334q-8 -49 13.5 -68.5t54 -14t73.5 24.5l-27 -170 q-125 -43 -205 -43q-61 0 -105 37.5t-44 71.5q-49 -41 -132.5 -75t-150.5 -34q-368 0 -317 328zM358 297q-8 -60 23.5 -100.5t107.5 -40.5q51 0 122.5 25.5t103.5 56.5l35 198q-72 10 -132 10q-238 0 -260 -149zM489 1454h240l92 -315h-184z" />
<glyph unicode="&#xe1;" horiz-adv-x="1103" d="M121 305q16 103 89.5 177t172 107.5t209.5 33.5q95 0 182 -23l2 18q17 99 -24 156t-121 57q-88 0 -167.5 -19.5t-184.5 -59.5l28 180q69 27 106 40t117 28.5t162 15.5t146 -22t112.5 -70.5t66 -135.5t-0.5 -206l-55 -334q-8 -49 13.5 -68.5t54 -14t73.5 24.5l-27 -170 q-125 -43 -205 -43q-61 0 -105 37.5t-44 71.5q-49 -41 -132.5 -75t-150.5 -34q-368 0 -317 328zM358 297q-8 -60 23.5 -100.5t107.5 -40.5q51 0 122.5 25.5t103.5 56.5l35 198q-72 10 -132 10q-238 0 -260 -149zM561 1139l187 315h239l-242 -315h-184z" />
<glyph unicode="&#xe2;" horiz-adv-x="1103" d="M121 305q16 103 89.5 177t172 107.5t209.5 33.5q95 0 182 -23l2 18q17 99 -24 156t-121 57q-88 0 -167.5 -19.5t-184.5 -59.5l28 180q69 27 106 40t117 28.5t162 15.5t146 -22t112.5 -70.5t66 -135.5t-0.5 -206l-55 -334q-8 -49 13.5 -68.5t54 -14t73.5 24.5l-27 -170 q-125 -43 -205 -43q-61 0 -105 37.5t-44 71.5q-49 -41 -132.5 -75t-150.5 -34q-368 0 -317 328zM358 297q-8 -60 23.5 -100.5t107.5 -40.5q51 0 122.5 25.5t103.5 56.5l35 198q-72 10 -132 10q-238 0 -260 -149zM369 1139l256 315h241l162 -315h-180l-123 182l-176 -182 h-180z" />
<glyph unicode="&#xe3;" horiz-adv-x="1103" d="M121 305q16 103 89.5 177t172 107.5t209.5 33.5q95 0 182 -23l2 18q17 99 -24 156t-121 57q-88 0 -167.5 -19.5t-184.5 -59.5l28 180q69 27 106 40t117 28.5t162 15.5t146 -22t112.5 -70.5t66 -135.5t-0.5 -206l-55 -334q-8 -49 13.5 -68.5t54 -14t73.5 24.5l-27 -170 q-125 -43 -205 -43q-61 0 -105 37.5t-44 71.5q-49 -41 -132.5 -75t-150.5 -34q-368 0 -317 328zM358 297q-8 -60 23.5 -100.5t107.5 -40.5q51 0 122.5 25.5t103.5 56.5l35 198q-72 10 -132 10q-238 0 -260 -149zM408 1133q14 57 29.5 95.5t43 76t70.5 56.5t102 19 q24 0 47.5 -6.5t35.5 -12.5t38 -20q54 -32 68 -32q48 0 78 82h147q-14 -56 -30.5 -95t-44 -76t-71 -56t-102.5 -19q-55 0 -121 39q-11 5 -25.5 14t-24 14t-17.5 5q-49 0 -76 -84h2h-149z" />
<glyph unicode="&#xe4;" horiz-adv-x="1103" d="M121 305q16 103 89.5 177t172 107.5t209.5 33.5q95 0 182 -23l2 18q17 99 -24 156t-121 57q-88 0 -167.5 -19.5t-184.5 -59.5l28 180q69 27 106 40t117 28.5t162 15.5t146 -22t112.5 -70.5t66 -135.5t-0.5 -206l-55 -334q-8 -49 13.5 -68.5t54 -14t73.5 24.5l-27 -170 q-125 -43 -205 -43q-61 0 -105 37.5t-44 71.5q-49 -41 -132.5 -75t-150.5 -34q-368 0 -317 328zM358 297q-8 -60 23.5 -100.5t107.5 -40.5q51 0 122.5 25.5t103.5 56.5l35 198q-72 10 -132 10q-238 0 -260 -149zM426 1274q18 125 147 125q72 0 94.5 -33t14.5 -92 q-19 -123 -150 -123q-125 0 -106 123zM768 1274q18 125 147 125q72 0 94.5 -33t14.5 -92q-19 -123 -150 -123q-125 0 -106 123z" />
<glyph unicode="&#xe5;" horiz-adv-x="1103" d="M121 305q16 103 89.5 177t172 107.5t209.5 33.5q95 0 182 -23l2 18q17 99 -24 156t-121 57q-88 0 -167.5 -19.5t-184.5 -59.5l28 180q69 27 106 40t117 28.5t162 15.5t146 -22t112.5 -70.5t66 -135.5t-0.5 -206l-55 -334q-8 -49 13.5 -68.5t54 -14t73.5 24.5l-27 -170 q-125 -43 -205 -43q-61 0 -105 37.5t-44 71.5q-49 -41 -132.5 -75t-150.5 -34q-368 0 -317 328zM358 297q-8 -60 23.5 -100.5t107.5 -40.5q51 0 122.5 25.5t103.5 56.5l35 198q-72 10 -132 10q-238 0 -260 -149zM504 1339q17 101 88.5 158t163.5 57q94 0 149 -56t37 -159 q-17 -99 -90 -157t-164 -58q-93 0 -147.5 55.5t-36.5 159.5zM639 1339q-6 -39 17 -62.5t55 -23.5t61 23.5t35 62.5q7 41 -16 63.5t-56 22.5q-32 0 -60.5 -22.5t-35.5 -63.5z" />
<glyph unicode="&#xe6;" horiz-adv-x="1724" d="M121 305q16 103 89.5 177t172 107.5t209.5 33.5q95 0 182 -23l2 18q12 100 -27 156.5t-118 56.5q-88 0 -167.5 -19.5t-184.5 -59.5l28 180q69 27 106 40t117 28.5t162 15.5q90 0 162 -37.5t115 -110.5q73 70 166.5 107t193.5 37q224 0 327.5 -141t63.5 -386l-16 -77h-713 q-10 -117 57.5 -180.5t186.5 -63.5q187 0 383 61l-29 -174q-71 -28 -187.5 -51t-225.5 -23q-126 0 -222 49t-120 136q-36 -58 -90 -97.5t-113 -57t-104 -24t-89 -6.5q-368 0 -317 328zM358 297q-8 -60 23.5 -100.5t107.5 -40.5q24 0 42.5 2t50.5 9.5t56.5 26t49.5 47.5 t41 79.5t21 115.5q-72 10 -132 10q-238 0 -260 -149zM1018 575h477q12 109 -45.5 178.5t-153.5 69.5t-174.5 -69.5t-103.5 -178.5z" />
<glyph unicode="&#xe7;" horiz-adv-x="989" d="M162 496q20 120 79 220.5t139.5 164.5t173.5 99.5t185 35.5q176 0 316 -37l-29 -180q-116 26 -246 30q-86 0 -153 -27.5t-109 -75.5t-66.5 -104.5t-35.5 -123.5q-6 -52 -6.5 -100t16.5 -91t46 -74.5t80.5 -50t121.5 -18.5q121 4 256 31l-31 -181q-122 -29 -281 -34 q51 -68 58 -127q6 -43 0 -74q-16 -96 -94.5 -156.5t-194.5 -50.5q-62 4 -174 59l25 160l122 -39q56 -19 91.5 2.5t40.5 57.5t-2.5 88t-30.5 94q-154 39 -240 170.5t-57 331.5z" />
<glyph unicode="&#xe8;" horiz-adv-x="1130" d="M168 268.5q-22 102.5 0 235.5q19 119 75 217t133.5 160.5t170 96.5t188.5 34q224 0 328 -141t63 -386l-16 -77h-713q-10 -117 58.5 -180.5t187.5 -63.5q184 0 383 61l-29 -174q-74 -28 -189 -51t-224 -23q-108 0 -192.5 31.5t-143 94.5t-80.5 165.5zM426 575h477 q10 109 -47.5 178.5t-153.5 69.5t-174.5 -69.5t-101.5 -178.5zM553 1454h240l90 -315h-185z" />
<glyph unicode="&#xe9;" horiz-adv-x="1130" d="M168 268.5q-22 102.5 0 235.5q19 119 75 217t133.5 160.5t170 96.5t188.5 34q224 0 328 -141t63 -386l-16 -77h-713q-10 -117 58.5 -180.5t187.5 -63.5q184 0 383 61l-29 -174q-74 -28 -189 -51t-224 -23q-108 0 -192.5 31.5t-143 94.5t-80.5 165.5zM426 575h477 q10 109 -47.5 178.5t-153.5 69.5t-174.5 -69.5t-101.5 -178.5zM635 1139l188 315h240l-244 -315h-184z" />
<glyph unicode="&#xea;" horiz-adv-x="1130" d="M168 268.5q-22 102.5 0 235.5q19 119 75 217t133.5 160.5t170 96.5t188.5 34q224 0 328 -141t63 -386l-16 -77h-713q-10 -117 58.5 -180.5t187.5 -63.5q184 0 383 61l-29 -174q-74 -28 -189 -51t-224 -23q-108 0 -192.5 31.5t-143 94.5t-80.5 165.5zM422 1139l258 315 h242l159 -315h-180l-121 182l-178 -182h-180zM426 575h477q10 109 -47.5 178.5t-153.5 69.5t-174.5 -69.5t-101.5 -178.5z" />
<glyph unicode="&#xeb;" horiz-adv-x="1130" d="M168 268.5q-22 102.5 0 235.5q19 119 75 217t133.5 160.5t170 96.5t188.5 34q224 0 328 -141t63 -386l-16 -77h-713q-10 -117 58.5 -180.5t187.5 -63.5q184 0 383 61l-29 -174q-74 -28 -189 -51t-224 -23q-108 0 -192.5 31.5t-143 94.5t-80.5 165.5zM426 575h477 q10 109 -47.5 178.5t-153.5 69.5t-174.5 -69.5t-101.5 -178.5zM473 1274q18 125 150 125q72 0 93.5 -32.5t12.5 -92.5q-19 -123 -147 -123q-67 0 -92 34t-17 89zM815 1274q18 125 150 125q72 0 93.5 -32.5t12.5 -92.5q-19 -123 -147 -123q-67 0 -92 34t-17 89z" />
<glyph unicode="&#xec;" horiz-adv-x="528" d="M143 0l156 991h242l-156 -991h-242zM236 1454h239l92 -315h-184z" />
<glyph unicode="&#xed;" horiz-adv-x="528" d="M143 0l156 991h242l-156 -991h-242zM326 1139l186 315h240l-242 -315h-184z" />
<glyph unicode="&#xee;" horiz-adv-x="528" d="M115 1139l258 315h241l160 -315h-180l-121 182l-178 -182h-180zM143 0l158 991h242l-158 -991h-242z" />
<glyph unicode="&#xef;" horiz-adv-x="528" d="M143 0l156 991h242l-156 -991h-242zM166 1274q18 125 147 125q72 0 94.5 -33t14.5 -92q-19 -123 -150 -123q-125 0 -106 123zM508 1274q18 125 147 125q72 0 94.5 -33t14.5 -92q-19 -123 -150 -123q-125 0 -106 123z" />
<glyph unicode="&#xf0;" horiz-adv-x="1224" d="M164 281q-19 84 0 196q18 110 62 198.5t100.5 143.5t127.5 91.5t138.5 51.5t136.5 15q129 0 197 -59q-35 76 -80 127t-113 94l-270 -144l20 125l150 80q-90 51 -180 78l145 176q140 -49 262 -133l242 129l-21 -125l-133 -72q155 -140 226 -334t32 -436 q-19 -116 -64 -206.5t-103.5 -146t-133.5 -91t-148.5 -48.5t-154.5 -11q-75 -2 -143.5 13.5t-131.5 51t-103.5 94t-59.5 142.5zM408 485q-25 -154 35.5 -237.5t191.5 -83.5q133 0 217.5 81t110.5 240q24 153 -35.5 230.5t-192.5 77.5q-131 0 -216.5 -80.5t-110.5 -227.5z " />
<glyph unicode="&#xf1;" horiz-adv-x="1171" d="M143 0l156 991h217l6 -80q111 105 252 105q43 0 78 -3.5t73.5 -12t68.5 -24.5t58 -39.5t45.5 -59.5t28.5 -82t10.5 -108.5t-12.5 -137.5l-86 -549h-254l90 569q23 142 -17.5 205.5t-137.5 63.5q-48 0 -110.5 -30t-108.5 -67l-115 -741h-242zM457 1133q14 57 29.5 95.5 t43 76t70.5 56.5t102 19q24 0 47.5 -6.5t35.5 -12.5t38 -20q54 -32 68 -32q48 0 78 82h147q-14 -56 -30.5 -95t-44 -76t-71 -56t-102.5 -19q-54 0 -120 39q-10 5 -25 14t-25 14t-18 5q-49 0 -76 -84h2h-149z" />
<glyph unicode="&#xf2;" horiz-adv-x="1249" d="M166 492q18 109 65 200t110 150.5t140 100.5t153 58t150 15q77 2 148.5 -15.5t136 -58t108.5 -100t62 -150t0 -200.5q-17 -108 -63.5 -197t-109.5 -147.5t-140.5 -98.5t-155 -57t-154.5 -15q-74 -2 -144 15t-134 57t-108 98.5t-62.5 147.5t-1.5 197zM410 500 q-24 -155 41.5 -243.5t197.5 -88.5t227 88.5t119 243.5q25 148 -42 236.5t-199 88.5q-131 0 -225 -88t-119 -237zM580 1454h239l92 -315h-184z" />
<glyph unicode="&#xf3;" horiz-adv-x="1249" d="M166 492q18 109 65 200t110 150.5t140 100.5t153 58t150 15q77 2 148.5 -15.5t136 -58t108.5 -100t62 -150t0 -200.5q-17 -108 -63.5 -197t-109.5 -147.5t-140.5 -98.5t-155 -57t-154.5 -15q-74 -2 -144 15t-134 57t-108 98.5t-62.5 147.5t-1.5 197zM410 500 q-24 -155 41.5 -243.5t197.5 -88.5t227 88.5t119 243.5q25 148 -42 236.5t-199 88.5q-131 0 -225 -88t-119 -237zM684 1139l186 315h240l-242 -315h-184z" />
<glyph unicode="&#xf4;" horiz-adv-x="1249" d="M166 492q18 109 65 200t110 150.5t140 100.5t153 58t150 15q77 2 148.5 -15.5t136 -58t108.5 -100t62 -150t0 -200.5q-17 -108 -63.5 -197t-109.5 -147.5t-140.5 -98.5t-155 -57t-154.5 -15q-74 -2 -144 15t-134 57t-108 98.5t-62.5 147.5t-1.5 197zM410 500 q-24 -155 41.5 -243.5t197.5 -88.5t227 88.5t119 243.5q25 148 -42 236.5t-199 88.5q-131 0 -225 -88t-119 -237zM477 1139l256 315h242l162 -315h-181l-120 182l-179 -182h-180z" />
<glyph unicode="&#xf5;" horiz-adv-x="1249" d="M166 492q18 109 65 200t110 150.5t140 100.5t153 58t150 15q77 2 148.5 -15.5t136 -58t108.5 -100t62 -150t0 -200.5q-17 -108 -63.5 -197t-109.5 -147.5t-140.5 -98.5t-155 -57t-154.5 -15q-74 -2 -144 15t-134 57t-108 98.5t-62.5 147.5t-1.5 197zM410 500 q-24 -155 41.5 -243.5t197.5 -88.5t227 88.5t119 243.5q25 148 -42 236.5t-199 88.5q-131 0 -225 -88t-119 -237zM496 1133q14 57 29.5 95.5t43 76t70.5 56.5t102 19q24 0 47.5 -6.5t35.5 -12.5t38 -20q54 -32 68 -32q48 0 78 82h147q-14 -56 -30 -95t-43 -76t-70.5 -56 t-102.5 -19q-57 0 -123 39q-11 5 -25.5 14t-24 14t-17.5 5q-49 0 -76 -84h2h-149z" />
<glyph unicode="&#xf6;" horiz-adv-x="1249" d="M166 492q18 109 65 200t110 150.5t140 100.5t153 58t150 15q77 2 148.5 -15.5t136 -58t108.5 -100t62 -150t0 -200.5q-17 -108 -63.5 -197t-109.5 -147.5t-140.5 -98.5t-155 -57t-154.5 -15q-74 -2 -144 15t-134 57t-108 98.5t-62.5 147.5t-1.5 197zM410 500 q-24 -155 41.5 -243.5t197.5 -88.5t227 88.5t119 243.5q25 148 -42 236.5t-199 88.5q-131 0 -225 -88t-119 -237zM528 1274q18 125 148 125q72 0 94.5 -32.5t13.5 -92.5q-19 -123 -149 -123q-126 0 -107 123zM870 1274q18 125 148 125q72 0 94.5 -32.5t13.5 -92.5 q-19 -123 -149 -123q-126 0 -107 123z" />
<glyph unicode="&#xf7;" horiz-adv-x="1146" d="M193 543l28 186h934l-29 -186h-933zM467 272q10 68 47 104t123 36t111.5 -36t15.5 -104q-21 -139 -172 -139q-82 0 -108.5 37t-16.5 102zM580 989q10 67 49 103t125 36q85 0 109 -35.5t14 -103.5q-10 -65 -48 -101t-120 -36t-110.5 36.5t-18.5 100.5z" />
<glyph unicode="&#xf8;" horiz-adv-x="1222" d="M145 -78l129 168q-149 149 -106 402q18 110 63.5 200.5t106.5 150t135 100t148.5 58t148.5 15.5q99 0 193 -33q20 23 42.5 52.5t48.5 64.5t40 53l135 -94l-121 -158q145 -132 100 -403q-19 -117 -64 -209t-104 -150.5t-133 -96.5t-148.5 -52.5t-154.5 -12.5 q-108 -3 -196 31l-113 -151zM412 500q-21 -131 12 -211l412 530q-46 12 -95 12q-129 0 -216.5 -90t-112.5 -241zM543 176q35 -12 92 -12q131 0 217.5 87t112.5 249q21 126 -13 205z" />
<glyph unicode="&#xf9;" horiz-adv-x="1228" d="M190 318q0 57 11 124l88 549h252l-90 -569q-22 -141 17.5 -203.5t137.5 -62.5q49 0 113 29.5t102 64.5l121 741h242l-121 -743q-8 -49 14 -68.5t54.5 -14t72.5 24.5l-26 -170q-125 -43 -203 -43q-61 0 -105.5 37.5t-46.5 71.5q-54 -54 -130 -81.5t-140 -27.5 q-33 0 -62 2.5t-62.5 9t-61.5 17.5t-56.5 30t-49.5 43.5t-38 60t-25 78.5t-8 100zM578 1454h239l90 -315h-184z" />
<glyph unicode="&#xfa;" horiz-adv-x="1228" d="M190 318q0 57 11 124l88 549h252l-90 -569q-22 -141 17.5 -203.5t137.5 -62.5q49 0 113 29.5t102 64.5l121 741h242l-121 -743q-8 -49 14 -68.5t54.5 -14t72.5 24.5l-26 -170q-125 -43 -203 -43q-61 0 -105.5 37.5t-46.5 71.5q-54 -54 -130 -81.5t-140 -27.5 q-33 0 -62 2.5t-62.5 9t-61.5 17.5t-56.5 30t-49.5 43.5t-38 60t-25 78.5t-8 100zM575 1139l189 315h240l-244 -315h-185z" />
<glyph unicode="&#xfb;" horiz-adv-x="1228" d="M190 318q0 57 11 124l88 549h252l-90 -569q-22 -141 17.5 -203.5t137.5 -62.5q49 0 113 29.5t102 64.5l121 741h242l-121 -743q-8 -49 14 -68.5t54.5 -14t72.5 24.5l-26 -170q-125 -43 -203 -43q-61 0 -105.5 37.5t-46.5 71.5q-54 -54 -130 -81.5t-140 -27.5 q-33 0 -62 2.5t-62.5 9t-61.5 17.5t-56.5 30t-49.5 43.5t-38 60t-25 78.5t-8 100zM436 1139l258 315h242l160 -315h-181l-120 182l-179 -182h-180z" />
<glyph unicode="&#xfc;" horiz-adv-x="1228" d="M190 318q0 57 11 124l88 549h252l-90 -569q-22 -141 17.5 -203.5t137.5 -62.5q49 0 113 29.5t102 64.5l121 741h242l-121 -743q-8 -49 14 -68.5t54.5 -14t72.5 24.5l-26 -170q-125 -43 -203 -43q-61 0 -105.5 37.5t-46.5 71.5q-54 -54 -130 -81.5t-140 -27.5 q-33 0 -62 2.5t-62.5 9t-61.5 17.5t-56.5 30t-49.5 43.5t-38 60t-25 78.5t-8 100zM489 1274q18 125 148 125q72 0 94.5 -32.5t13.5 -92.5q-19 -123 -149 -123q-126 0 -107 123zM831 1274q18 125 148 125q72 0 94.5 -32.5t13.5 -92.5q-19 -123 -149 -123q-126 0 -107 123z " />
<glyph unicode="&#xfd;" horiz-adv-x="1079" d="M59 -418l29 187l117 2q45 3 75.5 22t59.5 70l80 164l-240 964h266l144 -680l352 680h266q-659 -1191 -667 -1208q-33 -66 -69 -107t-81.5 -62t-94 -27.5t-120.5 -4.5h-117zM582 1139l188 315h240l-244 -315h-184z" />
<glyph unicode="&#xfe;" horiz-adv-x="1204" d="M88 -336l211 1327l68 420h231l-76 -496q43 43 129.5 72t157.5 29q95 0 174 -35t133 -99t75.5 -163.5t2.5 -220.5q-26 -162 -110 -282.5t-198.5 -179.5t-242.5 -59q-72 0 -150.5 28.5t-107.5 70.5l-66 -412h-231zM424 221q94 -49 176 -49q73 0 136 29t105.5 76.5 t70.5 103.5t38 115q5 47 3 93t-20 88t-46 74t-74.5 51t-105.5 19q-77 0 -197 -51z" />
<glyph unicode="&#xff;" horiz-adv-x="1079" d="M59 -418l29 187l117 2q45 3 75.5 22t59.5 70l80 164l-240 964h266l144 -680l352 680h266q-659 -1191 -667 -1208q-33 -66 -69 -107t-81.5 -62t-94 -27.5t-120.5 -4.5h-117zM449 1274q18 125 147 125q72 0 94.5 -33t14.5 -92q-19 -123 -150 -123q-125 0 -106 123z M791 1274q18 125 147 125q72 0 94.5 -33t14.5 -92q-19 -123 -150 -123q-125 0 -106 123z" />
<glyph unicode="&#x152;" horiz-adv-x="2310" d="M213 700q24 153 86.5 279t146 209t186.5 139.5t206.5 81.5t208.5 25q136 0 253.5 -43t196.5 -131l23 151h899l-33 -209h-651l-60 -371h606l-32 -208h-607l-53 -326q-15 -88 84 -88h555l-33 -209h-567q-137 3 -206.5 40.5t-82.5 123.5q-215 -187 -526 -187 q-323 2 -487.5 198.5t-112.5 524.5zM459 700q-36 -229 70 -373.5t315 -144.5q214 0 369 144.5t190 373.5q21 133 -4 237.5t-83.5 166.5t-135 93.5t-164.5 31.5q-69 0 -138.5 -19t-138 -61t-124.5 -102.5t-97.5 -150t-58.5 -196.5z" />
<glyph unicode="&#x153;" horiz-adv-x="1961" d="M166 492q18 109 65 200t110 150.5t140 100.5t153 58t150 15q281 8 381 -174q78 82 184.5 126t217.5 44q224 0 327.5 -141t63.5 -386l-16 -77h-713q-10 -117 57.5 -180.5t186.5 -63.5q186 0 382 61l-28 -174q-71 -28 -188 -51t-226 -23q-260 0 -364 164q-88 -85 -203 -126 t-230 -38q-74 -2 -144 15t-134 57t-108 98.5t-62.5 147.5t-1.5 197zM410 500q-24 -155 41.5 -243.5t197.5 -88.5t227 88.5t119 243.5q25 148 -42 236.5t-199 88.5q-131 0 -225 -88t-119 -237zM1255 575h478q12 109 -45.5 178.5t-153.5 69.5t-175 -69.5t-104 -178.5z" />
<glyph unicode="&#x178;" horiz-adv-x="1204" d="M238 1411h286l211 -580l393 580h283l-590 -805l-94 -606h-248l94 606zM569 1694q10 59 43.5 92t104.5 33q73 0 95.5 -33t12.5 -92q-19 -123 -147 -123q-67 0 -92 34t-17 89zM911 1694q10 59 43.5 92t104.5 33q73 0 95.5 -33t12.5 -92q-19 -123 -147 -123q-67 0 -92 34 t-17 89z" />
<glyph unicode="&#x2c6;" horiz-adv-x="1089" d="M397 1139l258 315h242l160 -315h-180l-121 182l-178 -182h-181z" />
<glyph unicode="&#x2dc;" horiz-adv-x="946" d="M344 1133q15 57 31 95t43.5 76t71 57t102.5 19q24 0 47.5 -7t33.5 -12t38 -20q5 -3 15 -9.5t15.5 -9t12.5 -6.5t13 -5.5t11 -1.5q47 0 80 82h148q-15 -57 -31 -95t-43.5 -75.5t-71 -56.5t-102.5 -19q-57 0 -123 39q-11 5 -25 14t-23.5 14t-17.5 5q-50 0 -77 -84h2h-150z " />
<glyph unicode="&#x2000;" horiz-adv-x="987" />
<glyph unicode="&#x2001;" horiz-adv-x="1974" />
<glyph unicode="&#x2002;" horiz-adv-x="987" />
<glyph unicode="&#x2003;" horiz-adv-x="1974" />
<glyph unicode="&#x2004;" horiz-adv-x="658" />
<glyph unicode="&#x2005;" horiz-adv-x="493" />
<glyph unicode="&#x2006;" horiz-adv-x="329" />
<glyph unicode="&#x2007;" horiz-adv-x="329" />
<glyph unicode="&#x2008;" horiz-adv-x="246" />
<glyph unicode="&#x2009;" horiz-adv-x="394" />
<glyph unicode="&#x200a;" horiz-adv-x="109" />
<glyph unicode="&#x2010;" horiz-adv-x="946" d="M193 428l32 205h697l-33 -205h-696z" />
<glyph unicode="&#x2011;" horiz-adv-x="946" d="M193 428l32 205h697l-33 -205h-696z" />
<glyph unicode="&#x2012;" horiz-adv-x="946" d="M193 428l32 205h697l-33 -205h-696z" />
<glyph unicode="&#x2013;" horiz-adv-x="1234" d="M199 438l32 203h977l-32 -203h-977z" />
<glyph unicode="&#x2014;" horiz-adv-x="1646" d="M199 438l32 203h1389l-33 -203h-1388z" />
<glyph unicode="&#x2018;" horiz-adv-x="534" d="M223 952l269 457h198l-211 -457h-256z" />
<glyph unicode="&#x2019;" horiz-adv-x="530" d="M236 954l208 457h256l-266 -457h-198z" />
<glyph unicode="&#x201a;" horiz-adv-x="540" d="M41 -76l209 457h256l-266 -457h-199z" />
<glyph unicode="&#x201c;" horiz-adv-x="856" d="M225 954l267 457h208l-229 -457h-246zM565 954l240 457h207l-209 -457h-238z" />
<glyph unicode="&#x201d;" horiz-adv-x="851" d="M236 954l208 457h238l-240 -457h-206zM547 954l229 457h246l-266 -457h-209z" />
<glyph unicode="&#x201e;" horiz-adv-x="876" d="M41 -76l209 457h252l-254 -457h-207zM362 -76l242 457h238l-267 -457h-213z" />
<glyph unicode="&#x2022;" horiz-adv-x="794" d="M198 418q-7 50 5 108q10 62 29.5 109t55.5 86.5t96 60.5t142 21t135 -21.5t74.5 -59t27 -88t-6.5 -108.5q-21 -129 -95 -202.5t-227 -73.5q-79 0 -132 21.5t-75 59t-29 87.5z" />
<glyph unicode="&#x2026;" horiz-adv-x="1636" d="M123 117q10 67 47 103t121 36q86 0 112.5 -36t16.5 -103q-21 -137 -172 -137q-81 0 -108 36t-17 101zM686 117q10 67 47 103t121 36q86 0 112.5 -36t16.5 -103q-21 -137 -172 -137q-81 0 -108 36t-17 101zM1249 117q10 67 47 103t121 36q86 0 112.5 -36t16.5 -103 q-21 -137 -172 -137q-81 0 -108 36t-17 101z" />
<glyph unicode="&#x202f;" horiz-adv-x="394" />
<glyph unicode="&#x2039;" horiz-adv-x="681" d="M152 506l354 426h246l-357 -426l219 -428h-245z" />
<glyph unicode="&#x203a;" horiz-adv-x="681" d="M90 78l354 428l-219 426h246l217 -426l-352 -428h-246z" />
<glyph unicode="&#x205f;" horiz-adv-x="493" />
<glyph unicode="&#x20ac;" horiz-adv-x="1318" d="M170 469l20 147h187q4 25 8 48.5t5.5 37t2.5 17.5h-184l22 147h189q36 115 98 208t136.5 154t164 102.5t177.5 59t178 17.5q100 0 159 -12h-2l84 -13l-33 -198q-94 28 -194 28q-179 0 -315 -82.5t-203 -263.5h530l-22 -147h-541q-5 -26 -8.5 -50t-4.5 -36t-3 -17h538 l-20 -147h-527q4 -63 22 -112t49 -80.5t67 -52.5t84.5 -31.5t92 -14.5t97.5 -4q96 0 205 29l-35 -199l-84 -12q-62 -12 -168 -12q-90 0 -169.5 14t-156 49t-131.5 89t-89 140.5t-36 196.5h-190z" />
<glyph unicode="&#x2122;" horiz-adv-x="1660" d="M272 924l23 129h762l125 -467l276 467h170l-67 -727h-158l49 485l-242 -399h-116l-111 395l-109 -481h-159l141 598h-201l-96 -598h-160l97 598h-224z" />
<glyph unicode="&#xe000;" horiz-adv-x="993" d="M0 0v993h993v-993h-993z" />
</font>
</defs>
</svg>
