<?xml version="1.0" standalone="no"?>
<!DOCTYPE svg PUBLIC "-//W3C//DTD SVG 1.1//EN" "http://www.w3.org/Graphics/SVG/1.1/DTD/svg11.dtd" >
<svg xmlns="http://www.w3.org/2000/svg">
<metadata></metadata>
<defs>
<font id="kyrial_display_prosemibold" horiz-adv-x="1640" >
<font-face units-per-em="2048" ascent="1536" descent="-512" />
<missing-glyph horiz-adv-x="450" />
<glyph unicode="&#xfb01;" horiz-adv-x="1329" d="M53 809v182h166v146q0 50 8.5 92t21.5 72t35.5 53.5t42.5 38.5t52 25.5t53.5 16t57.5 8t55 3t53 0.5h168v-186h-156q-92 0 -121.5 -28.5t-29.5 -107.5v-133h729v-991h-242v809h-487v-809h-240v809h-166zM926 1298q0 64 30 100t109 36t109 -36t30 -100q0 -135 -139 -135 q-74 0 -106.5 37.5t-32.5 97.5z" />
<glyph unicode="&#xfb02;" horiz-adv-x="1415" d="M53 809v182h166v146q0 50 8.5 92t21.5 72t35.5 53.5t42.5 38.5t52 25.5t53.5 16t57.5 8t55 3t53 0.5h168v-186h-156q-92 0 -121.5 -28.5t-29.5 -107.5v-133h266v-182h-266v-809h-240v809h-166zM926 285v1169h243v-1147q0 -30 3.5 -46t17 -35t46.5 -27.5t87 -8.5h63v-202 h-98q-194 0 -278 64.5t-84 232.5z" />
<glyph unicode="&#xfb03;" horiz-adv-x="2109" d="M53 809v182h166v146q0 50 8.5 92t21.5 72t35.5 53.5t42.5 38.5t52 25.5t53.5 16t57.5 8t55 3t53 0.5h168v-186h-156q-92 0 -121.5 -28.5t-29.5 -107.5v-133h540v146q0 50 8.5 92t21.5 72t35.5 53.5t42.5 38.5t52 25.5t53.5 16t57.5 8t55 3t53 0.5h168v-186h-155 q-93 0 -122.5 -28.5t-29.5 -107.5v-133h729v-991h-242v809h-487v-809h-240v809h-540v-809h-240v809h-166zM1706 1298q0 64 30 100t109 36t109.5 -36t30.5 -100q0 -135 -140 -135q-74 0 -106.5 37.5t-32.5 97.5z" />
<glyph unicode="&#xfb04;" horiz-adv-x="2195" d="M53 809v182h166v146q0 50 8.5 92t21.5 72t35.5 53.5t42.5 38.5t52 25.5t53.5 16t57.5 8t55 3t53 0.5h168v-186h-156q-92 0 -121.5 -28.5t-29.5 -107.5v-133h540v146q0 50 8.5 92t21.5 72t35.5 53.5t42.5 38.5t52 25.5t53.5 16t57.5 8t55 3t53 0.5h168v-186h-155 q-93 0 -122.5 -28.5t-29.5 -107.5v-133h266v-182h-266v-809h-240v809h-540v-809h-240v809h-166zM1706 285q0 -168 84 -232.5t278 -64.5h99v202h-64q-54 0 -87 8.5t-46.5 27.5t-16.5 35t-3 46v1120h-244v-1142z" />
<glyph horiz-adv-x="2048" />
<glyph horiz-adv-x="2048" />
<glyph unicode="&#xd;" horiz-adv-x="2048" />
<glyph unicode=" "  horiz-adv-x="450" />
<glyph unicode="&#x09;" horiz-adv-x="450" />
<glyph unicode="&#xa0;" horiz-adv-x="450" />
<glyph unicode="!" horiz-adv-x="538" d="M121 117q0 67 31.5 103t115.5 36q86 0 118 -36t32 -103q0 -64 -34 -100.5t-116 -36.5q-81 0 -114 36.5t-33 100.5zM147 1411h244l-24 -1040h-195z" />
<glyph unicode="&#x22;" horiz-adv-x="819" d="M113 1411h245l-39 -592h-169zM463 1411h246l-39 -592h-170z" />
<glyph unicode="#" horiz-adv-x="1507" d="M86 358l45 201h225l62 256h-223l45 201h227l90 395h223l-96 -395h248l92 395h221l-94 -395h270l-45 -201h-268l-64 -256h269l-43 -201h-273l-84 -358h-225l88 358h-244l-83 -358h-224l86 358h-225zM580 559h239l64 256h-244z" />
<glyph unicode="$" horiz-adv-x="1204" d="M102 1028q0 162 107 266t313 131v205h168v-198q87 -4 192.5 -32.5t168.5 -56.5v-213q-133 48 -220 69.5t-176 21.5q-150 0 -224 -57t-77 -146q0 -10 1 -18.5t8.5 -29.5t21 -38t43 -36.5t70.5 -31.5l80 -26q79 -25 130 -42.5t114.5 -44t103 -50.5t80.5 -59.5t62.5 -74 t34 -89.5t9.5 -111q-8 -95 -41.5 -165.5t-90 -115t-127.5 -69t-163 -33.5v-224h-168v220q-169 11 -397 100v227q94 -44 216.5 -81.5t229.5 -37.5q64 0 112.5 9.5t88 31.5t62 61t26.5 95q1 28 -10 52t-37 45t-54 38t-75.5 35.5t-84.5 31t-97 31.5q-59 18 -82 29 q-67 23 -120 57t-85.5 66.5t-56 72.5t-34 67.5t-16 59.5t-6 40.5t-0.5 17.5z" />
<glyph unicode="%" horiz-adv-x="1669" d="M92 1077q0 90 31.5 160t83.5 109.5t111.5 59t123.5 17.5q53 0 101 -10t94.5 -34.5t80.5 -62.5t54.5 -98.5t20.5 -136.5q0 -168 -96 -257t-255 -89q-64 -2 -123.5 17t-111.5 58t-83.5 108t-31.5 159zM174 0l1129 1411h180l-1129 -1411h-180zM301 1083q0 -85 37 -132.5 t104 -47.5q64 0 101 47.5t37 132.5q0 79 -37.5 125.5t-100.5 46.5q-67 0 -104 -46.5t-37 -125.5zM877 328q0 90 31.5 160t83.5 109.5t111.5 59t123.5 17.5q68 0 126.5 -17t110.5 -54.5t82.5 -106.5t30.5 -164q0 -168 -95.5 -257t-254.5 -89q-64 -2 -123.5 17t-111.5 58 t-83.5 108t-31.5 159zM1085 334q0 -85 37.5 -132.5t104.5 -47.5q64 0 100.5 47.5t36.5 132.5q0 79 -37 125.5t-100 46.5q-67 0 -104.5 -46.5t-37.5 -125.5z" />
<glyph unicode="&#x26;" horiz-adv-x="1320" d="M137 377q0 8 0.5 17t3.5 37t8.5 53t18.5 60t30 64.5t45.5 59.5t63.5 51q-48 20 -83 58t-51 73.5t-25 77t-10 57.5t-1 27q5 187 134.5 300t367.5 113q220 0 332 -53v-205q-97 30 -170.5 42t-165.5 12q-120 0 -188 -66.5t-68 -155.5q0 -5 1 -14t8.5 -33.5t20.5 -45.5 t41.5 -43.5t67.5 -33.5h764v-198h-197v-502q-68 -50 -211.5 -99.5t-234.5 -49.5q-240 0 -368.5 106t-133.5 291zM378 400l1 -13q3 -88 68.5 -144.5t187.5 -56.5q114 0 207 50v395h-242q-48 0 -86.5 -13.5t-61 -35t-38.5 -47.5t-22.5 -52t-10 -47.5t-3.5 -35.5z" />
<glyph unicode="'" horiz-adv-x="468" d="M113 1411h245l-39 -592h-169z" />
<glyph unicode="(" horiz-adv-x="724" d="M88 498q0 425 156 669t415 244v-176q-53 -1 -101.5 -27t-92.5 -84t-76 -142.5t-51 -210t-19 -277.5q0 -151 19 -275t51 -207.5t76 -140.5t92.5 -82.5t101.5 -26.5v-180q-259 0 -415 246.5t-156 669.5z" />
<glyph unicode=")" horiz-adv-x="724" d="M66 -238q53 1 101.5 26.5t92.5 82.5t76 140.5t51 207.5t19 275q0 152 -19 277.5t-51 210t-76 142.5t-92.5 84t-101.5 27v176q259 0 415 -244t156 -669q0 -423 -156 -669.5t-415 -246.5v180z" />
<glyph unicode="*" horiz-adv-x="976" d="M102 915v205l242 -24l-135 204l172 101l104 -232l107 236l172 -102l-135 -207l245 24v-205l-245 23l135 -205l-172 -102l-105 241l-106 -239l-172 100l135 205z" />
<glyph unicode="+" horiz-adv-x="1118" d="M92 453v213h352v350h230v-350h352v-213h-352v-353h-230v353h-352z" />
<glyph unicode="," horiz-adv-x="538" d="M2 -225l172 458h258l-225 -458h-205z" />
<glyph unicode="-" horiz-adv-x="946" d="M125 428v205h696v-205h-696z" />
<glyph unicode="." horiz-adv-x="509" d="M106 117q0 67 32 103t116 36q86 0 117.5 -36t31.5 -103q0 -65 -33.5 -101t-115.5 -36q-148 0 -148 137z" />
<glyph unicode="/" horiz-adv-x="933" d="M70 0l575 1411h221l-573 -1411h-223z" />
<glyph unicode="0" horiz-adv-x="1296" d="M111 690q0 151 32 274.5t84 204t122.5 135.5t145 79t152.5 24q66 0 129 -17t124.5 -52.5t112.5 -94t90 -135.5t61 -184t22 -234q0 -325 -147 -517.5t-392 -192.5t-390.5 192.5t-145.5 517.5zM354 690q0 -222 83.5 -364t211.5 -142q127 0 211 142.5t84 363.5 q0 129 -27 231t-71 162t-95 90.5t-104 30.5q-51 0 -101.5 -30.5t-94 -90.5t-70.5 -162t-27 -231z" />
<glyph unicode="1" horiz-adv-x="929" d="M115 0v205h258v938l-256 -115v211l311 147h190v-1181h259v-205h-762z" />
<glyph unicode="2" horiz-adv-x="1150" d="M86 0v156l514 508q57 53 97 104.5t58.5 85t28.5 72t10.5 51t0.5 35.5q-3 85 -69.5 139.5t-190.5 54.5q-182 0 -394 -125v215q196 115 389 115q240 0 372 -107.5t132 -281.5q0 -18 -1.5 -36.5t-15.5 -68t-38.5 -99.5t-78 -123.5t-126.5 -147.5l-348 -342h610v-205h-950z " />
<glyph unicode="3" horiz-adv-x="1157" d="M104 61v205q216 -80 431 -80q123 0 186 57t65 146q0 17 -5 40.5t-18.5 61t-48.5 68t-85 41.5h-295v197h293q47 11 80.5 36.5t48 53.5t22.5 54t8 43v17q-2 87 -65.5 146t-185.5 59q-97 0 -187.5 -18.5t-208.5 -61.5v205q63 26 182.5 53t208.5 27q239 0 368.5 -106.5 t135.5 -292.5q0 -6 -0.5 -15.5t-4.5 -35t-11 -50t-21.5 -57t-35 -60t-53 -54t-72.5 -44.5q54 -22 94.5 -63.5t59 -80t30 -82t13 -62.5t1.5 -29q-6 -186 -135.5 -292.5t-368.5 -106.5q-92 0 -230.5 28t-195.5 53z" />
<glyph unicode="4" horiz-adv-x="1226" d="M53 319v156l660 936h235v-889h203v-203h-203v-319h-241v319h-654zM324 522h383v543z" />
<glyph unicode="5" horiz-adv-x="1198" d="M104 61l27 207q224 -82 453 -82q125 0 200.5 71.5t75.5 178.5q0 14 -0.5 25t-5.5 37.5t-13.5 46.5t-26.5 45t-43 42t-65 28.5t-90 11.5h-473l64 739h823v-205h-598l-29 -323h228q106 0 189 -24.5t136 -66t87.5 -100.5t48.5 -124t14 -142q-3 -90 -40.5 -171t-103.5 -142 t-165 -97t-217 -36q-91 0 -255.5 28.5t-220.5 52.5z" />
<glyph unicode="6" horiz-adv-x="1261" d="M113 561q0 421 160 635.5t462 214.5q148 0 338 -61v-195q-68 28 -155 43.5t-152 15.5q-182 0 -286 -123.5t-128 -334.5q39 57 107.5 94.5t126 50t106.5 12.5q117 0 210.5 -38.5t151 -103.5t87.5 -145t30 -169q0 -217 -137 -347t-381 -130q-253 0 -396.5 147.5 t-143.5 433.5zM362 457q0 -122 72.5 -197.5t214.5 -75.5q121 0 203 68t82 205q0 111 -73 180.5t-204 69.5q-138 0 -216.5 -65t-78.5 -185z" />
<glyph unicode="7" horiz-adv-x="1081" d="M88 1204v207h952v-180l-684 -1231h-266l668 1204h-670z" />
<glyph unicode="8" horiz-adv-x="1269" d="M115 379q0 8 0.5 19t4 41t10.5 57.5t22 63.5t35.5 64t53.5 53.5t74 37.5q-48 20 -83 60t-51 77t-25 82t-10 62t-1 30q6 174 129 277t349 104h24q226 -1 348.5 -104t128.5 -277q0 -13 -1 -30t-10 -62t-25 -82t-51 -77t-83 -60q48 -14 84.5 -44.5t57 -68.5t34 -73 t18.5 -72.5t6 -52.5t1 -25q-6 -184 -138.5 -291.5t-369.5 -107.5h-24q-237 0 -369.5 107.5t-138.5 291.5zM362 397q2 -87 66 -147.5t180 -63.5h54q116 3 179.5 63.5t65.5 147.5q0 9 -1.5 23.5t-14 52.5t-35 67t-71 52.5t-115.5 23.5h-74q-64 0 -111.5 -22.5t-70 -55 t-35.5 -64.5t-15 -54zM385 1016q0 -4 0.5 -11.5t5 -29.5t12 -41.5t23.5 -44t37 -41.5t55 -29t76 -12h82q42 0 76.5 11.5t55.5 30t37 40.5t23 44.5t11.5 41t4.5 29.5l1 12q-3 80 -60 135t-166 55h-49q-109 -3 -165.5 -56.5t-59.5 -133.5z" />
<glyph unicode="9" horiz-adv-x="1259" d="M88 934q0 217 137 347t381 130q253 0 397 -148t144 -434q0 -421 -160.5 -635t-462.5 -214q-148 0 -338 61v195q68 -28 156 -44t152 -16q182 0 285.5 124t127.5 335q-57 -84 -151 -121t-189 -37q-117 0 -210.5 38.5t-151 103.5t-87.5 145.5t-30 169.5zM326 934 q0 -111 72.5 -180.5t203.5 -69.5q138 0 216.5 65t78.5 185q0 122 -72.5 197t-214.5 75q-121 0 -202.5 -67.5t-81.5 -204.5z" />
<glyph unicode=":" horiz-adv-x="546" d="M125 117q0 67 31.5 103t115.5 36q86 0 118 -36t32 -103q0 -64 -34 -100.5t-116 -36.5q-81 0 -114 36.5t-33 100.5zM125 877q0 67 31.5 103t115.5 36q86 0 118 -36t32 -103q0 -138 -150 -138q-81 0 -114 36.5t-33 101.5z" />
<glyph unicode=";" horiz-adv-x="591" d="M14 -225h205l225 458h-258zM164 852q0 67 31.5 103t115.5 36q86 0 118 -36t32 -103q0 -64 -34 -100.5t-116 -36.5q-81 0 -114 36.5t-33 100.5z" />
<glyph unicode="&#x3c;" horiz-adv-x="1282" d="M90 444v213l1059 385v-235l-752 -258l752 -254v-234z" />
<glyph unicode="=" horiz-adv-x="1214" d="M141 268v213h932v-213h-932zM141 686v213h932v-213h-932z" />
<glyph unicode="&#x3e;" horiz-adv-x="1282" d="M133 61v234l752 254q-66 23 -337.5 116.5t-414.5 141.5v235l1059 -385v-213z" />
<glyph unicode="?" horiz-adv-x="1024" d="M96 1319q73 52 149 74.5t167 29.5q229 13 376.5 -99t147.5 -296q0 -285 -277 -407q-176 -71 -176 -273h-229q-9 163 73 285t234 192q44 21 73.5 51t41 60.5t15.5 51.5t3 36q0 91 -71 142t-197 51q-128 0 -315 -99zM223 117q0 67 32 103t116 36q86 0 117.5 -36t31.5 -103 q0 -65 -33.5 -101t-115.5 -36q-148 0 -148 137z" />
<glyph unicode="@" horiz-adv-x="2185" d="M98 506q0 187 81.5 359t218 296t322.5 197.5t388 73.5q141 0 267.5 -25t223.5 -69t178.5 -104t138 -129t95.5 -145t57.5 -151.5t18.5 -149.5q0 -107 -20 -199t-54.5 -159.5t-82.5 -121.5t-101 -88.5t-112.5 -58t-115.5 -33t-112 -9.5q-110 0 -185 53.5t-83 118.5 q-29 -41 -109.5 -76t-157.5 -35q-33 0 -70 6t-80.5 21t-80.5 39t-71 59.5t-52.5 84t-24.5 112t13 143.5q23 103 80 190t129.5 142t151 85t149.5 30q131 0 211 -74l32 74h232l-119 -547q-54 -246 62 -246q41 0 89 13t103.5 47t99.5 85t73.5 136t29.5 190q0 119 -48 222 t-129 176t-185 125.5t-216.5 78t-224.5 25.5q-159 0 -309 -61t-261 -163.5t-178 -243.5t-67 -294q0 -222 108.5 -396.5t304 -272t445.5 -97.5q454 0 784 258v-178q-130 -116 -350.5 -183t-445.5 -67q-190 0 -356 48t-290.5 134.5t-214 203.5t-135 257t-45.5 293zM848 510 q-35 -111 16 -174.5t133 -63.5q97 0 172 52l78 387q-60 39 -135 39q-96 0 -164.5 -70t-99.5 -170z" />
<glyph unicode="A" horiz-adv-x="1335" d="M39 0q128 436 235.5 746.5t270.5 664.5h246q164 -356 273 -670.5t232 -740.5h-245q-74 265 -119 412h-526l-121 -412h-246zM467 604h401q-85 256 -200 541q-118 -287 -201 -541z" />
<glyph unicode="B" horiz-adv-x="1325" d="M180 0v1411h602q41 0 86 -9.5t97.5 -37t93 -68.5t67.5 -111t27 -159q0 -85 -36 -164t-111 -133q93 -40 154 -125t61 -207q0 -202 -123 -299.5t-338 -97.5h-580zM428 209h332q90 0 147.5 51.5t57.5 147.5q0 59 -19.5 102t-51.5 65t-65 31.5t-69 9.5h-332v-407zM428 815 h299q80 0 126 58t46 137q0 90 -55.5 141t-128.5 51h-287v-387z" />
<glyph unicode="C" horiz-adv-x="1331" d="M100 702q0 136 39.5 255.5t107.5 205.5t156.5 148t188.5 92.5t203 30.5q128 0 249 -16.5t193 -37.5v-200q-214 43 -393 43q-214 0 -354 -141.5t-140 -379.5q0 -118 41 -217t110 -163t157.5 -99t185.5 -35q58 0 84.5 1t103 9.5t205.5 28.5v-198q-208 -52 -442 -52 q-103 0 -202.5 29t-189 89.5t-157 145.5t-107 204t-39.5 257z" />
<glyph unicode="D" horiz-adv-x="1431" d="M180 0v1411h488q130 0 247.5 -46t210 -132t147 -223.5t54.5 -307.5q0 -139 -35.5 -255t-97.5 -197.5t-146 -138.5t-180 -84t-200 -27h-488zM428 209h154q240 0 363.5 124.5t123.5 368.5q0 500 -487 500h-154v-993z" />
<glyph unicode="E" horiz-adv-x="1187" d="M174 287v1124h899v-209h-651v-371h606v-208h-606v-326q0 -41 20.5 -64.5t75.5 -23.5h555v-209h-567q-174 5 -251.5 68.5t-80.5 218.5z" />
<glyph unicode="F" horiz-adv-x="1083" d="M180 0v1411h826v-209h-580v-371h535v-208h-535v-623h-246z" />
<glyph unicode="G" horiz-adv-x="1472" d="M100 702q0 171 61.5 311.5t166.5 231t240.5 140t287.5 49.5q205 0 426 -62v-198q-193 30 -251 36.5t-126 6.5q-245 0 -397 -138.5t-152 -376.5q0 -119 40 -216.5t108 -160t155 -96.5t183 -34q135 0 258 32v318h-352v207h600v-668q-133 -62 -264.5 -84.5t-290.5 -22.5 q-103 0 -202 29t-188 89.5t-156.5 145.5t-107 204t-39.5 257z" />
<glyph unicode="H" horiz-adv-x="1472" d="M180 0v1411h248v-573h616v573h248v-1411h-248v629h-616v-629h-248z" />
<glyph unicode="I" horiz-adv-x="608" d="M180 0v1411h248v-1411h-248z" />
<glyph unicode="J" horiz-adv-x="647" d="M-248 -205q132 -12 217 -12q61 0 104.5 14.5t78.5 50.5t52 103t17 166v1294h246v-1333q0 -121 -31 -212.5t-78.5 -144.5t-115.5 -86t-131 -44t-136 -11q-74 0 -223 17v198z" />
<glyph unicode="K" horiz-adv-x="1249" d="M180 0v1411h248v-559q223 218 487 559h281q-286 -391 -635 -733q354 -264 696 -678h-311q-252 299 -518 508v-508h-248z" />
<glyph unicode="L" horiz-adv-x="1128" d="M174 287v1124h248v-1096q0 -49 25.5 -77.5t91.5 -28.5h551v-209h-584q-174 5 -251.5 68.5t-80.5 218.5z" />
<glyph unicode="M" horiz-adv-x="1912" d="M133 0l111 1411h268q245 -439 444 -969q197 525 445 969h268l111 -1411h-240l-80 1028q-31 -56 -60.5 -114t-61.5 -129t-52.5 -117.5t-56 -134t-49 -121t-53 -135.5t-48.5 -125h-245q-9 23 -48.5 125t-53 135.5t-49 121t-56 134t-52.5 117.5t-61.5 129t-60.5 114 l-80 -1028h-240z" />
<glyph unicode="N" horiz-adv-x="1458" d="M180 0v1411h246q156 -198 322.5 -458t281.5 -504v962h248v-1411h-248q-288 575 -602 1026v-1026h-248z" />
<glyph unicode="O" d="M102 700q0 153 42.5 279t112.5 209t164 139.5t193.5 81.5t204.5 25q106 0 206.5 -25t194.5 -81.5t164 -139.5t112 -208.5t42 -279.5q0 -328 -197.5 -525.5t-523.5 -197.5q-323 2 -519 198.5t-196 524.5zM348 700q0 -229 129.5 -373.5t339.5 -144.5q214 0 344.5 144.5 t130.5 373.5q0 133 -41.5 237.5t-110.5 166.5t-151 93.5t-170 31.5q-69 0 -135.5 -19t-127.5 -61t-107 -102.5t-73.5 -150t-27.5 -196.5z" />
<glyph unicode="P" horiz-adv-x="1253" d="M180 0v1411h598q65 0 134.5 -27t131 -76.5t101 -132t39.5 -182.5q0 -106 -30 -188t-74 -128.5t-103 -75.5t-108.5 -38.5t-98.5 -9.5h-342v-553h-248zM428 762h344q24 0 50 11t54 35t46 72t18 113q0 90 -52 148.5t-110 58.5h-350v-438z" />
<glyph unicode="Q" d="M102 700q0 153 42.5 279t112.5 209t164 139.5t193.5 81.5t204.5 25q106 0 206.5 -25t194.5 -81.5t164 -139.5t112 -208.5t42 -279.5q0 -293 -161.5 -483t-434.5 -229q32 -99 158 -99q66 0 153 17.5t152 44.5v-199q-59 -27 -142.5 -42t-156.5 -15q-180 0 -286 67.5 t-128 225.5q-272 38 -431 229.5t-159 482.5zM348 700q0 -229 130 -376.5t339 -147.5q213 0 344 147t131 377q0 107 -27.5 197t-73.5 151.5t-107.5 104t-128 62.5t-136.5 20q-69 0 -135.5 -20t-127.5 -62.5t-107 -104t-73.5 -151.5t-27.5 -197z" />
<glyph unicode="R" horiz-adv-x="1316" d="M180 0v1411h570q90 0 167.5 -26.5t136.5 -77.5t92.5 -131.5t33.5 -182.5q0 -342 -308 -420q101 -113 210 -276.5t180 -296.5h-279q-98 179 -285 438q-53 74 -78.5 97.5t-60.5 23.5h-133v-559h-246zM426 762h336q75 0 123.5 52t48.5 179q0 96 -54.5 151.5t-148.5 55.5 h-305v-438z" />
<glyph unicode="S" horiz-adv-x="1206" d="M104 1028q0 189 143.5 297.5t414.5 108.5q89 0 206 -30.5t185 -60.5v-213q-133 48 -220 69.5t-176 21.5q-150 0 -224 -57t-77 -146q0 -10 1 -18.5t8.5 -29.5t21 -38t43 -36.5t70.5 -31.5l80 -26q79 -25 130 -42.5t114.5 -44t103 -50.5t80.5 -59.5t62.5 -74t33.5 -89.5 q10 -41 11 -88q0 -11 -1 -23q-9 -110 -52.5 -187.5t-117 -121t-164 -62.5t-207.5 -19q-175 0 -446 103v227q94 -44 216.5 -81.5t229.5 -37.5q64 0 112.5 9.5t88 31.5t62 61t26.5 95q1 28 -10 52t-37 45t-54 38t-75.5 35.5t-84.5 31t-97 31.5q-59 18 -82 29q-67 23 -120 57 t-85.5 66.5t-56 72.5t-34 67.5t-16 59.5t-6 40.5t-0.5 17.5z" />
<glyph unicode="T" horiz-adv-x="1181" d="M43 1202v209h1096v-209h-424v-1202h-248v1202h-424z" />
<glyph unicode="U" horiz-adv-x="1482" d="M166 588v823h246v-786q0 -70 8.5 -129t21.5 -101t34.5 -75.5t40 -54t46.5 -35.5t47 -22t47 -11t40.5 -4h34.5h3h3h3h11q24 0 38.5 0.5t43 4t47.5 10.5t46.5 22t46 36t39 54t32.5 75t20 101t8 129v786h246v-823q0 -120 -23.5 -217t-60 -159t-90.5 -108.5t-103.5 -70 t-111.5 -37t-102 -16.5t-87 -3q-46 0 -86 3t-101.5 16.5t-111 37t-103 70t-90 108.5t-60 159t-23.5 217z" />
<glyph unicode="V" horiz-adv-x="1282" d="M33 1411h264l348 -1083l342 1083h262l-489 -1411h-238z" />
<glyph unicode="W" horiz-adv-x="2052" d="M41 1411h256l305 -1083q89 439 320 923h208q231 -484 320 -923l305 1083h256l-412 -1411h-288q-41 176 -69.5 287t-86.5 291t-129 350q-71 -170 -129 -350t-86.5 -291t-69.5 -287h-288z" />
<glyph unicode="X" horiz-adv-x="1230" d="M20 0l451 733l-416 678h285l276 -491l275 491h285l-418 -678l452 -733h-286l-310 547l-307 -547h-287z" />
<glyph unicode="Y" horiz-adv-x="1204" d="M14 1411h287l303 -580l301 580h283l-461 -805v-606h-248v606z" />
<glyph unicode="Z" horiz-adv-x="1310" d="M76 0v176l813 1026h-772v209h1104v-178l-820 -1024h811v-209h-1136z" />
<glyph unicode="[" horiz-adv-x="681" d="M147 -410v1821h463v-184h-219v-1450h219v-187h-463z" />
<glyph unicode="\" horiz-adv-x="933" d="M68 1411h221l575 -1411h-223z" />
<glyph unicode="]" horiz-adv-x="684" d="M72 -223h219v1450h-219v184h465v-1821h-465v187z" />
<glyph unicode="_" horiz-adv-x="1548" d="M219 -53h1110v-201h-1110v201z" />
<glyph unicode="`" horiz-adv-x="1005" d="M264 1454h240l139 -315h-184z" />
<glyph unicode="a" horiz-adv-x="1103" d="M74 305q0 78 35.5 140t96 100t134.5 58t156 20q94 0 184 -23v18q0 99 -50 156t-130 57q-88 0 -163.5 -19.5t-176.5 -59.5v180q122 50 188 65q85 19 182 19q82 0 149.5 -22t124.5 -70.5t88.5 -135.5t31.5 -206v-334q0 -49 24 -68.5t55.5 -14t69.5 24.5v-170 q-111 -43 -196 -43q-61 0 -111 37.5t-57 71.5q-41 -41 -119.5 -75t-145.5 -34q-370 0 -370 328zM313 297q0 -59 38.5 -100t115.5 -41q51 0 117.5 25.5t95.5 56.5v198q-68 10 -131 10q-236 0 -236 -149z" />
<glyph unicode="b" horiz-adv-x="1204" d="M143 0v1454h246v-514q93 76 258 76q95 0 179.5 -35t149.5 -99t102.5 -163.5t37.5 -220.5q0 -122 -37.5 -222.5t-102.5 -165t-149.5 -99t-179.5 -34.5q-71 0 -153 28.5t-119 70.5l-15 -76h-217zM389 221q101 -49 186 -49q73 0 131.5 29t93 76.5t53 103.5t19.5 115 q-1 60 -19.5 116t-53.5 103.5t-93 76.5t-131 29q-80 0 -186 -51v-549z" />
<glyph unicode="c" horiz-adv-x="989" d="M86 496q1 120 44 220.5t113 164.5t157.5 99.5t179.5 35.5q170 0 321 -37v-180q-125 26 -252 30q-86 0 -148.5 -27.5t-97 -75.5t-50 -104.5t-15.5 -123.5q0 -68 15.5 -124.5t49.5 -105.5t97 -76.5t149 -27.5q122 4 252 31v-181q-151 -37 -321 -37q-92 0 -179 35t-157.5 99 t-113.5 164.5t-44 220.5z" />
<glyph unicode="d" horiz-adv-x="1261" d="M88 498q0 121 37.5 220.5t102.5 163.5t149.5 99t179.5 35q165 0 258 -76v514h246v-1206q0 -49 24 -68.5t55.5 -14t69.5 24.5v-170q-111 -43 -196 -43q-61 0 -111 37.5t-57 71.5q-40 -49 -127 -79t-162 -30q-95 0 -179.5 34.5t-149.5 99t-102.5 165t-37.5 222.5zM332 496 q1 -59 19.5 -115t53 -103.5t93 -76.5t131.5 -29q85 0 186 49v549q-106 51 -186 51q-73 0 -131 -29t-93 -76.5t-53.5 -103.5t-19.5 -116z" />
<glyph unicode="e" horiz-adv-x="1130" d="M88 504q0 119 40 217t107.5 160.5t154.5 96.5t183 34q224 0 351 -141t127 -386l-4 -77h-713q9 -117 86 -180.5t196 -63.5q186 0 373 61v-174q-68 -28 -180 -51t-221 -23q-108 0 -197.5 31.5t-157.5 94.5t-106.5 165.5t-38.5 235.5zM334 575h477q-6 109 -74 178.5 t-164 69.5t-164.5 -69.5t-74.5 -178.5z" />
<glyph unicode="f" horiz-adv-x="774" d="M53 809v182h166v146q0 50 8.5 92t21.5 72t35.5 53.5t42.5 38.5t52 25.5t53.5 16t57.5 8t55 3t53 0.5h168v-186h-156q-92 0 -121.5 -28.5t-29.5 -107.5v-133h266v-182h-266v-809h-240v809h-166z" />
<glyph unicode="g" horiz-adv-x="1206" d="M90 498q0 121 37.5 220.5t102.5 163.5t149.5 99t179.5 35q71 0 153 -29t119 -72l15 76h217v-1108q0 -84 -38 -146.5t-105 -98t-148 -52t-178 -16.5q-163 0 -326 55v189q183 -60 305 -60q62 0 108.5 6.5t73.5 21t43.5 28t23 37t8 37t1.5 38.5v154q-37 -42 -119 -70.5 t-153 -28.5q-95 0 -179.5 34.5t-149.5 99t-102.5 165t-37.5 222.5zM334 496q1 -59 19.5 -115t53 -103.5t93 -76.5t131.5 -29q85 0 186 49v549q-106 51 -186 51q-73 0 -131 -29t-93 -76.5t-53.5 -103.5t-19.5 -116z" />
<glyph unicode="h" horiz-adv-x="1171" d="M143 0v1454h234v-534q44 39 109 67.5t126 28.5q75 0 138 -13.5t117 -44.5t91.5 -78.5t58.5 -119t21 -162.5v-598h-254v537q0 151 -42 219.5t-154 68.5q-43 0 -104 -20.5t-99 -54.5v-750h-242z" />
<glyph unicode="i" horiz-adv-x="528" d="M123 1298q0 64 30 100t109 36t109 -36t30 -100q0 -135 -139 -135q-74 0 -106.5 37.5t-32.5 97.5zM143 0v991h242v-991h-242z" />
<glyph unicode="j" horiz-adv-x="526" d="M-92 -225h63q50 0 84 8t51 18t26 30t10 33.5t1 39.5v1087h240v-1100q0 -170 -92.5 -240.5t-286.5 -70.5h-96v195zM123 1298q0 64 30 100t109 36t109 -36t30 -100q0 -135 -139 -135q-74 0 -106.5 37.5t-32.5 97.5z" />
<glyph unicode="k" horiz-adv-x="1011" d="M143 0v1454h242v-735l246 272h295l-412 -430q130 -103 269.5 -261.5t226.5 -299.5h-277q-149 234 -348 387v-387h-242z" />
<glyph unicode="l" horiz-adv-x="628" d="M139 285v1169h244v-1147q0 -30 3.5 -46t17 -35t46.5 -27.5t87 -8.5h63v-202h-98q-194 0 -278.5 64.5t-84.5 232.5z" />
<glyph unicode="m" horiz-adv-x="1804" d="M143 0v991h219l15 -80q48 44 108 74.5t121 30.5q113 0 195 -25.5t135 -91.5q64 57 146 87t163 30q74 0 129.5 -9t114 -38t96.5 -78.5t62 -136t24 -205.5v-549h-252v537q0 156 -42 226.5t-154 70.5q-55 0 -112.5 -31.5t-84.5 -73.5v-729h-248v573q0 261 -196 261 q-49 0 -106 -25.5t-91 -58.5v-750h-242z" />
<glyph unicode="n" horiz-adv-x="1171" d="M143 0v991h217l19 -80q94 105 233 105q71 0 125.5 -9t113.5 -38t98 -78t64 -136t25 -206v-549h-254v569q0 142 -49.5 205.5t-146.5 63.5q-49 0 -108 -30.5t-95 -66.5v-741h-242z" />
<glyph unicode="o" horiz-adv-x="1249" d="M88 492q0 110 32.5 200.5t86.5 150t124.5 100.5t144.5 58q66 15 131 15h16h16q69 0 135 -16q74 -18 144.5 -58t124 -99.5t86 -150t32.5 -200.5q0 -108 -32.5 -197t-86 -147.5t-124 -98.5t-144.5 -57q-67 -15 -135 -15h-16h-16q-65 0 -131 15q-74 17 -144.5 57 t-124.5 98.5t-86.5 147.5t-32.5 197zM332 500q0 -155 80.5 -243.5t212.5 -88.5t212.5 88.5t80.5 243.5q0 148 -81 236.5t-212 88.5t-212 -88.5t-81 -236.5z" />
<glyph unicode="p" horiz-adv-x="1191" d="M143 -410v1401h217l17 -86q103 111 233 111q40 0 81 -6t91 -22t94 -41t86.5 -67t73.5 -96t49.5 -131.5t18.5 -169.5q0 -107 -31.5 -194.5t-82 -144t-116.5 -95.5t-131 -55.5t-129 -16.5q-136 0 -225 56v-443h-246zM389 215q89 -43 176 -43q126 0 208.5 90.5t82.5 231.5 q0 72 -18 129.5t-45.5 92.5t-65 58t-72.5 32t-71 9q-60 0 -114 -30t-81 -66v-504z" />
<glyph unicode="q" horiz-adv-x="1191" d="M88 483q0 92 18.5 169.5t49.5 131.5t73.5 96t86.5 67t94 41t91 22t81 6q130 0 233 -111l16 86h218v-1401h-246v443q-89 -56 -225 -56q-64 0 -129 16.5t-131 55.5t-116.5 95.5t-82 144t-31.5 194.5zM336 494q0 -141 82.5 -231.5t208.5 -90.5q87 0 176 43v504 q-27 36 -81 66t-114 30q-36 0 -71 -9t-72.5 -32t-65 -58t-45.5 -92.5t-18 -129.5z" />
<glyph unicode="r" horiz-adv-x="784" d="M143 0v991h207l19 -76q61 46 131.5 73.5t124.5 27.5q45 0 106 -8v-213q-61 6 -106 6q-51 0 -117 -18.5t-121 -49.5v-733h-244z" />
<glyph unicode="s" horiz-adv-x="950" d="M96 723q5 140 115 220q99 72 283 72q21 0 43 -1q63 -1 149 -21.5t137 -44.5v-190q-155 71 -297 71q-182 -2 -186 -108v-6t1.5 -14.5t7 -20t18.5 -20.5t32 -17l93 -31q53 -17 87.5 -29.5t78.5 -32t72.5 -37.5t58 -44t45.5 -55q16 -28 26 -66q8 -31 8 -67v-15 q-5 -72 -31 -124.5t-64.5 -83.5t-95.5 -49.5t-114.5 -25t-132.5 -6.5q-126 0 -326 89v192q200 -86 332 -86q90 0 139.5 22t55.5 80q1 18 -6 33t-26 29t-36.5 24.5t-52 23.5t-57 20.5t-66.5 21.5l-57 18q-181 58 -223 198q-11 35 -11 81z" />
<glyph unicode="t" horiz-adv-x="743" d="M49 809v182h162v223l240 68v-291h217v-182h-217v-496q0 -24 1.5 -37t9.5 -30.5t23.5 -26.5t46 -15.5t74.5 -6.5h64v-211h-99q-195 0 -277.5 64t-82.5 233v526h-162z" />
<glyph unicode="u" horiz-adv-x="1228" d="M133 442v549h254v-569q0 -141 49.5 -203.5t147.5 -62.5q49 0 107.5 29t94.5 65v741h242v-743q0 -49 24.5 -68.5t56 -14t69.5 24.5v-170q-111 -43 -197 -43q-61 0 -111 37.5t-57 71.5q-43 -54 -116.5 -81.5t-137.5 -27.5q-62 0 -114 8.5t-112.5 37.5t-102 77.5t-69.5 136 t-28 205.5z" />
<glyph unicode="v" horiz-adv-x="1064" d="M27 991h258l247 -694l248 694h258l-387 -991h-235z" />
<glyph unicode="w" horiz-adv-x="1628" d="M33 991h262l203 -667l192 596h248l192 -592l203 663h262l-327 -991h-256l-197 610l-201 -610h-254z" />
<glyph unicode="x" horiz-adv-x="1064" d="M31 0l358 500l-352 491h280l218 -342l217 342h274l-346 -491l352 -500h-276l-221 346l-224 -346h-280z" />
<glyph unicode="y" horiz-adv-x="1079" d="M25 991h266l250 -680l245 680h267q-457 -1159 -473 -1208q-23 -66 -52 -107t-72 -62t-90 -28q-37 -4 -87 -4h-33h-117v187l115 2q45 3 73 22t48 70l55 164z" />
<glyph unicode="z" horiz-adv-x="1091" d="M76 0v158l581 643h-544v190h886v-155l-587 -639h587v-197h-923z" />
<glyph unicode="{" horiz-adv-x="727" d="M70 428v145q51 8 91 35.5t40 65.5v370q0 367 360 367h96v-180h-61q-43 0 -73.5 -13.5t-45.5 -31.5t-23.5 -47.5t-10 -48.5t-1.5 -46v-299q0 -179 -157 -243q157 -57 157 -246v-299q0 -28 1.5 -47t10 -48t23.5 -46.5t45.5 -31t73.5 -13.5h61v-181h-96q-360 0 -360 367v373 q0 34 -41.5 63t-89.5 35z" />
<glyph unicode="|" horiz-adv-x="462" d="M147 -221v1820h168v-1820h-168z" />
<glyph unicode="}" horiz-adv-x="727" d="M70 -229h61q43 0 73.5 13.5t45.5 31t23.5 46.5t10 48t1.5 47v299q0 189 157 246q-157 64 -157 243v299q0 27 -1.5 46t-10 48.5t-23.5 47.5t-45.5 31.5t-73.5 13.5h-61v180h96q360 0 360 -367v-370q0 -38 40 -65.5t91 -35.5v-145q-48 -6 -89.5 -35t-41.5 -63v-373 q0 -367 -360 -367h-96v181z" />
<glyph unicode="&#xa1;" horiz-adv-x="501" d="M102 879q0 137 148 137q82 0 115.5 -36t33.5 -101q0 -68 -31.5 -104t-117.5 -36q-84 0 -116 36.5t-32 103.5zM129 -410l25 1041h194l25 -1041h-244z" />
<glyph unicode="&#xa2;" horiz-adv-x="1036" d="M100 496q1 110 37 203.5t96.5 157t136.5 103.5t160 52v209h168v-209q118 -10 217 -33v-180q-125 26 -251 30q-86 0 -148.5 -27.5t-97 -75.5t-50.5 -104.5t-16 -123.5q0 -68 15.5 -124.5t50 -105.5t97.5 -76.5t149 -27.5q120 4 251 31v-181q-92 -21 -217 -32v-203h-168 v203q-84 11 -160.5 50.5t-136.5 103t-96 157t-37 203.5z" />
<glyph unicode="&#xa3;" horiz-adv-x="1198" d="M111 0v201h176v432h-164v172h164v164q0 212 142 338.5t407 126.5q102 0 202 -21v-196q-121 14 -207 14q-147 0 -221.5 -77.5t-74.5 -195.5v-153h235v-172h-235v-432h569v-201h-993z" />
<glyph unicode="&#xa4;" horiz-adv-x="1271" d="M127 272l139 142q-43 84 -43 207q0 130 47 217l-143 141l147 147l142 -143q94 52 213 49h14q124 3 213 -49q13 15 70 72l73 71l146 -147l-144 -143q52 -96 52 -215t-45 -207l137 -142l-146 -145l-139 135q-98 -49 -217 -43h-14q-131 0 -217 43l-138 -135zM453 621 q0 -98 51 -146t119 -45h24q70 0 121 47.5t51 143.5q0 99 -52 149.5t-122 48.5h-18q-69 2 -121.5 -49t-52.5 -149z" />
<glyph unicode="&#xa5;" horiz-adv-x="1308" d="M76 1386h280l297 -544l299 544h279l-453 -792v-51h250v-150h-250v-96h250v-147h-250v-150h-246v150h-243v147h243v96h-243v150h243v51z" />
<glyph unicode="&#xa6;" horiz-adv-x="456" />
<glyph unicode="&#xa7;" horiz-adv-x="1093" d="M104.5 515q-2.5 26 1.5 36q9 74 52 139.5t114 112.5q-35 37 -58.5 78t-33.5 72.5t-13.5 63.5t-3 47t2.5 28q15 145 129.5 230t306.5 85q57 0 88 -4q122 -16 250 -72q-62 -190 -63 -192q-106 46 -211 57q-114 11 -178.5 -24.5t-75.5 -100.5q0 -4 1 -10.5t7 -24.5t15.5 -34 t29 -34.5t45.5 -29.5q2 -1 11.5 -6.5t15.5 -7.5q17 -10 34 -17q84 -36 136.5 -61.5t113 -64t94.5 -75t57 -87t23 -109.5q0 -34 -6 -68q-17 -77 -59 -143t-101 -111q109 -103 109 -223q0 -31 -6 -65q-37 -152 -140.5 -227.5t-254.5 -75.5q-57 0 -115 6q-155 18 -305 90 l59 192q155 -64 268 -75q57 -5 64 -5q73 0 116 26t58 85h-2q5 17 5 33t-4 29t-15.5 27t-21.5 24t-30 22.5t-34.5 20.5t-41 20t-42.5 19t-47 20l-35 14h4l-70 33q-61 26 -107.5 62.5t-70.5 73t-41 75t-19.5 69.5t-5 57zM330 547q0 -81 91 -154t228 -104l17 4q108 75 108 160 q0 79 -95 145t-239 104q-110 -68 -110 -155z" />
<glyph unicode="&#xa8;" horiz-adv-x="1089" d="M246 1274q0 59 28 92t99 33q72 0 100.5 -33t28.5 -92q0 -123 -129 -123q-67 0 -97 34t-30 89zM588 1274q0 59 28 92t99 33q72 0 100.5 -33t28.5 -92q0 -123 -129 -123q-67 0 -97 34t-30 89z" />
<glyph unicode="&#xa9;" horiz-adv-x="1630" d="M106 700q0 154 41.5 279.5t111 208.5t162 139.5t191.5 81.5t203 25t203 -25t191.5 -81.5t162 -139.5t111 -208.5t41.5 -279.5q0 -329 -194.5 -526t-516.5 -197h4q-322 0 -516.5 197t-194.5 526zM266 700q0 -254 150.5 -406.5t400.5 -152.5h-4q250 0 400.5 152.5 t150.5 406.5q0 119 -32.5 217t-86 162.5t-125.5 108.5t-148 63t-157 19t-157 -19t-148 -63t-125.5 -108.5t-86 -162.5t-32.5 -217zM471 698q0 -81 29 -148t77 -109t107 -64.5t121 -22.5q120 0 219 29v115q-48 -8 -85 -12t-48.5 -5t-37 -0.5t-26.5 0.5q-83 0 -142.5 59 t-59.5 158t57 158t145 59q103 0 197 -18v119q-107 26 -219 26q-83 0 -158 -39t-125.5 -119.5t-50.5 -185.5z" />
<glyph unicode="&#xaa;" horiz-adv-x="821" d="M127 973q0 101 71 157t160 56q21 0 78 -6.5t74 -12.5v27q0 46 -38.5 74t-106.5 28q-78 0 -203 -39v129q124 48 248 48q52 0 98.5 -14.5t87 -45.5t64.5 -88t24 -133v-367h-166l-2 66q-18 -29 -80.5 -47.5t-109.5 -18.5q-86 0 -142.5 48.5t-56.5 138.5zM135 545v133h549 v-133h-549zM301 985q0 -25 17 -45t61 -20q23 0 70 12t61 24v103q-60 10 -104 10q-58 0 -81.5 -25.5t-23.5 -58.5z" />
<glyph unicode="&#xab;" horiz-adv-x="1073" d="M74 506l284 426h246l-287 -426l287 -428h-246zM465 506l285 426h245l-286 -426l286 -428h-245z" />
<glyph unicode="&#xac;" horiz-adv-x="1286" d="M123 592v215h1012v-592h-232v377h-780z" />
<glyph unicode="&#xad;" horiz-adv-x="946" d="M125 428v205h696v-205h-696z" />
<glyph unicode="&#xae;" horiz-adv-x="1630" d="M106 700q0 154 41.5 279.5t111 208.5t162 139.5t191.5 81.5t203 25t203 -25t191.5 -81.5t162 -139.5t111 -208.5t41.5 -279.5q0 -329 -194.5 -526t-516.5 -197h4q-322 0 -516.5 197t-194.5 526zM266 700q0 -254 150.5 -406.5t400.5 -152.5h-4q250 0 400.5 152.5 t150.5 406.5q0 119 -32.5 217t-86 162.5t-125.5 108.5t-148 63t-157 19t-157 -19t-148 -63t-125.5 -108.5t-86 -162.5t-32.5 -217zM578 365v667h276q93 0 154 -53.5t61 -149.5q0 -88 -37 -139t-104 -59q50 -59 101.5 -134t80.5 -132h-166q-61 110 -131 204q-33 47 -45 47 h-41v-251h-149zM727 735h129q64 0 64 86q0 36 -22 60t-56 24h-115v-170z" />
<glyph unicode="&#xaf;" horiz-adv-x="995" d="M246 1176v170h504v-170h-504z" />
<glyph unicode="&#xb0;" horiz-adv-x="747" d="M90 1157q0 76 22.5 131t63 86t89 45.5t106.5 14.5q60 0 109.5 -14.5t90 -45.5t63.5 -86t23 -131q0 -74 -23 -129t-64 -86t-90.5 -46t-108.5 -15q-121 0 -201 66.5t-80 209.5zM248 1157q0 -63 35.5 -92t87.5 -29q55 0 91 29t36 92t-35.5 92t-91.5 29q-53 0 -88 -29 t-35 -92z" />
<glyph unicode="&#xb1;" horiz-adv-x="1193" d="M131 0v207h932v-207h-932zM131 664v213h350v337h232v-337h350v-213h-350v-340h-232v340h-350z" />
<glyph unicode="&#xb2;" horiz-adv-x="753" d="M74 881v133l245 260q13 14 47.5 48.5t53 54.5t36 46.5t17.5 44.5q-3 88 -121 88q-101 0 -248 -77v153q124 78 250 78q150 0 229.5 -63t82.5 -177q0 -5 -1 -14.5t-9.5 -34.5t-22 -52t-43.5 -65.5t-70 -76.5l-188 -189h336v-157h-594z" />
<glyph unicode="&#xb3;" horiz-adv-x="757" d="M86 924v159q140 -53 268 -53q53 0 82 26t29 64q0 3 -0.5 8.5t-4 19.5t-9.5 25.5t-19 22.5t-31 14h-168v150h162q30 4 47.5 28.5t19.5 47.5l3 22q0 39 -29 66.5t-82 27.5q-101 0 -250 -53v156q37 17 115.5 36t132.5 19q150 0 229.5 -65.5t82.5 -180.5q0 -13 -2.5 -29 t-11.5 -46t-34 -57.5t-63 -43.5q31 -11 53.5 -33.5t33 -44t16.5 -46t7 -34.5t1 -16q-3 -115 -82.5 -180.5t-229.5 -65.5q-55 0 -142.5 19.5t-123.5 36.5z" />
<glyph unicode="&#xb4;" horiz-adv-x="1005" d="M264 1139l139 315h240l-194 -315h-185z" />
<glyph unicode="&#xb6;" horiz-adv-x="1042" d="M84 1118q0 122 87.5 207.5t211.5 85.5h467v-1649h-184v1489h-138v-1489h-184v1067q-111 14 -185.5 95.5t-74.5 193.5z" />
<glyph unicode="&#xb7;" horiz-adv-x="526" d="M115 543q0 66 32.5 102.5t116.5 36.5t116 -36.5t32 -102.5q0 -65 -33.5 -101t-114.5 -36t-115 36t-34 101z" />
<glyph unicode="&#xb8;" horiz-adv-x="1095" d="M328 -209l127 -39q60 -18 91.5 3t31.5 57q0 43 -22 104t-64 104h143q40 -32 76 -82t45 -85q12 -40 12 -74q0 -96 -69 -156t-187 -51q-68 7 -184 59v160z" />
<glyph unicode="&#xb9;" horiz-adv-x="626" d="M90 881v157h146v480l-144 -64v145l193 101h147v-662h146v-157h-488z" />
<glyph unicode="&#xba;" horiz-adv-x="909" d="M109 1100q0 87 31.5 154.5t83 106t110.5 57t119 16.5q64 0 121.5 -17t109 -53t82.5 -103t31 -157q0 -160 -95.5 -246t-246.5 -86q-60 -2 -119.5 17t-111 56.5t-83.5 104t-32 150.5zM160 545v139h596v-139h-596zM287 1106q0 -84 48.5 -137.5t119.5 -53.5q73 0 119.5 51 t46.5 140q0 84 -47 134t-119 50q-70 0 -119 -52.5t-49 -131.5z" />
<glyph unicode="&#xbb;" horiz-adv-x="1073" d="M78 78l287 428l-287 426h246l284 -426l-284 -428h-246zM469 78l287 428l-287 426h246l284 -426l-284 -428h-246z" />
<glyph unicode="&#xbc;" horiz-adv-x="1718" d="M109 592v158h145v479l-143 -64v146l192 100h148v-661h145v-158h-487zM424 0l715 1411h147l-715 -1411h-147zM956 180h369v-180h197v180h102v148h-102v491h-179l-387 -526v-113zM1151 328l174 235v-235h-174z" />
<glyph unicode="&#xbd;" horiz-adv-x="1757" d="M106 592v158h146v479l-143 -64v146l192 100h148v-661h145v-158h-488zM422 0l715 1411h147l-715 -1411h-147zM1067 0v133l246 260q12 13 37.5 38.5t42.5 43.5t35.5 40t28 40t9.5 33q-3 88 -120 88q-99 0 -248 -78v154q123 77 250 77q150 0 229 -62.5t82 -176.5 q0 -6 -1 -15t-9.5 -34.5t-22 -52t-43.5 -65.5t-70 -77l-188 -188h336v-158h-594z" />
<glyph unicode="&#xbe;" horiz-adv-x="1787" d="M104 635v160q143 -54 269 -54q53 0 81.5 26t28.5 64q0 3 -0.5 8.5t-4 20t-9 26t-18.5 22.5t-31 14h-168v149h162q30 4 47.5 28.5t19.5 46.5l2 23q0 40 -28.5 67.5t-81.5 27.5q-99 0 -250 -54v156q37 17 115.5 36t132.5 19q150 0 229 -65t82 -180q0 -13 -2.5 -29 t-11.5 -46.5t-34 -58t-63 -43.5q31 -11 53.5 -33.5t33 -44t16.5 -46t7 -34.5t1 -16q-3 -115 -82 -180t-229 -65q-55 0 -143.5 19.5t-123.5 35.5zM479 0l715 1411h147l-714 -1411h-148zM1026 180h369v-180h196v180h103v148h-103v491h-178l-387 -526v-113zM1221 328l174 235 v-235h-174z" />
<glyph unicode="&#xbf;" horiz-adv-x="1005" d="M80 -33q0 286 276 408q176 71 176 272h230q9 -163 -73 -285t-234 -192q-44 -21 -73.5 -51t-41 -60.5t-15.5 -51.5t-3 -36q0 -91 71 -141.5t197 -50.5q130 0 315 98l15 -201q-73 -52 -149 -74.5t-167 -29.5q-229 -13 -376.5 99t-147.5 296zM496 879q0 65 33.5 101 t115.5 36q148 0 148 -137q0 -67 -32 -103.5t-116 -36.5q-86 0 -117.5 36t-31.5 104z" />
<glyph unicode="&#xc0;" horiz-adv-x="1335" d="M39 0q128 436 235.5 746.5t270.5 664.5h246q164 -356 273 -670.5t232 -740.5h-245q-74 265 -119 412h-526l-121 -412h-246zM391 1874h240l139 -315h-184zM467 604h401q-85 256 -200 541q-118 -287 -201 -541z" />
<glyph unicode="&#xc1;" horiz-adv-x="1335" d="M39 0q128 436 235.5 746.5t270.5 664.5h246q164 -356 273 -670.5t232 -740.5h-245q-74 265 -119 412h-526l-121 -412h-246zM467 604h401q-85 256 -200 541q-118 -287 -201 -541zM575 1559l140 315h239l-194 -315h-185z" />
<glyph unicode="&#xc2;" horiz-adv-x="1335" d="M39 0q128 436 235.5 746.5t270.5 664.5h246q164 -356 273 -670.5t232 -740.5h-245q-74 265 -119 412h-526l-121 -412h-246zM338 1559l209 315h241l209 -315h-180l-149 182l-150 -182h-180zM467 604h401q-85 256 -200 541q-118 -287 -201 -541z" />
<glyph unicode="&#xc3;" horiz-adv-x="1335" d="M39 0q128 436 235.5 746.5t270.5 664.5h246q164 -356 273 -670.5t232 -740.5h-245q-74 265 -119 412h-526l-121 -412h-246zM358 1552q4 44 10.5 76.5t20.5 67t35.5 55.5t57 35t83.5 14q24 0 49 -7t36 -12t42 -20q6 -3 17.5 -9t17.5 -9.5t14 -7t14 -5t11 -1.5 q26 0 40.5 20.5t22.5 60.5h148q-4 -44 -10.5 -76.5t-20.5 -66t-35.5 -54.5t-57 -34.5t-83.5 -13.5q-24 0 -49 7t-36 12t-42 20q-6 3 -17.5 9t-17.5 9.5t-14 7t-14 5t-11 1.5q-46 0 -63 -84h2h-150zM467 604h401q-85 256 -200 541q-118 -287 -201 -541z" />
<glyph unicode="&#xc4;" horiz-adv-x="1335" d="M39 0q128 436 235.5 746.5t270.5 664.5h246q164 -356 273 -670.5t232 -740.5h-245q-74 265 -119 412h-526l-121 -412h-246zM369 1694q0 59 28 92t99 33q72 0 100.5 -33t28.5 -92q0 -123 -129 -123q-67 0 -97 34t-30 89zM467 604h401q-85 256 -200 541 q-118 -287 -201 -541zM711 1694q0 59 28 92t99 33q72 0 100.5 -33t28.5 -92q0 -123 -129 -123q-67 0 -97 34t-30 89z" />
<glyph unicode="&#xc5;" horiz-adv-x="1335" d="M39 0q128 436 235.5 746.5t270.5 664.5h246q164 -356 273 -670.5t232 -740.5h-245q-74 265 -119 412h-526l-121 -412h-246zM449 1759q0 101 63 158t156 57q94 0 156.5 -55.5t62.5 -159.5q0 -99 -64 -157t-155 -58q-93 0 -156 55.5t-63 159.5zM467 604h401 q-85 256 -200 541q-118 -287 -201 -541zM584 1759q0 -39 26 -62.5t58 -23.5t58 23.5t26 62.5q0 41 -25.5 63.5t-58.5 22.5t-58.5 -22.5t-25.5 -63.5z" />
<glyph unicode="&#xc6;" horiz-adv-x="1828" d="M37 0q125 428 234.5 742.5t273.5 668.5h1169v-209h-655v-371h610v-208h-610v-310q0 -104 117 -104h538v-209h-569q-174 5 -251.5 68.5t-80.5 218.5v123h-407l-121 -410h-248zM471 606h342v596h-117q-118 -266 -225 -596z" />
<glyph unicode="&#xc7;" horiz-adv-x="1331" d="M100 702q0 136 39.5 255.5t107.5 205.5t156.5 148t188.5 92.5t203 30.5q128 0 249 -16.5t193 -37.5v-200q-214 43 -393 43q-214 0 -354 -141.5t-140 -379.5q0 -118 41 -217t110 -163t157.5 -99t185.5 -35q58 0 84.5 1t103 9.5t205.5 28.5v-198q-160 -41 -365 -49 q62 -73 78 -127q13 -44 13 -74q0 -96 -69 -156t-187 -51q-69 7 -185 59v160l127 -39q60 -18 91.5 3t31.5 57q0 34 -14 81.5t-41 88.5q-96 11 -185 46t-168 96.5t-137.5 143.5t-92.5 194t-34 240z" />
<glyph unicode="&#xc8;" horiz-adv-x="1187" d="M174 287v1124h899v-209h-651v-371h606v-208h-606v-326q0 -41 20.5 -64.5t75.5 -23.5h555v-209h-567q-174 5 -251.5 68.5t-80.5 218.5zM393 1874h240l139 -315h-184z" />
<glyph unicode="&#xc9;" horiz-adv-x="1187" d="M174 287v1124h899v-209h-651v-371h606v-208h-606v-326q0 -41 20.5 -64.5t75.5 -23.5h555v-209h-567q-174 5 -251.5 68.5t-80.5 218.5zM473 1559l139 315h240l-195 -315h-184z" />
<glyph unicode="&#xca;" horiz-adv-x="1187" d="M174 287v1124h899v-209h-651v-371h606v-208h-606v-326q0 -41 20.5 -64.5t75.5 -23.5h555v-209h-567q-174 5 -251.5 68.5t-80.5 218.5zM252 1559l209 315h241l209 -315h-180l-149 182l-150 -182h-180z" />
<glyph unicode="&#xcb;" horiz-adv-x="1187" d="M174 287v1124h899v-209h-651v-371h606v-208h-606v-326q0 -41 20.5 -64.5t75.5 -23.5h555v-209h-567q-174 5 -251.5 68.5t-80.5 218.5zM283 1694q0 59 28 92t99 33q72 0 100.5 -33t28.5 -92q0 -123 -129 -123q-67 0 -97 34t-30 89zM625 1694q0 59 28 92t99 33 q72 0 100.5 -33t28.5 -92q0 -123 -129 -123q-67 0 -97 34t-30 89z" />
<glyph unicode="&#xcc;" horiz-adv-x="608" d="M49 1874h240l139 -315h-184zM180 0v1411h248v-1411h-248z" />
<glyph unicode="&#xcd;" horiz-adv-x="608" d="M180 0v1411h248v-1411h-248zM180 1559l139 315h240l-194 -315h-185z" />
<glyph unicode="&#xce;" horiz-adv-x="608" d="M-25 1559l209 315h242l209 -315h-180l-150 182l-149 -182h-181zM180 0v1411h248v-1411h-248z" />
<glyph unicode="&#xcf;" horiz-adv-x="608" d="M6 1694q0 59 28 92t99 33q72 0 100.5 -33t28.5 -92q0 -123 -129 -123q-67 0 -97 34t-30 89zM180 0v1411h248v-1411h-248zM348 1694q0 59 28 92t99 33q72 0 100.5 -33t28.5 -92q0 -123 -129 -123q-67 0 -97 34t-30 89z" />
<glyph unicode="&#xd0;" horiz-adv-x="1474" d="M51 596v199h172v616h488q130 0 247.5 -46t210 -132t147 -223.5t54.5 -307.5q0 -139 -35.5 -255t-97.5 -197.5t-146 -138.5t-180 -84t-200 -27h-488v596h-172zM471 209h154q240 0 363.5 124.5t123.5 368.5q0 500 -487 500h-154v-407h272v-199h-272v-387z" />
<glyph unicode="&#xd1;" horiz-adv-x="1458" d="M180 0h248v1026q314 -451 602 -1026h248v1411h-248v-962q-115 244 -281.5 504t-322.5 458h-246v-1411zM420 1552q4 44 10.5 76.5t20.5 67t35.5 55.5t57 35t83.5 14q24 0 49 -7t36 -12t42 -20q7 -4 21 -11.5t21 -11t16 -6.5t15 -3q47 0 64 81h147q-4 -44 -10.5 -76.5 t-20.5 -66t-35.5 -54.5t-57 -34.5t-83.5 -13.5q-8 0 -16 0.5t-16 2t-14 3t-14.5 4.5t-12.5 4.5t-13.5 6t-12.5 5.5t-14 6.5l-13 6.5q-6 3 -17.5 9t-17.5 9.5t-14 7t-14 5t-11 1.5q-47 0 -64 -84h2h-149z" />
<glyph unicode="&#xd2;" d="M102 700q0 153 42.5 279t112.5 209t164 139.5t193.5 81.5t204.5 25q106 0 206.5 -25t194.5 -81.5t164 -139.5t112 -208.5t42 -279.5q0 -328 -197.5 -525.5t-523.5 -197.5q-323 2 -519 198.5t-196 524.5zM348 700q0 -229 129.5 -373.5t339.5 -144.5q214 0 344.5 144.5 t130.5 373.5q0 133 -41.5 237.5t-110.5 166.5t-151 93.5t-170 31.5q-69 0 -135.5 -19t-127.5 -61t-107 -102.5t-73.5 -150t-27.5 -196.5zM559 1874h240l139 -315h-184z" />
<glyph unicode="&#xd3;" d="M102 700q0 153 42.5 279t112.5 209t164 139.5t193.5 81.5t204.5 25q106 0 206.5 -25t194.5 -81.5t164 -139.5t112 -208.5t42 -279.5q0 -328 -197.5 -525.5t-523.5 -197.5q-323 2 -519 198.5t-196 524.5zM348 700q0 -229 129.5 -373.5t339.5 -144.5q214 0 344.5 144.5 t130.5 373.5q0 133 -41.5 237.5t-110.5 166.5t-151 93.5t-170 31.5q-69 0 -135.5 -19t-127.5 -61t-107 -102.5t-73.5 -150t-27.5 -196.5zM737 1559l140 315h239l-194 -315h-185z" />
<glyph unicode="&#xd4;" d="M102 700q0 153 42.5 279t112.5 209t164 139.5t193.5 81.5t204.5 25q106 0 206.5 -25t194.5 -81.5t164 -139.5t112 -208.5t42 -279.5q0 -328 -197.5 -525.5t-523.5 -197.5q-323 2 -519 198.5t-196 524.5zM348 700q0 -229 129.5 -373.5t339.5 -144.5q214 0 344.5 144.5 t130.5 373.5q0 133 -41.5 237.5t-110.5 166.5t-151 93.5t-170 31.5q-69 0 -135.5 -19t-127.5 -61t-107 -102.5t-73.5 -150t-27.5 -196.5zM489 1559l209 315h242l209 -315h-180l-150 182l-149 -182h-181z" />
<glyph unicode="&#xd5;" d="M102 700q0 153 42.5 279t112.5 209t164 139.5t193.5 81.5t204.5 25q106 0 206.5 -25t194.5 -81.5t164 -139.5t112 -208.5t42 -279.5q0 -328 -197.5 -525.5t-523.5 -197.5q-323 2 -519 198.5t-196 524.5zM348 700q0 -229 129.5 -373.5t339.5 -144.5q214 0 344.5 144.5 t130.5 373.5q0 133 -41.5 237.5t-110.5 166.5t-151 93.5t-170 31.5q-69 0 -135.5 -19t-127.5 -61t-107 -102.5t-73.5 -150t-27.5 -196.5zM510 1552q4 44 10.5 76.5t20.5 67t35.5 55.5t57 35t83.5 14q24 0 49 -7t36 -12t42 -20q6 -3 17.5 -9t17.5 -9.5t14 -7t14 -5t11 -1.5 q26 0 40.5 20.5t22.5 60.5h147q-5 -56 -14.5 -94.5t-31 -76t-61.5 -56t-99 -18.5q-24 0 -49 7t-36 12t-42 20q-6 3 -17.5 9t-17.5 9.5t-14 7t-14 5t-11 1.5q-47 0 -64 -84h2h-149z" />
<glyph unicode="&#xd6;" d="M102 700q0 153 42.5 279t112.5 209t164 139.5t193.5 81.5t204.5 25q106 0 206.5 -25t194.5 -81.5t164 -139.5t112 -208.5t42 -279.5q0 -328 -197.5 -525.5t-523.5 -197.5q-323 2 -519 198.5t-196 524.5zM348 700q0 -229 129.5 -373.5t339.5 -144.5q214 0 344.5 144.5 t130.5 373.5q0 133 -41.5 237.5t-110.5 166.5t-151 93.5t-170 31.5q-69 0 -135.5 -19t-127.5 -61t-107 -102.5t-73.5 -150t-27.5 -196.5zM520 1694q0 59 28 92t99 33q72 0 100.5 -33t28.5 -92q0 -123 -129 -123q-67 0 -97 34t-30 89zM862 1694q0 59 28 92t99 33 q72 0 100.5 -33t28.5 -92q0 -123 -129 -123q-67 0 -97 34t-30 89z" />
<glyph unicode="&#xd7;" horiz-adv-x="1060" d="M111 297l262 264l-262 264l155 156l264 -262l265 262l155 -156l-264 -264l264 -264l-155 -156l-265 265l-264 -265z" />
<glyph unicode="&#xd8;" d="M102 700q0 153 42.5 279t112.5 209t164 139.5t193.5 81.5t204.5 25q235 0 406 -109l170 188l139 -131l-160 -186q164 -187 164 -496q0 -328 -196.5 -524.5t-522.5 -198.5q-222 0 -405 109l-158 -182l-152 125l162 182q-164 200 -164 489zM348 700q0 -175 76 -305l649 756 q-125 78 -254 78q-69 0 -135.5 -19t-127.5 -61t-107 -102.5t-73.5 -150t-27.5 -196.5zM561 256q120 -74 256 -74q214 0 344.5 144.5t130.5 373.5q0 179 -78 314z" />
<glyph unicode="&#xd9;" horiz-adv-x="1482" d="M166 588q0 -120 23.5 -217t60 -159t90 -108.5t103 -70t111 -37t101.5 -16.5t86 -3q47 0 87 3t102 16.5t111.5 37t103.5 70t90.5 108.5t60 159t23.5 217v823h-246v-786q0 -70 -8 -129t-20 -101t-33 -75t-39 -54t-46 -36t-46 -22t-47.5 -10.5t-42.5 -4t-39 -0.5h-11h-9 q-28 0 -46 0.5t-55 9t-62.5 23.5t-57.5 46.5t-51.5 76t-33.5 115.5t-14 161v786h-246v-823zM487 1874h240l139 -315h-184z" />
<glyph unicode="&#xda;" horiz-adv-x="1482" d="M166 588v823h246v-786q0 -70 8.5 -129t21.5 -101t34.5 -75.5t40 -54t46.5 -35.5t47 -22t47 -11t40.5 -4h34.5h3h3h3h11q24 0 38.5 0.5t43 4t47.5 10.5t46.5 22t46 36t39 54t32.5 75t20 101t8 129v786h246v-823q0 -120 -23.5 -217t-60 -159t-90.5 -108.5t-103.5 -70 t-111.5 -37t-102 -16.5t-87 -3q-46 0 -86 3t-101.5 16.5t-111 37t-103 70t-90 108.5t-60 159t-23.5 217zM610 1559l140 315h239l-194 -315h-185z" />
<glyph unicode="&#xdb;" horiz-adv-x="1482" d="M166 588q0 -120 23.5 -217t60 -159t90 -108.5t103 -70t111 -37t101.5 -16.5t86 -3q47 0 87 3t102 16.5t111.5 37t103.5 70t90.5 108.5t60 159t23.5 217v823h-246v-786q0 -70 -8 -129t-20 -101t-33 -75t-39 -54t-46 -36t-46 -22t-47.5 -10.5t-42.5 -4t-39 -0.5h-11h-9 q-28 0 -46 0.5t-55 9t-62.5 23.5t-57.5 46.5t-51.5 76t-33.5 115.5t-14 161v786h-246v-823zM412 1559l209 315h241l209 -315h-180l-150 182l-149 -182h-180z" />
<glyph unicode="&#xdc;" horiz-adv-x="1482" d="M166 588q0 -120 23.5 -217t60 -159t90 -108.5t103 -70t111 -37t101.5 -16.5t86 -3q47 0 87 3t102 16.5t111.5 37t103.5 70t90.5 108.5t60 159t23.5 217v823h-246v-786q0 -70 -8 -129t-20 -101t-33 -75t-39 -54t-46 -36t-46 -22t-47.5 -10.5t-42.5 -4t-39 -0.5h-11h-9 q-28 0 -46 0.5t-55 9t-62.5 23.5t-57.5 46.5t-51.5 76t-33.5 115.5t-14 161v786h-246v-823zM442 1694q0 59 28 92t99 33q72 0 100.5 -33t28.5 -92q0 -123 -129 -123q-67 0 -97 34t-30 89zM784 1694q0 59 28 92t99 33q72 0 100.5 -33t28.5 -92q0 -123 -129 -123q-67 0 -97 34 t-30 89z" />
<glyph unicode="&#xdd;" horiz-adv-x="1204" d="M14 1411h287l303 -580l301 580h283l-461 -805v-606h-248v606zM469 1559l139 315h240l-195 -315h-184z" />
<glyph unicode="&#xde;" horiz-adv-x="1191" d="M180 0v1411h248v-266h283q82 0 155 -28.5t130.5 -82t91.5 -138.5t34 -191t-33.5 -191t-91.5 -137t-131 -79.5t-155 -27.5h-283v-270h-248zM428 475h240q106 0 160.5 59.5t54.5 170.5q0 114 -54 174.5t-161 60.5h-240v-465z" />
<glyph unicode="&#xdf;" horiz-adv-x="1181" d="M143 0v868q0 103 13.5 183t47 149.5t88 114.5t138 70.5t195.5 25.5h37q40 0 84 -9.5t96 -36t92.5 -67t68 -110.5t27.5 -158q0 -78 -38 -156.5t-109 -121.5q91 -42 152 -135.5t61 -213.5q0 -200 -123.5 -301.5t-333.5 -101.5h-172v197h172q89 0 152 57t63 149 q0 63 -25.5 112t-62 74t-70 37.5t-57.5 12.5h-107v192h97q73 0 116 61.5t43 137.5q0 89 -50.5 134.5t-123.5 45.5q-61 0 -104.5 -21.5t-67 -53t-37 -80.5t-16.5 -90.5t-2 -96.5v-868h-244z" />
<glyph unicode="&#xe0;" horiz-adv-x="1103" d="M74 305q0 78 35.5 140t96 100t134.5 58t156 20q94 0 184 -23v18q0 99 -50 156t-130 57q-88 0 -163.5 -19.5t-176.5 -59.5v180q122 50 188 65q85 19 182 19q82 0 149.5 -22t124.5 -70.5t88.5 -135.5t31.5 -206v-334q0 -49 24 -68.5t55.5 -14t69.5 24.5v-170 q-111 -43 -196 -43q-61 0 -111 37.5t-57 71.5q-41 -41 -119.5 -75t-145.5 -34q-370 0 -370 328zM260 1454h240l139 -315h-184zM313 297q0 -59 38.5 -100t115.5 -41q51 0 117.5 25.5t95.5 56.5v198q-68 10 -131 10q-236 0 -236 -149z" />
<glyph unicode="&#xe1;" horiz-adv-x="1103" d="M74 305q0 78 35.5 140t96 100t134.5 58t156 20q94 0 184 -23v18q0 99 -50 156t-130 57q-88 0 -163.5 -19.5t-176.5 -59.5v180q122 50 188 65q85 19 182 19q82 0 149.5 -22t124.5 -70.5t88.5 -135.5t31.5 -206v-334q0 -49 24 -68.5t55.5 -14t69.5 24.5v-170 q-111 -43 -196 -43q-61 0 -111 37.5t-57 71.5q-41 -41 -119.5 -75t-145.5 -34q-370 0 -370 328zM313 297q0 -59 38.5 -100t115.5 -41q51 0 117.5 25.5t95.5 56.5v198q-68 10 -131 10q-236 0 -236 -149zM379 1139l139 315h240l-195 -315h-184z" />
<glyph unicode="&#xe2;" horiz-adv-x="1103" d="M74 305q0 78 35.5 140t96 100t134.5 58t156 20q94 0 184 -23v18q0 99 -50 156t-130 57q-88 0 -163.5 -19.5t-176.5 -59.5v180q122 50 188 65q85 19 182 19q82 0 149.5 -22t124.5 -70.5t88.5 -135.5t31.5 -206v-334q0 -49 24 -68.5t55.5 -14t69.5 24.5v-170 q-111 -43 -196 -43q-61 0 -111 37.5t-57 71.5q-41 -41 -119.5 -75t-145.5 -34q-370 0 -370 328zM186 1139l209 315h242l209 -315h-180l-150 182l-149 -182h-181zM313 297q0 -59 38.5 -100t115.5 -41q51 0 117.5 25.5t95.5 56.5v198q-68 10 -131 10q-236 0 -236 -149z" />
<glyph unicode="&#xe3;" horiz-adv-x="1103" d="M74 305q0 78 35.5 140t96 100t134.5 58t156 20q94 0 184 -23v18q0 99 -50 156t-130 57q-88 0 -163.5 -19.5t-176.5 -59.5v180q122 50 188 65q85 19 182 19q82 0 149.5 -22t124.5 -70.5t88.5 -135.5t31.5 -206v-334q0 -49 24 -68.5t55.5 -14t69.5 24.5v-170 q-111 -43 -196 -43q-61 0 -111 37.5t-57 71.5q-41 -41 -119.5 -75t-145.5 -34q-370 0 -370 328zM227 1133q4 44 10.5 76.5t20.5 66.5t35.5 55.5t57 35t83.5 13.5q24 0 49 -7t36 -12t42 -20q6 -3 17.5 -9t17.5 -9.5t14 -7t14 -5t11 -1.5q26 0 40.5 21t22.5 61h148 q-5 -56 -15 -95t-31 -76t-61.5 -56t-99.5 -19q-24 0 -49 7t-36 12t-42 20q-8 4 -21.5 11.5t-21 11.5t-16.5 7t-15 3q-46 0 -63 -84h2h-150zM313 297q0 -59 38.5 -100t115.5 -41q51 0 117.5 25.5t95.5 56.5v198q-68 10 -131 10q-236 0 -236 -149z" />
<glyph unicode="&#xe4;" horiz-adv-x="1103" d="M74 305q0 78 35.5 140t96 100t134.5 58t156 20q94 0 184 -23v18q0 99 -50 156t-130 57q-88 0 -163.5 -19.5t-176.5 -59.5v180q122 50 188 65q85 19 182 19q82 0 149.5 -22t124.5 -70.5t88.5 -135.5t31.5 -206v-334q0 -49 24 -68.5t55.5 -14t69.5 24.5v-170 q-111 -43 -196 -43q-61 0 -111 37.5t-57 71.5q-41 -41 -119.5 -75t-145.5 -34q-370 0 -370 328zM223 1274q0 59 28 92t99 33q72 0 100.5 -33t28.5 -92q0 -123 -129 -123q-67 0 -97 34t-30 89zM313 297q0 -59 38.5 -100t115.5 -41q51 0 117.5 25.5t95.5 56.5v198 q-68 10 -131 10q-236 0 -236 -149zM565 1274q0 59 28 92t99 33q72 0 100.5 -33t28.5 -92q0 -123 -129 -123q-67 0 -97 34t-30 89z" />
<glyph unicode="&#xe5;" horiz-adv-x="1103" d="M74 305q0 78 35.5 140t96 100t134.5 58t156 20q94 0 184 -23v18q0 99 -50 156t-130 57q-88 0 -163.5 -19.5t-176.5 -59.5v180q122 50 188 65q85 19 182 19q82 0 149.5 -22t124.5 -70.5t88.5 -135.5t31.5 -206v-334q0 -49 24 -68.5t55.5 -14t69.5 24.5v-170 q-111 -43 -196 -43q-61 0 -111 37.5t-57 71.5q-41 -41 -119.5 -75t-145.5 -34q-370 0 -370 328zM291 1339q0 101 63 158t156 57q94 0 156.5 -55.5t62.5 -159.5q0 -99 -64 -157t-155 -58q-93 0 -156 55.5t-63 159.5zM313 297q0 -59 38.5 -100t115.5 -41q51 0 117.5 25.5 t95.5 56.5v198q-68 10 -131 10q-236 0 -236 -149zM426 1339q0 -39 26 -62.5t58 -23.5t58 23.5t26 62.5q0 41 -25.5 63.5t-58.5 22.5t-58.5 -22.5t-25.5 -63.5z" />
<glyph unicode="&#xe6;" horiz-adv-x="1724" d="M74 305q0 78 35.5 140t96 100t134.5 58t156 20q94 0 184 -23v18q0 99 -50 156t-130 57q-88 0 -163.5 -19.5t-176.5 -59.5v180q122 50 188 65q85 19 182 19q90 0 168.5 -37.5t132.5 -110.5q129 144 336 144q224 0 351 -141t127 -386l-5 -77h-712q9 -117 86 -180.5 t196 -63.5q186 0 373 61v-174q-68 -28 -180 -51t-221 -23q-126 0 -230 49t-141 136q-27 -58 -75 -97.5t-104 -57t-100 -24t-88 -6.5q-370 0 -370 328zM313 297q0 -59 38.5 -100t115.5 -41q30 0 52 2.5t59 17.5t59.5 42.5t36.5 83.5t6 134q-68 10 -131 10q-236 0 -236 -149z M928 575h477q-6 109 -74 178.5t-164 69.5t-164.5 -69.5t-74.5 -178.5z" />
<glyph unicode="&#xe7;" horiz-adv-x="989" d="M86 496q1 120 44 220.5t113 164.5t157.5 99.5t179.5 35.5q170 0 321 -37v-180q-125 26 -252 30q-86 0 -148.5 -27.5t-97 -75.5t-50 -104.5t-15.5 -123.5q0 -68 15.5 -124.5t49.5 -105.5t97 -76.5t149 -27.5q122 4 252 31v-181q-123 -29 -276 -34q60 -66 77 -127 q13 -44 13 -74q0 -96 -69 -156t-187 -51q-69 7 -185 59v160l127 -39q60 -18 91.5 3t31.5 57t-16 88t-47 94q-76 19 -142.5 60.5t-118.5 103.5t-82.5 149.5t-31.5 188.5z" />
<glyph unicode="&#xe8;" horiz-adv-x="1130" d="M88 504q0 119 40 217t107.5 160.5t154.5 96.5t183 34q224 0 351 -141t127 -386l-4 -77h-713q9 -117 86 -180.5t196 -63.5q186 0 373 61v-174q-68 -28 -180 -51t-221 -23q-108 0 -197.5 31.5t-157.5 94.5t-106.5 165.5t-38.5 235.5zM322 1454h239l139 -315h-184zM334 575 h477q-6 109 -74 178.5t-164 69.5t-164.5 -69.5t-74.5 -178.5z" />
<glyph unicode="&#xe9;" horiz-adv-x="1130" d="M88 504q0 119 40 217t107.5 160.5t154.5 96.5t183 34q224 0 351 -141t127 -386l-4 -77h-713q9 -117 86 -180.5t196 -63.5q186 0 373 61v-174q-68 -28 -180 -51t-221 -23q-108 0 -197.5 31.5t-157.5 94.5t-106.5 165.5t-38.5 235.5zM334 575h477q-6 109 -74 178.5 t-164 69.5t-164.5 -69.5t-74.5 -178.5zM453 1139l139 315h239l-194 -315h-184z" />
<glyph unicode="&#xea;" horiz-adv-x="1130" d="M88 504q0 119 40 217t107.5 160.5t154.5 96.5t183 34q224 0 351 -141t127 -386l-4 -77h-713q9 -117 86 -180.5t196 -63.5q186 0 373 61v-174q-68 -28 -180 -51t-221 -23q-108 0 -197.5 31.5t-157.5 94.5t-106.5 165.5t-38.5 235.5zM240 1139l209 315h241l209 -315h-180 l-150 182l-149 -182h-180zM334 575h477q-6 109 -74 178.5t-164 69.5t-164.5 -69.5t-74.5 -178.5z" />
<glyph unicode="&#xeb;" horiz-adv-x="1130" d="M88 504q0 119 40 217t107.5 160.5t154.5 96.5t183 34q224 0 351 -141t127 -386l-4 -77h-713q9 -117 86 -180.5t196 -63.5q186 0 373 61v-174q-68 -28 -180 -51t-221 -23q-108 0 -197.5 31.5t-157.5 94.5t-106.5 165.5t-38.5 235.5zM270 1274q0 59 28 92t99 33 q72 0 100.5 -33t28.5 -92q0 -123 -129 -123q-67 0 -97 34t-30 89zM334 575h477q-6 109 -74 178.5t-164 69.5t-164.5 -69.5t-74.5 -178.5zM612 1274q0 59 28 92t99 33q72 0 100.5 -33t28.5 -92q0 -123 -129 -123q-67 0 -97 34t-30 89z" />
<glyph unicode="&#xec;" horiz-adv-x="528" d="M6 1454h240l139 -315h-184zM143 0v991h242v-991h-242z" />
<glyph unicode="&#xed;" horiz-adv-x="528" d="M143 0v991h242v-991h-242zM143 1139l140 315h239l-194 -315h-185z" />
<glyph unicode="&#xee;" horiz-adv-x="528" d="M-68 1139l209 315h242l209 -315h-180l-150 182l-149 -182h-181zM143 0v991h242v-991h-242z" />
<glyph unicode="&#xef;" horiz-adv-x="528" d="M-37 1274q0 59 28 92t99 33q72 0 100.5 -33t28.5 -92q0 -123 -129 -123q-67 0 -97 34t-30 89zM143 0v991h242v-991h-242zM305 1274q0 59 28 92t99 33q72 0 100.5 -33t28.5 -92q0 -123 -129 -123q-67 0 -97 34t-30 89z" />
<glyph unicode="&#xf0;" horiz-adv-x="1224" d="M90 477q0 110 30 198.5t78 143.5t113 91.5t130 51.5t134 15q129 0 205 -59q-45 75 -98 126.5t-129 94.5l-248 -144v125l139 80q-101 52 -194 78l119 176q150 -51 282 -133l221 129v-125l-122 -72q178 -139 279 -333t101 -437q0 -116 -30.5 -206.5t-80 -146t-118.5 -91 t-140.5 -48.5t-152.5 -11q-75 -2 -146 13t-139.5 52t-119.5 93t-82 143.5t-31 195.5zM334 485q0 -154 72.5 -237.5t203.5 -83.5q133 0 205 81t72 240q0 153 -72 230.5t-205 77.5q-131 0 -203.5 -80.5t-72.5 -227.5z" />
<glyph unicode="&#xf1;" horiz-adv-x="1171" d="M143 0v991h217l19 -80q94 105 233 105q71 0 125.5 -9t113.5 -38t98 -78t64 -136t25 -206v-549h-254v569q0 142 -49.5 205.5t-146.5 63.5q-49 0 -108 -30.5t-95 -66.5v-741h-242zM276 1133q4 44 10.5 76.5t20.5 66.5t35.5 55.5t57 35t83.5 13.5q24 0 49 -7t36 -12t42 -20 q6 -3 17.5 -9t17.5 -9.5t14 -7t14 -5t11 -1.5q47 0 64 82h147q-5 -56 -15 -95t-31 -76t-61.5 -56t-99.5 -19q-24 0 -49 7t-36 12t-42 20q-8 4 -21.5 11.5t-21 11.5t-16.5 7t-15 3q-46 0 -63 -84h2h-150z" />
<glyph unicode="&#xf2;" horiz-adv-x="1249" d="M88 492q0 110 32.5 200.5t86.5 150t124.5 100.5t144 58t147.5 15q76 2 150.5 -15.5t145 -58t124 -100t86 -150t32.5 -200.5q0 -108 -32.5 -197t-86 -147.5t-124 -98.5t-145 -57t-150.5 -15q-74 -2 -147.5 15t-144 57t-124.5 98.5t-86.5 147.5t-32.5 197zM332 500 q0 -155 80.5 -243.5t212.5 -88.5t212.5 88.5t80.5 243.5q0 148 -81 236.5t-212 88.5t-212 -88.5t-81 -236.5zM350 1454h240l139 -315h-184z" />
<glyph unicode="&#xf3;" horiz-adv-x="1249" d="M88 492q0 110 32.5 200.5t86.5 150t124.5 100.5t144 58t147.5 15q76 2 150.5 -15.5t145 -58t124 -100t86 -150t32.5 -200.5q0 -108 -32.5 -197t-86 -147.5t-124 -98.5t-145 -57t-150.5 -15q-74 -2 -147.5 15t-144 57t-124.5 98.5t-86.5 147.5t-32.5 197zM332 500 q0 -155 80.5 -243.5t212.5 -88.5t212.5 88.5t80.5 243.5q0 148 -81 236.5t-212 88.5t-212 -88.5t-81 -236.5zM502 1139l139 315h240l-195 -315h-184z" />
<glyph unicode="&#xf4;" horiz-adv-x="1249" d="M88 492q0 110 32.5 200.5t86.5 150t124.5 100.5t144 58t147.5 15q76 2 150.5 -15.5t145 -58t124 -100t86 -150t32.5 -200.5q0 -108 -32.5 -197t-86 -147.5t-124 -98.5t-145 -57t-150.5 -15q-74 -2 -147.5 15t-144 57t-124.5 98.5t-86.5 147.5t-32.5 197zM295 1139 l209 315h241l209 -315h-180l-149 182l-150 -182h-180zM332 500q0 -155 80.5 -243.5t212.5 -88.5t212.5 88.5t80.5 243.5q0 148 -81 236.5t-212 88.5t-212 -88.5t-81 -236.5z" />
<glyph unicode="&#xf5;" horiz-adv-x="1249" d="M88 492q0 110 32.5 200.5t86.5 150t124.5 100.5t144 58t147.5 15q76 2 150.5 -15.5t145 -58t124 -100t86 -150t32.5 -200.5q0 -108 -32.5 -197t-86 -147.5t-124 -98.5t-145 -57t-150.5 -15q-74 -2 -147.5 15t-144 57t-124.5 98.5t-86.5 147.5t-32.5 197zM315 1133 q4 44 10.5 76.5t20.5 66.5t35.5 55.5t57 35t83.5 13.5q24 0 49 -7t36 -12t42 -20q6 -3 17.5 -9t17.5 -9.5t14 -7t14 -5t11 -1.5q26 0 40.5 21t22.5 61h148q-5 -56 -15 -95t-31 -76t-61.5 -56t-99.5 -19q-24 0 -49 7t-36 12t-42 20q-8 4 -21.5 11.5t-21 11.5t-16.5 7t-15 3 q-46 0 -63 -84h2h-150zM332 500q0 -155 80.5 -243.5t212.5 -88.5t212.5 88.5t80.5 243.5q0 148 -81 236.5t-212 88.5t-212 -88.5t-81 -236.5z" />
<glyph unicode="&#xf6;" horiz-adv-x="1249" d="M88 492q0 110 32.5 200.5t86.5 150t124.5 100.5t144 58t147.5 15q76 2 150.5 -15.5t145 -58t124 -100t86 -150t32.5 -200.5q0 -108 -32.5 -197t-86 -147.5t-124 -98.5t-145 -57t-150.5 -15q-74 -2 -147.5 15t-144 57t-124.5 98.5t-86.5 147.5t-32.5 197zM326 1274 q0 59 28 92t99 33q72 0 100.5 -33t28.5 -92q0 -123 -129 -123q-67 0 -97 34t-30 89zM332 500q0 -155 80.5 -243.5t212.5 -88.5t212.5 88.5t80.5 243.5q0 148 -81 236.5t-212 88.5t-212 -88.5t-81 -236.5zM668 1274q0 59 28 92t99 33q72 0 100.5 -33t28.5 -92 q0 -123 -129 -123q-67 0 -97 34t-30 89z" />
<glyph unicode="&#xf7;" horiz-adv-x="1146" d="M106 543v186h934v-186h-934zM424 272q0 68 31.5 104t117.5 36t117 -36t31 -104q0 -65 -33 -102t-115 -37t-115.5 37t-33.5 102zM424 989q0 67 31.5 103t117.5 36t117 -35.5t31 -103.5q0 -65 -33 -101t-115 -36t-115.5 36t-33.5 101z" />
<glyph unicode="&#xf8;" horiz-adv-x="1222" d="M90 492q0 110 31 200.5t82 150t119 100t140 58t146 15.5q98 0 199 -33q22 34 102 170l154 -94l-98 -158q165 -132 165 -403q0 -117 -30 -209t-80 -150.5t-119 -96.5t-141 -52.5t-152 -12.5q-107 -3 -198 31l-93 -151l-157 65l100 168q-170 149 -170 402zM334 500 q0 -133 47 -211l324 530q-43 12 -95 12q-129 0 -202.5 -90t-73.5 -241zM516 176q37 -12 94 -12q131 0 204 87t73 249q0 128 -45 205z" />
<glyph unicode="&#xf9;" horiz-adv-x="1228" d="M133 442v549h254v-569q0 -141 49.5 -203.5t147.5 -62.5q49 0 107.5 29t94.5 65v741h242v-743q0 -49 24.5 -68.5t56 -14t69.5 24.5v-170q-111 -43 -197 -43q-61 0 -111 37.5t-57 71.5q-43 -54 -116.5 -81.5t-137.5 -27.5q-62 0 -114 8.5t-112.5 37.5t-102 77.5t-69.5 136 t-28 205.5zM348 1454h240l139 -315h-184z" />
<glyph unicode="&#xfa;" horiz-adv-x="1228" d="M133 442v549h254v-569q0 -141 49.5 -203.5t147.5 -62.5q49 0 107.5 29t94.5 65v741h242v-743q0 -49 24.5 -68.5t56 -14t69.5 24.5v-170q-111 -43 -197 -43q-61 0 -111 37.5t-57 71.5q-43 -54 -116.5 -81.5t-137.5 -27.5q-62 0 -114 8.5t-112.5 37.5t-102 77.5t-69.5 136 t-28 205.5zM395 1139l140 315h239l-194 -315h-185z" />
<glyph unicode="&#xfb;" horiz-adv-x="1228" d="M133 442v549h254v-569q0 -141 49.5 -203.5t147.5 -62.5q49 0 107.5 29t94.5 65v741h242v-743q0 -49 24.5 -68.5t56 -14t69.5 24.5v-170q-111 -43 -197 -43q-61 0 -111 37.5t-57 71.5q-43 -54 -116.5 -81.5t-137.5 -27.5q-62 0 -114 8.5t-112.5 37.5t-102 77.5t-69.5 136 t-28 205.5zM256 1139l209 315h242l208 -315h-180l-149 182l-150 -182h-180z" />
<glyph unicode="&#xfc;" horiz-adv-x="1228" d="M133 442v549h254v-569q0 -141 49.5 -203.5t147.5 -62.5q49 0 107.5 29t94.5 65v741h242v-743q0 -49 24.5 -68.5t56 -14t69.5 24.5v-170q-111 -43 -197 -43q-61 0 -111 37.5t-57 71.5q-43 -54 -116.5 -81.5t-137.5 -27.5q-62 0 -114 8.5t-112.5 37.5t-102 77.5t-69.5 136 t-28 205.5zM287 1274q0 59 28 92t99 33q72 0 100.5 -33t28.5 -92q0 -123 -129 -123q-67 0 -97 34t-30 89zM629 1274q0 59 28 92t99 33q72 0 100.5 -33t28.5 -92q0 -123 -129 -123q-67 0 -97 34t-30 89z" />
<glyph unicode="&#xfd;" horiz-adv-x="1079" d="M25 991h266l250 -680l245 680h267q-457 -1159 -473 -1208q-23 -66 -52 -107t-72 -62t-90.5 -27.5t-119.5 -4.5h-117v187l115 2q45 3 73 22t48 70l55 164zM401 1139l140 315h239l-194 -315h-185z" />
<glyph unicode="&#xfe;" horiz-adv-x="1204" d="M143 -336v1327v420h232v-496q37 43 119 72t153 29q95 0 179.5 -35t149.5 -99t102.5 -163.5t37.5 -220.5q0 -122 -37.5 -222.5t-102.5 -165t-149.5 -99t-179.5 -34.5q-71 0 -153 28.5t-119 70.5v-412h-232zM389 221q101 -49 186 -49q73 0 131.5 29t93 76.5t53 103.5 t19.5 115q-1 60 -19.5 116t-53.5 103.5t-93 76.5t-131 29q-80 0 -186 -51v-549z" />
<glyph unicode="&#xff;" horiz-adv-x="1079" d="M25 991h266l250 -680l245 680h267q-457 -1159 -473 -1208q-23 -66 -52 -107t-72 -62t-90.5 -27.5t-119.5 -4.5h-117v187l115 2q45 3 73 22t48 70l55 164zM246 1274q0 59 28 92t99 33q72 0 100.5 -33t28.5 -92q0 -123 -129 -123q-67 0 -97 34t-30 89zM588 1274q0 59 28 92 t99 33q72 0 100.5 -33t28.5 -92q0 -123 -129 -123q-67 0 -97 34t-30 89z" />
<glyph unicode="&#x152;" horiz-adv-x="2310" d="M102 700q0 153 42.5 279t112.5 209t164 139.5t193.5 81.5t204.5 25q291 0 477 -174v151h899v-209h-651v-371h606v-208h-606v-326q0 -41 20.5 -64.5t75.5 -23.5h555v-209h-567q-136 3 -211 40.5t-104 123.5q-184 -187 -496 -187q-323 2 -519 198.5t-196 524.5zM348 700 q0 -229 129.5 -373.5t339.5 -144.5q214 0 344.5 144.5t130.5 373.5q0 133 -41.5 237.5t-110.5 166.5t-151 93.5t-170 31.5q-69 0 -135.5 -19t-127.5 -61t-107 -102.5t-73.5 -150t-27.5 -196.5z" />
<glyph unicode="&#x153;" horiz-adv-x="1961" d="M88 492q0 110 32.5 200.5t86.5 150t124.5 100.5t144 58t147.5 15q280 8 409 -174q67 82 165 126t208 44q224 0 350.5 -141t126.5 -386l-4 -77h-713q9 -117 86.5 -180.5t196.5 -63.5q186 0 373 61v-174q-68 -28 -180.5 -51t-221.5 -23q-260 0 -391 164 q-75 -85 -182.5 -126t-222.5 -38q-74 -2 -147.5 15t-144 57t-124.5 98.5t-86.5 147.5t-32.5 197zM332 500q0 -155 80.5 -243.5t212.5 -88.5t212.5 88.5t80.5 243.5q0 148 -81 236.5t-212 88.5t-212 -88.5t-81 -236.5zM1165 575h477q-6 109 -73.5 178.5t-163.5 69.5 q-97 0 -165.5 -69.5t-74.5 -178.5z" />
<glyph unicode="&#x178;" horiz-adv-x="1204" d="M14 1411h287l303 -580l301 580h283l-461 -805v-606h-248v606zM301 1694q0 59 28 92t99 33q72 0 100.5 -33t28.5 -92q0 -123 -129 -123q-67 0 -97 34t-30 89zM643 1694q0 59 28 92t99 33q72 0 100.5 -33t28.5 -92q0 -123 -129 -123q-67 0 -97 34t-30 89z" />
<glyph unicode="&#x2c6;" horiz-adv-x="1089" d="M215 1139l209 315h242l208 -315h-180l-149 182l-150 -182h-180z" />
<glyph unicode="&#x2dc;" horiz-adv-x="946" d="M164 1133q4 44 10.5 76.5t20.5 66.5t35.5 55.5t57 35t83.5 13.5q24 0 49 -7t36 -12t42 -20q7 -4 21 -11.5t21 -11t16 -6.5t15 -3q47 0 64 82h147q-5 -56 -15 -95t-31 -76t-61.5 -56t-99.5 -19q-8 0 -16 0.5t-16 2t-14 3t-14.5 4.5t-12.5 4.5t-13.5 6t-12.5 5.5t-14 6.5 l-13 6.5q-8 4 -21.5 11.5t-21 11.5t-16.5 7t-15 3q-47 0 -64 -84h2h-149z" />
<glyph unicode="&#x2000;" horiz-adv-x="987" />
<glyph unicode="&#x2001;" horiz-adv-x="1974" />
<glyph unicode="&#x2002;" horiz-adv-x="987" />
<glyph unicode="&#x2003;" horiz-adv-x="1974" />
<glyph unicode="&#x2004;" horiz-adv-x="658" />
<glyph unicode="&#x2005;" horiz-adv-x="493" />
<glyph unicode="&#x2006;" horiz-adv-x="329" />
<glyph unicode="&#x2007;" horiz-adv-x="329" />
<glyph unicode="&#x2008;" horiz-adv-x="246" />
<glyph unicode="&#x2009;" horiz-adv-x="394" />
<glyph unicode="&#x200a;" horiz-adv-x="109" />
<glyph unicode="&#x2010;" horiz-adv-x="946" d="M125 428v205h696v-205h-696z" />
<glyph unicode="&#x2011;" horiz-adv-x="946" d="M125 428v205h696v-205h-696z" />
<glyph unicode="&#x2012;" horiz-adv-x="946" d="M125 428v205h696v-205h-696z" />
<glyph unicode="&#x2013;" horiz-adv-x="1234" d="M129 438v203h977v-203h-977z" />
<glyph unicode="&#x2014;" horiz-adv-x="1646" d="M129 438v203h1389v-203h-1389z" />
<glyph unicode="&#x2018;" horiz-adv-x="534" d="M74 952l194 457h199l-137 -457h-256z" />
<glyph unicode="&#x2019;" horiz-adv-x="530" d="M84 954l137 457h256l-194 -457h-199z" />
<glyph unicode="&#x201a;" horiz-adv-x="540" d="M55 -76l138 457h256l-195 -457h-199z" />
<glyph unicode="&#x201c;" horiz-adv-x="856" d="M74 954l194 457h209l-158 -457h-245zM414 954l168 457h206l-137 -457h-237z" />
<glyph unicode="&#x201d;" horiz-adv-x="851" d="M84 954l137 457h238l-168 -457h-207zM395 954l158 457h246l-195 -457h-209z" />
<glyph unicode="&#x201e;" horiz-adv-x="876" d="M55 -76l138 457h251l-182 -457h-207zM377 -76l170 457h237l-194 -457h-213z" />
<glyph unicode="&#x2022;" horiz-adv-x="794" d="M121 526q0 63 11.5 109.5t40.5 86t85.5 60.5t138.5 21t138.5 -21t85.5 -60.5t41 -86.5t12 -109q0 -61 -13 -108.5t-43 -86.5t-86 -60t-135 -21t-135 21t-85.5 60t-42.5 86t-13 109z" />
<glyph unicode="&#x2026;" horiz-adv-x="1636" d="M106 117q0 67 32 103t116 36q86 0 117.5 -36t31.5 -103q0 -65 -33.5 -101t-115.5 -36q-148 0 -148 137zM670 117q0 67 31.5 103t115.5 36q86 0 118 -36t32 -103q0 -64 -34 -100.5t-116 -36.5q-81 0 -114 36.5t-33 100.5zM1233 117q0 67 31.5 103t115.5 36q86 0 118 -36 t32 -103q0 -64 -34 -100.5t-116 -36.5q-81 0 -114 36.5t-33 100.5z" />
<glyph unicode="&#x202f;" horiz-adv-x="394" />
<glyph unicode="&#x2039;" horiz-adv-x="681" d="M74 506l284 426h246l-287 -426l287 -428h-246z" />
<glyph unicode="&#x203a;" horiz-adv-x="681" d="M78 78l287 428l-287 426h246l284 -426l-284 -428h-246z" />
<glyph unicode="&#x205f;" horiz-adv-x="493" />
<glyph unicode="&#x20ac;" horiz-adv-x="1318" d="M96 469v147h187q-2 57 -2 103h-185v147h189q17 115 63.5 208t110.5 154t146.5 102.5t167.5 59t175 17.5q102 0 164 -12h-2l86 -13v-198q-99 28 -199 28q-86 0 -159 -18.5t-135.5 -58t-105.5 -108t-62 -161.5h530v-147h-541q-2 -34 -1.5 -51t2 -33.5t1.5 -18.5h539v-147 h-526q17 -75 52.5 -130t77.5 -86.5t100.5 -49.5t110 -23.5t117.5 -5.5q97 0 199 29v-199l-84 -12q-58 -12 -164 -12q-90 0 -172 14t-164 49t-145.5 89t-111.5 140t-68 197h-191z" />
<glyph unicode="&#x2122;" horiz-adv-x="1660" d="M127 924v129h762l201 -467l200 467h170l51 -727h-157l-31 485l-176 -399h-117l-174 395l-31 -481h-159l45 598h-201v-598h-160v598h-223z" />
<glyph unicode="&#xe000;" horiz-adv-x="993" d="M0 0v993h993v-993h-993z" />
</font>
</defs>
</svg>
