<?xml version="1.0" standalone="no"?>
<!DOCTYPE svg PUBLIC "-//W3C//DTD SVG 1.1//EN" "http://www.w3.org/Graphics/SVG/1.1/DTD/svg11.dtd" >
<svg xmlns="http://www.w3.org/2000/svg">
<metadata></metadata>
<defs>
<font id="kyrial_display_proRgIt" horiz-adv-x="1642" >
<font-face units-per-em="2048" ascent="1536" descent="-512" />
<missing-glyph horiz-adv-x="466" />
<glyph unicode="&#xfb01;" horiz-adv-x="1204" d="M-117 -410l23 138h84q121 0 165 34t58 127l154 965h-177l23 137h176l27 164q10 62 31.5 110.5t45.5 79.5t61 53t65 32.5t72 16.5t67.5 6.5t64.5 0.5h113l-21 -137h-96q-64 0 -104 -8t-65.5 -30t-38 -52.5t-21.5 -83.5l-25 -152h639l-155 -991h-177l134 854h-465 l-154 -965q-10 -62 -31 -110.5t-45 -79.5t-61 -53t-65 -32.5t-71.5 -16.5t-66.5 -6.5t-63 -0.5h-101zM1059 1305q7 50 34.5 78t88.5 28t79 -27.5t11 -78.5q-15 -107 -123 -107q-105 0 -90 107z" />
<glyph unicode="&#xfb02;" horiz-adv-x="1298" d="M-117 -410l23 138h84q121 0 165 34t58 127l154 965h-177l23 137h176l27 164q10 62 31.5 110.5t45.5 79.5t61 53t65 32.5t72 16.5t67.5 6.5t64.5 0.5h312h139l-187 -1165q-5 -32 -5.5 -49t6.5 -41t26 -36t57.5 -21t96.5 -9h24l-20 -141h-62q-186 0 -255 60.5t-44 223.5 l166 1041h-258q-64 0 -104 -8t-65.5 -30t-38 -52.5t-21.5 -83.5l-25 -152h254l-22 -137h-256l-154 -965q-10 -62 -31 -110.5t-45 -79.5t-61 -53t-65 -32.5t-71.5 -16.5t-66.5 -6.5t-63 -0.5h-101z" />
<glyph unicode="&#xfb03;" horiz-adv-x="1921" d="M-117 -410l23 138h84q121 0 165 34t58 127l154 965h-177l23 137h176l27 164q10 62 31.5 110.5t45.5 79.5t61 53t65 32.5t72 16.5t67.5 6.5t64.5 0.5h113l-21 -137h-96q-64 0 -104 -8t-65.5 -30t-38 -52.5t-21.5 -83.5l-25 -152h541l27 164q10 62 31.5 110.5t45.5 79.5 t61 53t65 32.5t72 16.5t67.5 6.5t64.5 0.5h113l-21 -137h-96q-64 0 -104 -8t-65.5 -30t-38 -52.5t-21.5 -83.5l-25 -152h639l-156 -991h-176l133 854h-465l-153 -965q-7 -44 -18.5 -81t-29 -65t-35 -50.5t-42 -38t-44.5 -27t-49.5 -18.5t-48.5 -11t-50 -5.5t-46.5 -2 t-44.5 -0.5h-100l22 138h84q124 0 169 34t59 127l153 965h-542l-154 -965q-10 -62 -31 -110.5t-45 -79.5t-61 -53t-65 -32.5t-71.5 -16.5t-66.5 -6.5t-63 -0.5h-101zM1776 1305q7 50 34 78t88 28t79.5 -27.5t11.5 -78.5q-15 -107 -123 -107q-105 0 -90 107z" />
<glyph unicode="&#xfb04;" horiz-adv-x="2015" d="M-117 -410l23 138h84q121 0 165 34t58 127l154 965h-177l23 137h176l27 164q10 62 31.5 110.5t45.5 79.5t61 53t65 32.5t72 16.5t67.5 6.5t64.5 0.5h113l-21 -137h-96q-64 0 -104 -8t-65.5 -30t-38 -52.5t-21.5 -83.5l-25 -152h541l27 164q10 62 31.5 110.5t45.5 79.5 t61 53t65 32.5t72 16.5t67.5 6.5t64.5 0.5h451l-187 -1165q-5 -32 -5.5 -49t6.5 -41t26 -36t57.5 -21t96.5 -9h24l-20 -141h-62q-186 0 -255 60.5t-44 223.5l166 1041h-258q-64 0 -104 -8t-65.5 -30t-38 -52.5t-21.5 -83.5l-25 -152h254l-23 -137h-256l-153 -965 q-7 -44 -18.5 -81t-29 -65t-35 -50.5t-42 -38t-44.5 -27t-49.5 -18.5t-48.5 -11t-50 -5.5t-46.5 -2t-44.5 -0.5h-100l22 138h84q124 0 169 34t59 127l153 965h-542l-154 -965q-10 -62 -31 -110.5t-45 -79.5t-61 -53t-65 -32.5t-71.5 -16.5t-66.5 -6.5t-63 -0.5h-101z" />
<glyph horiz-adv-x="2048" />
<glyph horiz-adv-x="2048" />
<glyph unicode="&#xd;" horiz-adv-x="2048" />
<glyph unicode=" "  horiz-adv-x="466" />
<glyph unicode="&#x09;" horiz-adv-x="466" />
<glyph unicode="&#xa0;" horiz-adv-x="466" />
<glyph unicode="!" horiz-adv-x="503" d="M156 94q15 107 123 107q105 0 90 -107q-7 -50 -34.5 -78t-88.5 -28t-79 27.5t-11 78.5zM229 319l158 1092h176l-190 -1092h-144z" />
<glyph unicode="&#x22;" horiz-adv-x="729" d="M283 854l71 557h176l-110 -557h-137zM573 854l72 557h176l-110 -557h-138z" />
<glyph unicode="#" horiz-adv-x="1495" d="M145 371l58 149h239l136 336h-240l59 150h240l158 405h149l-160 -405h346l160 405h150l-160 -405h287l-60 -150h-286l-136 -336h287l-57 -149h-287l-143 -371h-150l144 371h-347l-143 -371h-147l143 371h-240zM590 520h346l135 336h-346z" />
<glyph unicode="$" horiz-adv-x="1171" d="M137 74l27 170q46 -22 73 -33.5t86.5 -33t122.5 -32t127 -10.5q157 0 254 53.5t125 180.5q6 24 3 45.5t-10 39.5t-22.5 35t-34 31t-44 28t-52.5 26t-60 24.5t-67 24.5t-73 25q-17 6 -26 9t-23.5 8t-26.5 9q-63 22 -110.5 54.5t-73.5 66.5t-42.5 69.5t-20.5 67t-4.5 56.5 t2.5 40l3 14q30 160 152.5 260t329.5 123l36 213h127l-34 -206q85 -1 189 -27.5t157 -50.5l-27 -162q-111 43 -185.5 61.5t-170.5 18.5q-176 0 -275 -67t-118 -173q-1 -3 -1.5 -7.5t-1 -19t2.5 -29t13 -33.5t25.5 -36t43.5 -34t65 -29l78 -29q59 -20 95.5 -33t86.5 -33.5 t80 -36.5t67 -39.5t57.5 -46t41 -52.5t27.5 -62.5t7 -72.5t-10 -85q-44 -184 -165 -271t-312 -101l-39 -215h-127l37 210q-73 3 -153 21.5t-123 34t-109 41.5z" />
<glyph unicode="%" horiz-adv-x="1583" d="M170 0l1352 1411h133l-1352 -1411h-133zM268 1096q15 88 56 156t96.5 106.5t115 57.5t119.5 18q51 0 94.5 -10t84 -33.5t64.5 -61.5t36 -95t-2 -134q-27 -165 -129.5 -251.5t-253.5 -86.5q-61 0 -115.5 19t-98 57t-62.5 104.5t-5 153.5zM424 1102q-15 -96 24 -150.5 t123 -54.5q82 0 135 53.5t70 151.5q15 92 -23 144t-120 52q-84 0 -139.5 -53t-69.5 -143zM870 309q14 88 54.5 156.5t95.5 107t115 57.5t120 17q51 0 94.5 -10t84 -33.5t64.5 -61.5t36 -95t-2 -134q-27 -164 -130.5 -250t-254.5 -86q-60 -2 -114 16.5t-96.5 56.5t-61.5 105 t-5 154zM1024 315q-15 -96 23 -150t122 -54q82 0 137 53.5t70 150.5q15 92 -23 144.5t-120 52.5q-84 0 -139 -53t-70 -144z" />
<glyph unicode="&#x26;" horiz-adv-x="1327" d="M203 369q35 177 141 281q58 57 133 81q-57 20 -95 59.5t-52.5 78.5t-19 82t-3 63t3.5 30q36 182 178 285t377 103q204 0 305 -46l-24 -151q-121 39 -307 39q-150 0 -243.5 -68t-111.5 -172q-2 -7 -3 -18.5t2 -42.5t15.5 -57.5t46 -54.5t85.5 -42h569h211l-25 -149h-210 l-91 -551q-70 -47 -215 -94.5t-235 -47.5q-235 0 -345.5 105t-86.5 287zM379 379q-14 -105 56.5 -174.5t219.5 -69.5q123 0 271 66l75 469h-299q-56 0 -104.5 -16t-80.5 -41.5t-58 -57t-40 -62.5t-24 -56.5t-13 -41.5z" />
<glyph unicode="'" horiz-adv-x="438" d="M283 854l71 557h176l-110 -557h-137z" />
<glyph unicode="(" horiz-adv-x="694" d="M182 512q69 436 250.5 679t421.5 243l-18 -127q-72 -1 -141.5 -45.5t-135.5 -136t-121 -250t-88 -367.5q-31 -216 -28 -365.5t41 -243.5t93 -136.5t126 -43.5l-21 -129q-240 0 -344.5 245.5t-34.5 676.5z" />
<glyph unicode=")" horiz-adv-x="692" d="M2 -410l16 129q58 1 113 27.5t110.5 86.5t102.5 149t88 223.5t68 302.5q32 218 29.5 369.5t-40 247t-91.5 138.5t-126 44l21 127q240 0 344 -243t35 -679q-70 -431 -251.5 -676.5t-418.5 -245.5z" />
<glyph unicode="*" horiz-adv-x="980" d="M262 987l23 148l268 -15l-107 236l140 76l92 -246l164 246l119 -74l-181 -238l273 15l-23 -148l-270 14l106 -237l-141 -74l-86 246l-170 -246l-117 76l180 235z" />
<glyph unicode="+" horiz-adv-x="1101" d="M172 483l27 164h372l60 373h164l-60 -373h373l-27 -164h-372l-60 -372h-164l60 372h-373z" />
<glyph unicode="," horiz-adv-x="485" d="M-8 -221l213 405h184l-266 -405h-131z" />
<glyph unicode="-" horiz-adv-x="933" d="M209 455l22 155h660l-23 -155h-659z" />
<glyph unicode="." horiz-adv-x="479" d="M137 94q8 56 38 86.5t97 30.5t87 -30.5t12 -86.5q-18 -117 -135 -117t-99 117z" />
<glyph unicode="/" horiz-adv-x="874" d="M78 0l794 1411h148l-795 -1411h-147z" />
<glyph unicode="0" horiz-adv-x="1271" d="M217 702q25 154 76 279t115.5 208t142.5 139.5t155.5 81t155.5 24.5t148 -25t131.5 -80t98.5 -140.5t50 -207t-14 -279.5q-54 -331 -229.5 -528t-415.5 -197h2q-242 0 -356 197t-60 528zM390 405.5q23 -126.5 93 -199.5t172 -73q154 0 281 159.5t166 409.5 q21 151 8.5 260t-55 179t-97.5 103.5t-118 33.5t-129.5 -34.5t-130.5 -101.5t-115 -181.5t-74 -258.5q-24 -170 -1 -296.5z" />
<glyph unicode="1" horiz-adv-x="870" d="M96 0l23 156h276l170 1067l-293 -121l27 166l326 143h147l-201 -1255h277l-23 -156h-729z" />
<glyph unicode="2" horiz-adv-x="1103" d="M74 0l20 137l611 543q87 72 145.5 133t85 106t36.5 70t15 53q11 104 -56.5 168t-217.5 64q-198 0 -404 -111l25 162q93 50 198.5 78.5t200.5 28.5q237 0 348 -99.5t82 -279.5q-5 -28 -9.5 -48t-24 -67t-48.5 -90.5t-85 -106.5t-130 -127l-532 -460l690 2l-23 -156h-927z " />
<glyph unicode="3" horiz-adv-x="1114" d="M100 51l25 158q192 -74 403 -74q149 0 239 70t110 176q1 4 2 12t1 30t-2.5 43t-11 48t-23 48t-41 39t-61.5 26h-364l26 155h1h1h1h1h1h1h1h1h1h1h1h1h1h1h1h1h1h1h1h1h1h1h1h1h1h1h1h1h1h1h1h1h1h1h1h1h1h1h1h1h1h1h1h1h1h1h1h1h1h1h1h1h1h1h1h1h1h1h1h1h1h1h1h1h1h2h1h1 h1h1h1h1h1h1h1h1h2h1h1h1h1h1h1h2h1h1h1h1h1h2h1h1h1h1h2h1h1h1h2h1h1h1h2h1h1h1h2h1h1h2h1h1h1h2h1h1h2h1h1h2h1h1h2h1h1h2h1h2h1h1h2h1h2h1h1h2h1h2h1h1h2h1h2h1h2h1h2h1h2h1h1h2h1h2h1h2h1h2h1h2h1h2h2h1h2h1h2h1h2h1h2h1h2h2h1h2h1h2h1h2h2h1h2h1h2h2h1h2h2h1h2h1h2h2h1 h2h2h1h2h2h1h2h2h1h2h2h1h2h2h2h1h2h2h1h2h2h2h1h2h2h2h1h2h2h2h1h2h2h2h1h2h2h2h2h1h2h2h2h2h1h2h2h2h2h2h1h2h2h2h2h2h1h2h2h2h2h2h2h9q55 14 97.5 44t63 64t33.5 65.5t16 52.5l3 20q15 106 -53 176t-217 70q-101 0 -190 -17t-202 -55l27 156q59 24 177 49t206 25 q234 0 345 -105.5t87 -288.5q-39 -193 -171 -290q-39 -29 -83 -46q52 -22 85.5 -64.5t46 -83.5t16.5 -86t2 -66t-4 -31q-36 -183 -178.5 -288.5t-376.5 -105.5q-91 0 -222 26t-176 48z" />
<glyph unicode="4" horiz-adv-x="1193" d="M102 340l21 125l842 946h186l-147 -917h204l-22 -154h-205l-53 -340h-176l53 340h-703zM322 494h505l113 704z" />
<glyph unicode="5" horiz-adv-x="1157" d="M102 49l43 158q187 -72 437 -72q153 0 255 80.5t124 208.5q3 15 4.5 29.5t0.5 44.5t-7.5 55t-24 54.5t-45 50t-74.5 34t-108 13.5h-459l174 706h795l-25 -156h-633l-98 -389h53h231q104 0 181.5 -24t122.5 -65.5t71.5 -98.5t27.5 -124t-9 -140q-35 -185 -195.5 -311 t-392.5 -126q-94 0 -250.5 25.5t-198.5 46.5z" />
<glyph unicode="6" horiz-adv-x="1230" d="M190.5 284.5q-18.5 106.5 2.5 254.5q70 433 275.5 664t508.5 231q68 0 119 -5t70.5 -9t55.5 -16t46 -15l-27 -148q-92 45 -252 45q-124 0 -231.5 -52t-181 -138t-121 -187.5t-64.5 -208.5q47 87 164.5 148t235.5 61q86 0 156.5 -19t119 -52t84.5 -78t52 -97t22 -109 t-6 -114q-34 -216 -187.5 -339.5t-394.5 -123.5q-124 0 -215 32.5t-152 100.5t-79.5 174.5zM358 440q-10 -56 3 -109.5t46.5 -98t97.5 -72t150 -27.5q70 0 132.5 16t118 50.5t94 96t51.5 144.5q21 133 -54.5 221.5t-232.5 88.5q-166 0 -274.5 -94.5t-131.5 -215.5z" />
<glyph unicode="7" horiz-adv-x="1040" d="M94 0l910 1253h-732l23 158h928l-23 -156l-915 -1255h-191z" />
<glyph unicode="8" horiz-adv-x="1234" d="M164 371q45 227 212 326q27 16 56 28q-37 17 -63.5 43.5t-40.5 57t-21.5 61.5t-8 61.5t0.5 53t3 40.5l3 17q0 54 20 107t63 101.5t103.5 85t148.5 58.5t191 23h27q221 -1 324.5 -102t81.5 -273q0 -1 -1 -4q-21 -159 -117 -256q-49 -49 -114 -74q57 -26 93.5 -72.5 t49.5 -89t15.5 -91.5t0 -69t-4.5 -32q-34 -180 -180.5 -286.5t-378.5 -107.5h-27q-232 1 -345 107.5t-91 286.5zM344 381q-13 -103 55.5 -173t210.5 -73h56q143 3 233.5 73t110.5 173q1 6 2 15.5t-0.5 38t-6.5 54.5t-21 57.5t-39.5 54.5t-65.5 38.5t-97 15.5h-120 q-55 0 -102 -15t-78.5 -39.5t-57 -53.5t-40 -58t-24 -53.5t-12.5 -39.5zM473 999.5q1 -26.5 5.5 -50t17.5 -53t33.5 -50t56.5 -35t84 -14.5h135q51 1 94.5 15.5t72 37t51 49t35 53t21 48.5t11.5 36l2 13q13 97 -47.5 163t-194.5 70h-55q-134 -4 -217 -70t-103 -163 q-1 -5 -2 -14t0 -35.5z" />
<glyph unicode="9" horiz-adv-x="1228" d="M188 23l23 147q95 -45 254 -45q124 0 232 52.5t181.5 137.5t121 187.5t63.5 208.5q-47 -87 -163 -148t-234 -61q-86 0 -157 19t-119.5 52t-84.5 78t-52 97t-22.5 109t5.5 114q36 216 188 339.5t393 123.5q253 0 372 -138t73 -424q-71 -434 -277 -664.5t-508 -230.5 q-68 0 -119.5 5.5t-70.5 9.5t-55.5 16.5t-43.5 14.5zM403 971q-21 -133 54.5 -221t232.5 -88q86 0 159.5 27.5t122.5 73t81 99t43 109.5q9 56 -4 109.5t-46.5 98t-97 72t-149.5 27.5q-70 0 -132.5 -16t-118.5 -50.5t-94 -96t-51 -144.5z" />
<glyph unicode=":" horiz-adv-x="507" d="M152 94q8 56 38 86.5t97 30.5t87 -30.5t11 -86.5q-18 -117 -135 -117q-64 0 -85 31t-13 86zM276 874q8 56 38.5 86.5t97.5 30.5t87 -30.5t11 -86.5q-18 -116 -135 -116t-99 116z" />
<glyph unicode=";" horiz-adv-x="565" d="M8 -221h131l267 405h-185zM330 897q8 56 38 86.5t97 30.5t87 -30.5t11 -86.5q-18 -117 -137 -117q-64 0 -84 30.5t-12 86.5z" />
<glyph unicode="&#x3c;" horiz-adv-x="1273" d="M164 461l31 188l1101 379l-30 -182l-904 -295l812 -287l-29 -182z" />
<glyph unicode="=" horiz-adv-x="1212" d="M195 287l26 164h909l-26 -164h-909zM260 692l25 164h909l-25 -164h-909z" />
<glyph unicode="&#x3e;" horiz-adv-x="1273" d="M152 82l28 182l905 287l-813 295l31 182l981 -379l-29 -188z" />
<glyph unicode="?" horiz-adv-x="1001" d="M233 94q-7 -51 11.5 -78.5t79.5 -27.5t88 28t34 78q15 107 -90 107q-108 0 -123 -107zM289 319v5q6 163 116.5 282.5t290.5 192.5q50 20 88 49.5t58.5 55.5t34 56.5t17 46.5t5.5 31q17 112 -59 173t-230 61q-4 0 -25.5 -1.5t-36 -3t-44 -7t-57.5 -13.5t-67.5 -23.5 t-80.5 -35.5l12 147q142 85 312 97q113 9 206 -18t150.5 -80t83 -126.5t12.5 -156.5q0 -2 -1 -9q-35 -254 -274 -376q-28 -15 -59 -27q-254 -101 -280 -305l-2 -15h-170z" />
<glyph unicode="@" horiz-adv-x="2088" d="M190 553q29 178 132 341.5t251 281.5t335.5 188t379.5 70q105 0 198.5 -14.5t168 -41t139.5 -63.5t112 -81.5t85.5 -95t60.5 -105t37 -111t14.5 -112.5t-6.5 -110q-23 -141 -77 -253t-122 -181.5t-150.5 -115.5t-158 -64t-149.5 -18q-76 0 -139.5 39.5t-69.5 103.5 q-147 -111 -293 -111q-72 0 -131.5 22.5t-105 69.5t-63.5 128.5t-1 189.5q14 85 56.5 167t110.5 153t171 115t223 44q57 0 124.5 -29t94.5 -79l33 92h188l-227 -594q-28 -72 -1.5 -124t73.5 -52t98.5 14.5t108.5 50t105.5 88t87.5 138t56 190.5q19 118 -9.5 220t-93 174.5 t-155.5 124.5t-196.5 77t-216.5 25q-158 0 -316 -60.5t-283 -161.5t-212.5 -240t-110.5 -290q-35 -219 42 -391t253.5 -268.5t423.5 -96.5q184 0 386.5 56.5t393.5 191.5l-24 -151q-135 -109 -355 -171.5t-434 -62.5q-224 0 -400.5 71.5t-281 193.5t-147 284t-13.5 344z M809 441q-2 -31 5 -68.5t25 -63.5t57 -43.5t95 -17.5q67 0 118 25.5t112 78.5l147 408q-31 46 -87.5 65t-102.5 19q-68 0 -126.5 -22.5t-98 -57.5t-69 -81t-45.5 -88.5t-22 -84.5q-6 -38 -8 -69z" />
<glyph unicode="A" horiz-adv-x="1312" d="M49 0q191 425 349.5 737.5t381.5 673.5h199q109 -361 168.5 -673.5t116.5 -737.5h-179l-59 428h-604q-121 -254 -195 -428h-178zM492 571h509q-52 346 -145 674q-161 -266 -364 -674z" />
<glyph unicode="B" horiz-adv-x="1310" d="M193 0l223 1411h588q31 0 63.5 -6.5t71 -23t68 -43.5t54.5 -68.5t31 -98.5q2 -21 2 -45q0 -40 -6 -88q-15 -96 -75.5 -184.5t-163.5 -132.5q105 -21 167 -108q46 -64 45 -156q0 -34 -6 -72q-31 -195 -162.5 -290t-336.5 -95h-563zM391 156h389q115 0 194 56.5t97 172.5 q5 33 5 61q0 38 -9 70q-16 54 -52.5 80.5t-75 37.5t-83.5 11h-387zM494 788h354q100 0 172.5 78t85.5 172q4 25 4 46q0 76 -46 118q-59 54 -155 53h-340z" />
<glyph unicode="C" horiz-adv-x="1304" d="M218 444q-9 54 -9 114q0 68 12 144q22 137 79.5 256t137 205t176.5 148t200 92.5t204 30.5q133 0 245.5 -13.5t172.5 -31.5l-25 -150q-111 18 -178.5 26t-98.5 9.5t-87 1.5q-158 0 -295 -68.5t-231.5 -200t-121.5 -305.5q-9 -55 -9 -106q0 -71 17 -134q29 -109 95 -179.5 t159.5 -109t202.5 -38.5q79 0 141.5 5.5t233.5 31.5l-22 -152q-177 -43 -431 -43q-102 0 -195 30t-171 88.5t-130 146t-72 202.5z" />
<glyph unicode="D" horiz-adv-x="1421" d="M193 0l223 1411h176h291q102 0 192 -28.5t163 -86t120.5 -142.5t64.5 -198q7 -48 7 -101q0 -72 -13 -153q-28 -172 -103 -309t-179 -221t-225.5 -128t-250.5 -44h-290h-176zM391 156h203q269 0 431.5 138.5t205.5 407.5q11 75 11 139q0 414 -470 414h-203z" />
<glyph unicode="E" horiz-adv-x="1159" d="M225 268l183 1143h858l-23 -156h-682l-74 -448h635l-24 -156h-635l-57 -356q-3 -17 -3 -32q0 -107 142 -107h520l-23 -156h-550q-163 5 -225 63q-47 44 -47 139q0 30 5 66z" />
<glyph unicode="F" horiz-adv-x="1052" d="M193 0l223 1411h780l-22 -156h-605l-73 -448h557l-25 -156h-557l-102 -651h-176z" />
<glyph unicode="G" horiz-adv-x="1460" d="M218 444q-9 54 -9 114q0 68 12 144q28 171 111 311.5t200 231.5t259 140t292 49q220 0 398 -54l-25 -149q-168 27 -221.5 33t-124.5 6q-275 0 -469 -152.5t-235 -415.5q-9 -57 -9 -109q0 -69 15 -130q28 -108 92.5 -177.5t156.5 -107t201 -37.5q152 0 320 43l59 383h-367 l27 156h543l-105 -651q-129 -55 -260.5 -75t-292.5 -20q-102 0 -195 30t-171 88.5t-130 146t-72 202.5z" />
<glyph unicode="H" horiz-adv-x="1464" d="M193 0l223 1411h176l-96 -604h727l96 604h176l-223 -1411h-176l106 670h-727l-106 -670h-176z" />
<glyph unicode="I" horiz-adv-x="561" d="M193 0l223 1411h176l-223 -1411h-176z" />
<glyph unicode="J" horiz-adv-x="598" d="M-324 -416l25 150q119 -12 192 -12q36 0 60 3q141 16 211 126q55 86 80 241l211 1319h174l-217 -1362q-18 -110 -57.5 -194t-85 -135t-112 -84t-118 -47t-125.5 -17q-37 -1 -65 -1t-47 1q-37 3 -96 9q-21 2 -30 3z" />
<glyph unicode="K" horiz-adv-x="1204" d="M193 0l223 1411h176l-100 -639q340 279 671 639h203q-344 -383 -764 -735q322 -261 602 -676h-231q-106 158 -244 311t-270 262l-90 -573h-176z" />
<glyph unicode="L" horiz-adv-x="1101" d="M225 268l183 1143h176l-178 -1116q-3 -17 -3 -32q0 -107 142 -107h536l-22 -156h-567q-163 5 -225 63q-47 44 -47 139q0 30 5 66z" />
<glyph unicode="M" horiz-adv-x="1918" d="M143 0l336 1411h213q184 -502 322 -1061q329 577 659 1061h213l-110 -1411h-170l94 1178q-345 -497 -639 -1033h-158q-119 509 -311 1033l-279 -1178h-170z" />
<glyph unicode="N" horiz-adv-x="1449" d="M193 0l223 1411h233q156 -283 258 -527t221 -581l177 1108h176l-224 -1411h-198q-89 251 -146 404.5t-152 372t-202 421.5l-190 -1198h-176z" />
<glyph unicode="O" d="M223 700q25 154 87 279.5t144 208.5t184 139.5t204.5 81.5t206.5 25q86 0 166.5 -17.5t155.5 -55t132 -96t97 -140t50 -187.5q3 -35 3 -73q0 -76 -13 -165q-54 -330 -279 -526.5t-546 -196.5h4q-212 0 -359.5 88.5t-209.5 252.5q-40 104 -40 230q0 73 13 152zM397 700 q-10 -62 -10 -119q-1 -173 91 -293q122 -160 360 -159q241 0 414.5 159.5t213.5 411.5q11 66 11 124q0 48 -8 92q-17 94 -57 163.5t-102 114.5t-133 66.5t-149 21.5t-157 -21t-156.5 -67.5t-141 -113t-111 -164.5t-65.5 -216z" />
<glyph unicode="P" horiz-adv-x="1236" d="M193 0l223 1411h583q62 0 124 -26t112.5 -74.5t74.5 -128.5q15 -48 15 -103q0 -35 -6 -73q-17 -103 -58.5 -182.5t-90.5 -125t-109.5 -75t-109 -39t-93.5 -9.5h-399l-90 -575h-176zM483 733h402q31 0 67 13t76 42t72.5 85.5t44.5 132.5q4 25 4 49q-1 77 -43 129 q-56 70 -129 69h-408z" />
<glyph unicode="Q" d="M223 700q24 154 86 279.5t144.5 208.5t184 139.5t204.5 81.5t207 25q86 0 166.5 -17.5t155.5 -55t132 -96t97 -140t50 -187.5q3 -35 3 -73q0 -76 -13 -165q-49 -308 -251 -500.5t-496 -217.5q2 -75 48 -116.5t140 -41.5q78 0 160 10.5t123 28.5l-21 -135 q-109 -45 -278 -45q-172 0 -261 71q-84 66 -84 207q0 11 1 23q-277 29 -412 221q-99 141 -99 341q0 73 13 154zM397 700q-10 -61 -10 -118q0 -96 29 -179q44 -131 153.5 -205.5t266.5 -74.5q241 0 415.5 162t214.5 415q10 65 10 123q0 50 -8 94q-16 95 -56.5 165t-102.5 116 t-133.5 68t-149.5 22t-157 -21.5t-156 -69t-140.5 -115t-110.5 -166t-65 -216.5z" />
<glyph unicode="R" horiz-adv-x="1286" d="M193 0l223 1411h555q178 1 276 -105q74 -80 74 -210q0 -42 -8 -90q-55 -333 -363 -408q-30 -6 -59 -6q93 -105 180.5 -271t149.5 -321h-201q-75 179 -225 446q-44 83 -72.5 110.5t-81.5 27.5h-180l-92 -584h-176zM483 733h391q44 0 83 13t76.5 42.5t65 85t40.5 132.5 q5 29 5 55q0 77 -42 126q-56 66 -172 66h-361z" />
<glyph unicode="S" horiz-adv-x="1179" d="M170 244q45 -21 73 -33t87 -33.5t122.5 -32t127.5 -10.5q157 0 253.5 53.5t124.5 180.5q6 24 3 45.5t-10 39.5t-22.5 35t-34 31t-44 28t-52.5 26t-60 24.5t-67 24.5t-73 25q-17 6 -26 9t-23.5 8t-26.5 9q-63 22 -110.5 54.5t-73.5 66.5t-42.5 69.5t-20.5 67t-4.5 56.5 t2.5 40l3 14q35 183 188.5 286.5t414.5 103.5q87 0 195 -26.5t159 -51.5l-27 -162q-111 43 -185.5 61.5t-170.5 18.5q-176 0 -275 -67t-118 -173q-1 -3 -1.5 -7.5t-1 -19t2.5 -29t13 -33.5t25.5 -36t43.5 -34t65 -29l78 -29q59 -20 95.5 -33t86.5 -33.5t80.5 -36.5 t67.5 -39.5t57.5 -46t40.5 -52.5t27.5 -62.5t7.5 -72.5t-10 -85q-26 -107 -78.5 -182t-130 -117t-167.5 -60t-204 -18q-133 0 -244 32.5t-118 80.5z" />
<glyph unicode="T" horiz-adv-x="1148" d="M244 1255l22 156h1063l-22 -156h-443l-200 -1255h-177l201 1255h-444z" />
<glyph unicode="U" horiz-adv-x="1474" d="M253 425q1 73 15 157l131 829h174l-127 -788q-13 -79 -13 -144.5t7.5 -112.5t27 -84.5t38.5 -61t49 -40t51.5 -24.5t54 -12t47.5 -4.5t41 -0.5h9h11q28 0 44.5 0.5t50.5 4.5t57.5 12t58 24.5t60 40t55.5 61t52 84.5t41.5 112.5t32.5 144.5l127 788h174l-131 -829 q-19 -119 -57.5 -215t-84 -158t-105.5 -107.5t-112 -68.5t-114.5 -36.5t-101.5 -16.5t-85 -3q-30 0 -56 1.5t-64.5 6t-70.5 14t-70.5 24.5t-68 39.5t-59 56.5t-48 77.5t-30.5 100.5q-11 51 -11 117v11z" />
<glyph unicode="V" horiz-adv-x="1247" d="M266 1411h191l198 -1210l584 1210h188l-710 -1411h-187z" />
<glyph unicode="W" horiz-adv-x="2056" d="M274 1411h187l147 -1243q210 543 527 1087h188q144 -588 174 -1087l545 1243h186l-635 -1411h-237q-49 594 -160 1063q-272 -490 -496 -1063h-237z" />
<glyph unicode="X" horiz-adv-x="1173" d="M31 0l567 733l-309 678h207l231 -532l397 532h207l-526 -678l340 -733h-209l-256 588l-442 -588h-207z" />
<glyph unicode="Y" horiz-adv-x="1157" d="M250 1411h207l245 -631l445 631h205l-588 -801l-96 -610h-176l96 608z" />
<glyph unicode="Z" horiz-adv-x="1277" d="M76 0l20 147l1057 1108h-836l23 156h1071l-25 -149l-1060 -1106h876l-22 -156h-1104z" />
<glyph unicode="[" horiz-adv-x="647" d="M94 -410l291 1821h410l-21 -135h-233l-248 -1550h233l-22 -136h-410z" />
<glyph unicode="\" horiz-adv-x="874" d="M301 1411h148l348 -1411h-148z" />
<glyph unicode="]" horiz-adv-x="647" d="M12 -410l19 136h233l248 1550h-233l20 135h410l-291 -1821h-406z" />
<glyph unicode="_" horiz-adv-x="1458" d="M141 -240l21 152h1098l-21 -152h-1098z" />
<glyph unicode="`" horiz-adv-x="964" d="M487 1411h195l100 -274h-143z" />
<glyph unicode="a" horiz-adv-x="1095" d="M129 168q-6 27 -6 55q0 33 8 70q16 100 87.5 171.5t166.5 103.5t201 32q72 0 237 -20l6 47q4 29 4 55q-1 81 -41 130q-54 65 -157 65q-57 0 -118.5 -12t-100 -25t-81 -30t-48.5 -19l22 137q4 1 47 18t84 30t111.5 25.5t140.5 12.5q62 0 112.5 -13t95.5 -42.5t70 -78.5 q26 -50 36 -122q4 -27 4 -56q0 -52 -11 -114l-63 -402q-6 -38 11.5 -54.5t47.5 -12t53 12t37 15.5l-20 -129q-99 -41 -158 -41q-133 0 -147 117q-37 -37 -138.5 -77t-189.5 -40q-96 0 -162 24t-97.5 66.5t-43.5 100.5zM301 285q-3 -17 -3 -33q0 -54 34 -94q44 -52 147 -52 q63 0 156 36.5t129 72.5l39 244q-102 16 -178 16q-291 0 -324 -190z" />
<glyph unicode="b" horiz-adv-x="1169" d="M156 0l229 1454h176l-78 -491q97 51 273 51q61 0 122 -19.5t116.5 -61.5t95.5 -100t56 -142q9 -44 8 -92q0 -43 -7 -89q-15 -92 -45.5 -169.5t-69.5 -131.5t-87 -96t-95.5 -67t-98.5 -41t-92.5 -22t-80.5 -6q-86 0 -146.5 33t-87.5 74l-25 -84h-163zM367 225 q30 -45 84.5 -82t123.5 -37q63 0 122.5 21.5t114 66t95 123.5t56.5 183q6 40 6 76q-1 116 -65 196q-86 106 -253 105q-83 0 -190 -52z" />
<glyph unicode="c" horiz-adv-x="970" d="M174 492q19 121 77 222.5t137.5 165.5t170.5 99t182 35q156 0 293 -35l-22 -135q-43 12 -124 23q-74 10 -123 10h-9q-90 0 -162 -31.5t-119 -87t-75.5 -121t-41.5 -143.5q-8 -56 -8 -109v-6q0 -55 19.5 -103.5t51 -84t86.5 -56t128 -20.5h9q48 -1 124 9q83 10 133 23 l-20 -135q-143 -35 -306 -35q-91 0 -171 34.5t-138.5 98t-84.5 164.5q-15 58 -15 123q0 48 8 99v-4z" />
<glyph unicode="d" horiz-adv-x="1222" d="M168 359v11q0 63 10 140q15 97 59 181t103.5 142t129 100t138 61.5t129.5 19.5q176 0 252 -51l78 491h176l-201 -1268q-6 -39 11.5 -55t48 -11.5t54 12t38.5 15.5l-23 -129q-99 -41 -157 -41q-134 0 -148 117q-35 -42 -116.5 -79.5t-169.5 -37.5q-34 0 -68 4.5t-75 16 t-76 30.5t-71 48t-60 69t-42.5 93.5t-19.5 120.5zM362 316q14 -76 56 -122t94 -67t115 -21q68 0 133.5 36.5t111.5 82.5l95 600q-81 52 -174 52q-168 0 -286 -105.5t-145 -271.5q-7 -54 -7 -100t7 -84z" />
<glyph unicode="e" horiz-adv-x="1128" d="M180 268q-11 51 -11 109q0 60 11 127q19 119 74 217.5t131 161.5t166 97t184 34q219 0 320 -141q72 -101 72 -256q0 -62 -11 -132l-12 -53h-760q-5 -29 -5 -56q1 -106 73 -175q90 -86 225 -86q128 0 352 57q-12 -90 -20 -135q-3 -1 -40 -10.5t-66.5 -16t-76 -15t-98 -13 t-102.5 -5.5q-105 0 -187.5 31.5t-139.5 94.5t-79 165zM365 557h591q5 32 5 62q-1 96 -55 165q-72 90 -195.5 90t-223.5 -90t-122 -227z" />
<glyph unicode="f" horiz-adv-x="716" d="M-117 -410l23 138h84q121 0 165 34t58 127l154 965h-177l23 137h176l27 164q10 62 31.5 110.5t45.5 79.5t61 53t65 32.5t72 16.5t67.5 6.5t64.5 0.5h113l-21 -137h-96q-64 0 -104 -8t-65.5 -30t-38 -52.5t-21.5 -83.5l-25 -152h254l-22 -137h-256l-154 -965 q-10 -62 -31 -110.5t-45 -79.5t-61 -53t-65 -32.5t-71.5 -16.5t-66.5 -6.5t-63 -0.5h-101z" />
<glyph unicode="g" horiz-adv-x="1153" d="M178 308q-8 42 -8 87t8 94q21 127 70.5 226t108 155t130 92t130 48t114.5 12q85 0 144.5 -32.5t91.5 -74.5l24 84h164l-180 -1128q-13 -82 -57 -141.5t-112.5 -93.5t-148 -50t-172.5 -16q-146 0 -297 51l25 139q134 -48 194 -56q31 -5 60 -5q61 0 110.5 6t82.5 15.5 t57.5 25t38.5 29.5t23.5 35t13 36t6.5 37l26 170q-40 -31 -113 -49t-137 -18t-127 19.5t-119 61t-95.5 99.5t-55.5 142zM362 500q-6 -36 -6 -70q0 -37 7 -72q13 -68 48.5 -120.5t98 -83.5t145.5 -31q78 0 193 51l96 610q-28 39 -89.5 74t-121.5 35q-61 0 -117.5 -21.5 t-108.5 -66t-90.5 -123t-54.5 -182.5z" />
<glyph unicode="h" horiz-adv-x="1169" d="M156 0l155 991l74 463h164l-76 -479l-12 -62q37 36 130.5 68.5t182.5 32.5q351 0 351 -303q0 -48 -9 -105l-94 -606h-184l84 539q11 71 11 126q-1 83 -25 129q-42 78 -183 78q-71 0 -144 -29t-128 -75l-121 -768h-176z" />
<glyph unicode="i" horiz-adv-x="487" d="M156 0l155 991h176l-155 -991h-176zM342 1305q7 50 34.5 78t88.5 28q61 1 79 -27q13 -20 13 -52q0 -12 -2 -27q-15 -107 -123 -107q-92 0 -92 82q0 12 2 25z" />
<glyph unicode="j" horiz-adv-x="485" d="M-160 -426l25 137h24q46 0 82 6t60 13.5t42.5 23.5t28 27.5t17 34.5t10 34.5t6.5 36.5l176 1104h174l-178 -1116q-27 -164 -125.5 -232.5t-279.5 -68.5h-62zM342 1305q7 50 34.5 78t88.5 28t79 -27q13 -20 13 -52q0 -13 -2 -27q-15 -107 -125 -107q-58 0 -76 28 q-14 21 -14 53q0 12 2 26z" />
<glyph unicode="k" horiz-adv-x="976" d="M156 0l229 1454h176l-125 -799l371 336h217l-479 -428q119 -102 241 -265t185 -298h-203q-139 277 -367 453l-69 -453h-176z" />
<glyph unicode="l" horiz-adv-x="581" d="M195 276l188 1178h174l-186 -1165q-8 -31 -5.5 -59.5t15.5 -50t55.5 -34t114.5 -12.5h24l-20 -141h-61q-186 0 -255 60q-51 44 -51 145q0 36 7 79z" />
<glyph unicode="m" horiz-adv-x="1841" d="M156 0l155 991h164v-78q39 37 122 69t171 32q127 0 205.5 -30.5t113.5 -117.5q73 72 171 110t190 38q43 0 77.5 -3.5t72 -11.5t66 -24t55.5 -39.5t43 -59.5q17 -34 27 -80q9 -40 9 -92v-16q-2 -62 -14 -137l-88 -551h-185l84 539q16 87 16 151q1 28 -3 52 q-10 76 -58.5 109.5t-148.5 33.5q-71 0 -152.5 -44t-124.5 -100l-114 -741h-179l84 539q16 87 16 151q1 28 -3 52q-10 76 -58.5 109.5t-148.5 33.5q-69 0 -147.5 -38.5t-120.5 -84.5l-121 -762h-176z" />
<glyph unicode="n" horiz-adv-x="1167" d="M156 0l155 991h164v-78q38 37 124.5 69t174.5 32q41 0 75.5 -3.5t71.5 -11.5t65.5 -24t55 -39.5t43.5 -59.5q17 -34 27 -80q10 -43 11 -102q-1 -3 -1 -6q0 -62 -12 -137l-88 -551h-184l84 539q14 86 14 149q0 80 -22 122q-40 75 -187 75q-69 0 -150.5 -39t-123.5 -84 l-121 -762h-176z" />
<glyph unicode="o" horiz-adv-x="1222" d="M176 294q-8 41 -7 88q0 51 9 110q18 110 62 199.5t103 148.5t132 99t146 57.5t147 17.5h10q62 0 118 -10.5t111 -35t95 -63.5t69.5 -96.5t35.5 -134.5q2 -24 2 -51q0 -57 -9 -125q-18 -117 -62.5 -208.5t-102.5 -149t-131.5 -95.5t-144.5 -53t-147 -15h-7h1q7 -1 0 -1 q-2 -1 -6 -1q-14 -1 -28 -1q-58 0 -113 14q-68 17 -127.5 56t-99.5 101.5t-56 148.5zM354 500q-8 -52 -8 -97q0 -113 52 -187q72 -103 231 -103t261.5 100t133.5 287q8 52 8 97q0 113 -50 183q-72 100 -230 99.5t-264 -103t-134 -276.5z" />
<glyph unicode="p" horiz-adv-x="1169" d="M88 -410l223 1401h164l2 -84q38 40 110 73.5t158 33.5q30 0 60 -3.5t65.5 -12.5t67.5 -23.5t65 -36t58.5 -51.5t47.5 -69.5t32 -89.5t13 -112q1 -10 1 -22q0 -52 -12 -113q-15 -97 -59 -181t-102.5 -142t-127.5 -100t-137 -61.5t-129 -19.5q-174 0 -254 52l-70 -439h-176 zM356 166q80 -51 174 -51q168 0 287 105.5t146 271.5q9 53 9 98q0 28 -4 54q-9 65 -32.5 111t-62 75t-82 42t-93.5 13q-68 0 -133.5 -36.5t-111.5 -82.5z" />
<glyph unicode="q" horiz-adv-x="1167" d="M176 481q15 92 46 169.5t70 131.5t87.5 96t96 67t99 41t93 22t80.5 6q85 0 144 -32.5t91 -74.5l25 84h163l-225 -1401h-176l70 439q-94 -52 -269 -52q-61 0 -122.5 19.5t-117.5 61.5t-96 100t-57 142q-9 45 -9 93q0 43 7 88zM362 492q-6 -40 -6 -76q0 -115 64 -196 q86 -105 254 -105q85 0 190 51l94 600q-27 44 -83 81.5t-125 37.5q-63 0 -122.5 -21.5t-114 -66t-95 -123t-56.5 -182.5z" />
<glyph unicode="r" horiz-adv-x="757" d="M156 0l155 991h164l17 -39q9 -12 29 -10.5t57.5 13t72 24t73.5 23t62 10.5q41 0 72 -4l-27 -160q-33 4 -73 4q-67 0 -151.5 -24t-153.5 -66l-121 -762h-176z" />
<glyph unicode="s" horiz-adv-x="935" d="M119 49l22 144q143 -70 299 -70q117 0 183.5 28.5t85.5 108.5q7 29 -2 52.5t-30 41.5t-55.5 35t-73 31t-88.5 31q-14 5 -22 7.5t-20.5 6.5t-22.5 8q-62 21 -103 56t-55 69.5t-19.5 66t-1.5 51.5l3 19q26 135 145 211q106 68 285 69q21 0 43 -1q57 -3 135.5 -20t116.5 -29 l-20 -146q-55 25 -129 41t-133 19q-14 1 -27 1q-97 0 -159 -38q-70 -44 -81 -105q-1 -3 -2 -9t-0.5 -22t6.5 -30t24 -29t46 -24q29 -10 76 -26t73 -24.5t64.5 -23.5t60 -25.5t49.5 -27.5t42.5 -33t30 -38.5t19.5 -47.5q5 -28 6 -60q0 -29 -7 -63q-21 -85 -65 -142 t-110 -85.5t-135 -39t-161 -10.5q-151 0 -293 72z" />
<glyph unicode="t" horiz-adv-x="694" d="M184 854l23 137h172l41 244l182 51l-49 -295h229l-22 -137h-230l-90 -567q-3 -24 -4.5 -35.5t-0.5 -31.5t6.5 -30t18 -23.5t33 -20t52 -11t73.5 -4.5h27l-20 -141h-64q-185 0 -253 60q-50 44 -51 144q0 36 7 80l92 580h-172z" />
<glyph unicode="u" horiz-adv-x="1220" d="M199 286q0 68 14 154l88 551h184l-86 -538q-13 -85 -13 -147q0 -80 22 -124q40 -76 188 -76q69 0 150.5 39t123.5 84l121 762h176l-129 -805q-6 -39 11.5 -55t48 -11.5t54 12t38.5 15.5l-23 -129q-99 -41 -155 -41q-134 0 -148 117q-43 -45 -134 -81t-181 -36 q-54 0 -95.5 4t-84 16.5t-71.5 33.5t-53.5 56t-35 83t-10.5 116z" />
<glyph unicode="v" horiz-adv-x="1038" d="M193 991h188l168 -807l420 807h188l-543 -991h-188z" />
<glyph unicode="w" horiz-adv-x="1646" d="M201 991h194l119 -817l358 772h201l113 -772l377 817h194l-483 -991h-217l-121 729l-346 -729h-217z" />
<glyph unicode="x" horiz-adv-x="1015" d="M43 0l432 500l-270 491h203l196 -379l316 379h200l-428 -491l279 -500h-203l-203 383l-319 -383h-203z" />
<glyph unicode="y" horiz-adv-x="1052" d="M68 -430l22 135l82 2q32 2 48 4t38 9t36 19t30 33.5t32 53.5l84 170l-250 995h197l168 -790l420 790h196l-550 -991l-121 -238q-33 -63 -67.5 -102t-78 -59t-89.5 -27q-35 -4 -83 -4h-30h-84z" />
<glyph unicode="z" horiz-adv-x="1069" d="M78 0l18 127l768 725h-614l22 139h858l-20 -125l-770 -721h657l-22 -145h-897z" />
<glyph unicode="{" horiz-adv-x="692" d="M145 442q20 112 21 119q60 9 104 39t54 84l59 369q59 358 397 358h62l-17 -129h-24q-57 0 -101 -16.5t-68.5 -39.5t-41 -57t-22 -59t-9.5 -57l-47 -291q-11 -66 -29.5 -111.5t-48 -74t-50.5 -42t-62 -32.5q23 -12 35.5 -20t30 -23.5t25.5 -33t15.5 -43t6.5 -60.5t-9 -80 l-47 -291q-3 -24 -5 -39.5t-1.5 -42.5t5 -44.5t16.5 -39t31 -34t50.5 -21.5t73.5 -9h24l-22 -129h-62q-341 0 -282 359l59 368q7 48 -30 81.5t-91 41.5z" />
<glyph unicode="|" horiz-adv-x="446" d="M119 -233l303 1871h127l-303 -1871h-127z" />
<glyph unicode="}" horiz-adv-x="692" d="M8 -408l19 129h24q48 0 86.5 10.5t63 31t41 41.5t26.5 51t14.5 49.5t8.5 46.5l47 291q9 53 24.5 94t31 65.5t42 45.5t42.5 30t48 25q-23 13 -34 20.5t-29.5 23t-26 32.5t-15.5 43t-7.5 61t8.5 80l47 291q4 25 5.5 39.5t1.5 42t-4.5 44.5t-16.5 39t-31 34t-50 21t-73 9 h-25l19 129h61q175 0 245 -92.5t42 -265.5l-61 -369q-8 -54 27.5 -84t92.5 -39q-1 -9 -2.5 -20t-6 -39t-9.5 -60q-57 -8 -104 -41.5t-54 -81.5l-61 -368q-59 -359 -399 -359h-58z" />
<glyph unicode="&#xa1;" horiz-adv-x="462" d="M76 -410l190 1092h144l-158 -1092h-176zM266 907q9 50 36.5 78.5t88.5 28.5t79 -28t9 -79q-18 -106 -123 -106q-108 0 -90 106z" />
<glyph unicode="&#xa2;" horiz-adv-x="1011" d="M182 492q17 109 66 202.5t117.5 157t148 103.5t162.5 53l37 233h127l-35 -229q113 -4 237 -33l-22 -135q-43 12 -124.5 23t-133.5 10q-90 0 -161.5 -31.5t-118 -87t-74.5 -121t-41 -143.5q-8 -60 -8 -115t18.5 -103.5t49.5 -84t86 -56t128 -20.5q50 -1 134 9.5t134 22.5 l-22 -135q-124 -28 -248 -32l-37 -213h-127l39 217q-81 12 -148 51t-114.5 101.5t-67 154.5t-2.5 201z" />
<glyph unicode="&#xa3;" horiz-adv-x="1177" d="M109 0l20 152h186l86 522h-174l19 119h174l26 176q35 209 196 336t421 127q95 0 170 -17l-25 -153q-51 10 -176 10q-177 0 -279.5 -88t-125.5 -226l-27 -165h252l-18 -119h-252l-86 -522h606l-21 -152h-972z" />
<glyph unicode="&#xa4;" horiz-adv-x="1261" d="M178 260l172 146q-38 93 -18 223q20 134 94 231l-127 150l123 106l123 -147q108 65 243 65h17q135 0 219 -65l168 147l90 -106l-172 -150q42 -85 20 -231q-20 -133 -88 -223l119 -146l-123 -106l-120 141q-106 -64 -242 -64h-17q-142 0 -225 64l-166 -141zM496 629 q-10 -61 2.5 -108t41 -73.5t64.5 -39.5t78 -13h25q89 0 165 58t95 176q20 120 -38 180.5t-149 60.5h-20q-42 0 -82.5 -13.5t-78 -41t-65.5 -76t-38 -110.5z" />
<glyph unicode="&#xa5;" horiz-adv-x="1253" d="M297 1411h207l246 -631l444 631h205l-588 -801l-10 -65h268l-18 -119h-269l-16 -98h268l-20 -119h-269l-30 -209h-176l30 209h-260l21 119h260l16 98h-260l19 119h260l10 63z" />
<glyph unicode="&#xa6;" horiz-adv-x="481" />
<glyph unicode="&#xa7;" horiz-adv-x="1026" d="M59 -365l35 156q144 -67 287 -67q139 0 219 48.5t109 174.5q5 21 5.5 40.5t-4 37.5t-11.5 34t-20 31.5t-26 29t-32.5 27.5t-36.5 25.5t-42 25t-45 24t-48 24.5q-9 5 -31 15t-31 15q-68 37 -110.5 90t-54 103t-13 94.5t4.5 71.5l7 27q25 111 96 202q-15 48 -15.5 99.5 t6.5 78.5l7 27q45 182 180 275.5t351 80.5q181 -13 260 -63l-37 -129q-85 25 -136.5 34.5t-117.5 14.5q-138 10 -225.5 -58.5t-114.5 -176.5q-1 -5 -3 -14t-1 -35.5t8.5 -50t30.5 -51.5t59 -48l62 -33q59 -30 96 -50t83.5 -50t73 -56t52.5 -62.5t35 -74.5t8.5 -87.5 t-16.5 -106.5q-42 -124 -95 -191q28 -96 -4 -219q-31 -106 -81.5 -177.5t-119 -109t-145.5 -50.5t-172 -7q-108 8 -156.5 18t-130.5 43zM376 592q0 -26 7 -49.5t31.5 -52t64.5 -48.5q201 -104 283 -174q28 41 39 82q6 23 6 45t-4 40.5t-15.5 37.5t-23.5 33.5t-33.5 32 t-38.5 29.5t-45.5 29t-48.5 27.5t-53 28.5q-97 52 -129 76q-21 -51 -33 -88q-2 -5 -4.5 -14t-2.5 -35z" />
<glyph unicode="&#xa8;" horiz-adv-x="1011" d="M453 1305q7 50 34 78t88 28t79.5 -27.5t11.5 -78.5q-15 -107 -123 -107q-105 0 -90 107zM760 1305q7 50 34.5 78t88.5 28t79 -27.5t11 -78.5q-15 -107 -123 -107q-105 0 -90 107z" />
<glyph unicode="&#xa9;" horiz-adv-x="1648" d="M227 700q25 154 87 279.5t144 208.5t184 139.5t204.5 81.5t206.5 25q86 0 166.5 -17.5t155.5 -55t132 -96t97 -140t50 -187t-9 -238.5q-54 -330 -279.5 -526.5t-546.5 -196.5h4q-212 0 -359.5 88.5t-210 253t-26.5 381.5zM350 700q-43 -271 92.5 -434.5t401.5 -163.5h-4 q266 0 454.5 163.5t231.5 434.5q23 132 2.5 232.5t-65.5 172t-115.5 117t-149.5 66.5t-166 21t-172 -20.5t-169 -67.5t-151.5 -116t-118.5 -173t-71 -232zM598 690q-14 -87 4.5 -158.5t60.5 -116t99 -68t121 -23.5q114 0 227 22l16 100q-114 -14 -200 -14q-100 0 -160.5 71 t-42.5 187q18 117 98.5 188.5t186.5 71.5q90 0 196 -16l17 100q-97 25 -224 25q-135 0 -253 -100t-146 -269z" />
<glyph unicode="&#xaa;" horiz-adv-x="815" d="M227 578l17 106h528l-16 -106h-529zM291 979q14 95 101.5 147t193.5 52q43 0 133 -23l4 29q12 69 -19.5 107t-91.5 38q-78 0 -188 -45l-39 -12l16 102l43 21q3 1 19.5 7t25 9t28.5 8t37 7.5t42 5t51 2.5q51 0 90 -13.5t71.5 -45t41.5 -84.5t0 -132l-62 -371h-120l4 68 q-27 -28 -81.5 -55t-101.5 -27q-229 0 -198 205zM418 973q-7 -42 17.5 -71.5t82.5 -29.5q36 0 89 21t79 43l21 137q-82 8 -103 8q-169 0 -186 -108z" />
<glyph unicode="&#xab;" horiz-adv-x="1030" d="M164 506l352 424h197l-353 -424l215 -424h-196zM537 506l352 424h196l-352 -424l215 -424h-196z" />
<glyph unicode="&#xac;" horiz-adv-x="1288" d="M236 631l26 164h991l-90 -568h-164l64 404h-827z" />
<glyph unicode="&#xad;" horiz-adv-x="933" d="M209 455l22 155h660l-23 -155h-659z" />
<glyph unicode="&#xae;" horiz-adv-x="1648" d="M227 700q25 154 87 279.5t144 208.5t184 139.5t204.5 81.5t206.5 25q86 0 166.5 -17.5t155.5 -55t132 -96t97 -140t50 -187t-9 -238.5q-54 -330 -279.5 -526.5t-546.5 -196.5h4q-212 0 -359.5 88.5t-210 253t-26.5 381.5zM350 700q-43 -271 92.5 -434.5t401.5 -163.5h-4 q266 0 454.5 163.5t231.5 434.5q23 132 2.5 232.5t-65.5 172t-115.5 117t-149.5 66.5t-166 21t-172 -20.5t-169 -67.5t-151.5 -116t-118.5 -173t-71 -232zM637 340l113 715h290q92 0 144 -55.5t35 -157.5q-16 -95 -66 -146.5t-115 -66.5q74 -111 146 -289h-129 q-25 71 -111 219l-7.5 12.5t-6.5 11t-5.5 9.5t-5.5 8.5t-5 6.5t-5 5.5t-5 3.5t-6 3t-6 1.5t-7 0.5h-80l-43 -281h-125zM819 721h170q37 0 67 29.5t40 91.5q8 46 -15.5 77t-68.5 31h-156z" />
<glyph unicode="&#xaf;" horiz-adv-x="946" d="M438 1217l23 149h454l-22 -149h-455z" />
<glyph unicode="&#xb0;" horiz-adv-x="772" d="M287 1157q13 76 44 131t76 86t95 45.5t108 14.5q127 0 197.5 -65.5t46.5 -211.5q-23 -143 -115 -209.5t-217 -66.5q-121 0 -189.5 66.5t-45.5 209.5zM414 1157q-11 -79 26.5 -115t102.5 -36q69 0 120 36t62 115q13 80 -26 116t-109 36q-67 0 -115 -36t-61 -116z" />
<glyph unicode="&#xb1;" horiz-adv-x="1191" d="M141 0l23 158h909l-22 -158h-910zM252 705l27 163h372l60 373h163l-59 -373h373l-27 -163h-373l-59 -373h-164l60 373h-373z" />
<glyph unicode="&#xb2;" horiz-adv-x="718" d="M221 918l15 94l323 276q172 141 180 225q8 54 -29.5 85.5t-113.5 31.5q-103 0 -242 -71l19 112q119 66 237 66q138 0 203.5 -58.5t50.5 -154.5q-23 -137 -145 -234l-313 -266h380l-16 -106h-549z" />
<glyph unicode="&#xb3;" horiz-adv-x="724" d="M238 950l16 107q112 -43 242 -43q75 0 122 36t58 91q1 4 2.5 11.5t1 27t-5.5 35t-21.5 31t-42.5 20.5h-217l17 108h215q27 8 48 23.5t31.5 33t17.5 33.5t9 26l2 11q5 55 -29.5 92t-109.5 37q-104 0 -234 -43l17 105q37 14 109 29.5t124 15.5q137 0 199.5 -61t50.5 -169 q0 -4 -2.5 -16.5t-11.5 -36t-22 -47t-37.5 -47.5t-55.5 -39q26 -16 42.5 -40.5t22.5 -47.5t7.5 -46t0 -35.5t-2.5 -16.5q-21 -107 -104.5 -168.5t-221.5 -61.5q-53 0 -130 16t-107 29z" />
<glyph unicode="&#xb4;" horiz-adv-x="964" d="M444 1137l187 274h194l-237 -274h-144z" />
<glyph unicode="&#xb6;" horiz-adv-x="905" d="M264 1133q19 115 113.5 196.5t210.5 81.5h340l-266 -1663h-113l248 1555h-115l-248 -1555h-112l176 1106q-116 0 -184.5 81t-49.5 198z" />
<glyph unicode="&#xb7;" horiz-adv-x="499" d="M215 524q8 56 38 86.5t97 30.5t87 -30.5t12 -86.5q-18 -116 -136 -116q-64 0 -85 30.5t-13 85.5z" />
<glyph unicode="&#xb8;" horiz-adv-x="1040" d="M268 -360l15 98l82 -25q66 -17 109.5 5t56.5 68.5t3.5 109t-42.5 124.5h114q22 -33 44 -85.5t26 -86.5q13 -112 -60.5 -190.5t-197.5 -65.5q-72 8 -150 48z" />
<glyph unicode="&#xb9;" horiz-adv-x="573" d="M236 918l16 106h154l90 573l-162 -63l20 108l189 84h102l-113 -702h154l-16 -106h-434z" />
<glyph unicode="&#xba;" horiz-adv-x="901" d="M258 578l16 106h568l-17 -106h-567zM297 1102q14 87 54 154t94 105t113.5 56.5t119.5 16.5q61 0 113 -16.5t95 -52.5t61 -102.5t3 -156.5q-12 -74 -40.5 -133t-65.5 -96t-83.5 -61.5t-91.5 -33.5t-91 -8h-9q-60 -2 -112.5 16t-94.5 55.5t-60.5 104t-4.5 152.5zM426 1106 q-17 -107 25.5 -168t136.5 -61t154 58.5t79 170.5q17 106 -24.5 165.5t-134.5 59.5q-94 0 -156.5 -60.5t-79.5 -164.5z" />
<glyph unicode="&#xbb;" horiz-adv-x="1030" d="M104 82l351 424l-213 424h196l213 -424l-350 -424h-197zM477 82l350 424l-213 424h197l213 -424l-350 -424h-197z" />
<glyph unicode="&#xbc;" horiz-adv-x="1671" d="M211 604l16 107h154l94 573l-164 -63l19 108l188 84h103l-113 -702h154l-17 -107h-434zM487 0l795 1411h107l-795 -1411h-107zM983 190h391l-28 -190h127l28 190h109l16 105h-108l84 514h-127l-478 -537zM1130 295l318 356l-57 -356h-261z" />
<glyph unicode="&#xbd;" horiz-adv-x="1714" d="M203 604l16 107h154l94 573l-164 -63l19 108l188 84h102l-112 -702h153l-16 -107h-434zM479 0l795 1411h106l-794 -1411h-107zM1065 0l14 94l322 277q171 137 180 225q8 53 -30 85t-115 32q-55 0 -108.5 -17t-129.5 -55l19 113q120 65 237 65q137 0 201.5 -58t50.5 -155 q-15 -129 -145 -233l-312 -267h381l-16 -106h-549z" />
<glyph unicode="&#xbe;" horiz-adv-x="1736" d="M213 637l16 106q107 -43 240 -43q76 0 122 36t56 91q1 4 2.5 11.5t2 27t-4.5 35t-21.5 31t-43.5 20.5h-217l18 109h215q42 12 69 43.5t33 57.5l7 26q6 55 -30 92t-112 37q-101 0 -229 -43l16 104q35 14 106.5 29.5t123.5 15.5q252 0 252 -229q0 -4 -3 -17t-12 -36 t-22.5 -46.5t-37.5 -47.5t-54 -39q14 -9 26 -21t19 -25t12.5 -26.5t8 -27t4 -25.5t1.5 -23.5t-0.5 -19t-1.5 -13.5v-6q-19 -107 -103 -168t-222 -61q-53 0 -130.5 16t-105.5 29zM553 0l795 1411h106l-795 -1411h-106zM1049 190h391l-29 -190h127l29 190h108l17 105h-109 l82 514h-127l-477 -537zM1196 295l317 356l-57 -356h-260z" />
<glyph unicode="&#xbf;" horiz-adv-x="983" d="M76 -47l2 17q3 16 5 27.5t8.5 36t14 44t21.5 47.5t30.5 51.5t41.5 51t54.5 50.5t69.5 46t85 41q121 47 195 124t87 181l2 14h170v-4q-6 -163 -116.5 -282.5t-290.5 -192.5q-62 -25 -105.5 -62t-62.5 -74t-26.5 -61t-8.5 -43q-19 -112 57.5 -172.5t231.5 -60.5 q4 0 25.5 1.5t36 3t44 7t57 13.5t66.5 23.5t80 35.5l-12 -148q-137 -84 -312 -96q-225 -18 -351 96t-99 285zM705 909q7 50 34 78.5t88 28.5t79.5 -28t11.5 -79q-14 -106 -123 -106q-59 0 -78 28t-12 78z" />
<glyph unicode="&#xc0;" horiz-adv-x="1312" d="M49 0h178q74 174 195 428h604l59 -428h179q-57 425 -116.5 737.5t-168.5 673.5h-199q-223 -361 -381.5 -673.5t-349.5 -737.5zM492 571q203 408 364 674q93 -328 145 -674h-509zM676 1833h194l97 -274h-144z" />
<glyph unicode="&#xc1;" horiz-adv-x="1312" d="M49 0q191 425 349.5 737.5t381.5 673.5h199q109 -361 168.5 -673.5t116.5 -737.5h-179l-59 428h-604q-121 -254 -195 -428h-178zM492 571h509q-52 346 -145 674q-161 -266 -364 -674zM834 1559l190 274h195l-242 -274h-143z" />
<glyph unicode="&#xc2;" horiz-adv-x="1312" d="M49 0q191 425 349.5 737.5t381.5 673.5h199q109 -361 168.5 -673.5t116.5 -737.5h-179l-59 428h-604q-121 -254 -195 -428h-178zM492 571h509q-52 346 -145 674q-161 -266 -364 -674zM618 1559l230 274h201l135 -274h-144l-108 170l-170 -170h-144z" />
<glyph unicode="&#xc3;" horiz-adv-x="1312" d="M49 0h178q74 174 195 428h604l59 -428h179q-57 425 -116.5 737.5t-168.5 673.5h-199q-223 -361 -381.5 -673.5t-349.5 -737.5zM492 571q203 408 364 674q93 -328 145 -674h-509zM621 1620q10 37 20 64.5t27.5 56.5t39 47.5t54 30.5t72.5 12q31 0 68.5 -16t67 -32 t60.5 -24.5t61.5 8t57.5 64.5h94q-52 -211 -221 -211q-27 0 -56 11.5t-56.5 27.5t-37.5 20q-62 24 -92.5 12t-64.5 -71h-94z" />
<glyph unicode="&#xc4;" horiz-adv-x="1312" d="M49 0h178q74 174 195 428h604l59 -428h179q-57 425 -116.5 737.5t-168.5 673.5h-199q-223 -361 -381.5 -673.5t-349.5 -737.5zM492 571q203 408 364 674q93 -328 145 -674h-509zM670 1726q15 107 125 107q61 0 78 -28t10 -79q-14 -106 -123 -106q-59 0 -78 28t-12 78z M977 1726q15 107 125 107q61 0 78 -28t10 -79q-14 -106 -123 -106q-59 0 -78 28t-12 78z" />
<glyph unicode="&#xc5;" horiz-adv-x="1312" d="M49 0q191 425 349.5 737.5t381.5 673.5h199q109 -361 168.5 -673.5t116.5 -737.5h-179l-59 428h-604q-121 -254 -195 -428h-178zM492 571h509q-52 346 -145 674q-161 -266 -364 -674zM739 1735q16 100 76.5 144t145.5 44q86 0 132.5 -44t30.5 -144q-14 -97 -76.5 -143 t-146.5 -46q-83 0 -129.5 45.5t-32.5 143.5zM840 1735q-7 -46 14.5 -68t60.5 -22q40 0 71 22t38 68q7 47 -15.5 68.5t-62.5 21.5t-69.5 -21.5t-36.5 -68.5z" />
<glyph unicode="&#xc6;" horiz-adv-x="1824" d="M49 0q191 425 349.5 737.5t381.5 673.5h293h858l-22 -156h-682l-74 -448h635l-25 -156h-635l-57 -356q-23 -139 139 -139h521l-23 -156h-551q-163 5 -224.5 63t-43.5 205l29 160h-496q-121 -254 -195 -428h-178zM492 571h448l111 684h-191q-155 -257 -368 -684z" />
<glyph unicode="&#xc7;" horiz-adv-x="1306" d="M221 702q22 137 79.5 256t137 205t176.5 148t200 92.5t204 30.5q133 0 245.5 -13.5t172.5 -31.5l-27 -150q-110 18 -177 26t-98 9.5t-87 1.5q-158 0 -295.5 -68.5t-232.5 -200t-122 -305.5q-21 -131 8 -240t95 -179.5t159.5 -109t202.5 -38.5q79 0 141.5 5.5t235.5 31.5 l-25 -152q-141 -37 -391 -43q38 -72 45 -129q14 -112 -59.5 -190.5t-198.5 -65.5q-71 8 -149 48l14 98l80 -25q61 -16 103.5 2t59 58.5t13 96t-28.5 114.5q-116 14 -213 67.5t-167 141.5t-98 220t-3 289z" />
<glyph unicode="&#xc8;" horiz-adv-x="1159" d="M225 268l183 1143h858l-23 -156h-682l-74 -448h635l-24 -156h-635l-57 -356q-23 -139 139 -139h520l-23 -156h-550q-163 5 -225 63t-42 205zM696 1833h195l98 -274h-143z" />
<glyph unicode="&#xc9;" horiz-adv-x="1159" d="M225 268l183 1143h858l-23 -156h-682l-74 -448h635l-24 -156h-635l-57 -356q-23 -139 139 -139h520l-23 -156h-550q-163 5 -225 63t-42 205zM725 1559l188 274h195l-240 -274h-143z" />
<glyph unicode="&#xca;" horiz-adv-x="1159" d="M225 268l183 1143h858l-23 -156h-682l-74 -448h635l-24 -156h-635l-57 -356q-23 -139 139 -139h520l-23 -156h-550q-163 5 -225 63t-42 205zM537 1559l227 274h201l137 -274h-144l-110 170l-168 -170h-143z" />
<glyph unicode="&#xcb;" horiz-adv-x="1159" d="M225 268l183 1143h858l-23 -156h-682l-74 -448h635l-24 -156h-635l-57 -356q-23 -139 139 -139h520l-23 -156h-550q-163 5 -225 63t-42 205zM588 1726q7 50 34.5 78.5t88.5 28.5t79 -28t11 -79q-14 -106 -123 -106q-59 0 -78 28t-12 78zM895 1726q7 50 34.5 78.5 t88.5 28.5t79 -28t11 -79q-14 -106 -123 -106q-59 0 -78 28t-12 78z" />
<glyph unicode="&#xcc;" horiz-adv-x="561" d="M193 0l223 1411h176l-223 -1411h-176zM324 1833h194l96 -274h-143z" />
<glyph unicode="&#xcd;" horiz-adv-x="561" d="M193 0l223 1411h176l-223 -1411h-176zM438 1559l191 274h194l-241 -274h-144z" />
<glyph unicode="&#xce;" horiz-adv-x="561" d="M193 0l223 1411h176l-223 -1411h-176zM244 1559l229 274h201l135 -274h-143l-109 170l-170 -170h-143z" />
<glyph unicode="&#xcf;" horiz-adv-x="561" d="M193 0l223 1411h176l-223 -1411h-176zM295 1726q15 107 125 107q61 0 78 -28t10 -79q-14 -106 -123 -106q-59 0 -78 28t-12 78zM602 1726q15 107 125 107q61 0 78 -28t10 -79q-14 -106 -123 -106q-59 0 -78 28t-12 78z" />
<glyph unicode="&#xd0;" horiz-adv-x="1447" d="M147 625l25 155h168l102 631h467q102 0 192 -28.5t163.5 -86t121 -142.5t64.5 -198t-6 -254q-28 -172 -103 -309t-179 -221t-225.5 -128t-250.5 -44h-467l96 625h-168zM418 156h203q269 0 431 138.5t205 407.5q85 553 -460 553h-203l-78 -475h293l-25 -155h-292z" />
<glyph unicode="&#xd1;" horiz-adv-x="1449" d="M193 0h176l190 1198q107 -203 202 -421.5t152 -372t146 -404.5h198l224 1411h-176l-177 -1108q-119 337 -221 581t-258 527h-233zM688 1622q11 46 25.5 80t38.5 65.5t61.5 48.5t87.5 17q31 0 68.5 -16t67 -32t61 -24.5t62 8t57.5 64.5h94q-52 -211 -221 -211 q-27 0 -56 11.5t-56.5 27.5t-37.5 20q-62 24 -93 12t-65 -71h-94z" />
<glyph unicode="&#xd2;" d="M223 700q25 154 87 279.5t144 208.5t184 139.5t204.5 81.5t206.5 25q86 0 166.5 -17.5t155.5 -55t132 -96t97 -140t49.5 -187t-9.5 -238.5q-54 -330 -279 -526.5t-546 -196.5h4q-212 0 -359.5 88.5t-210 253t-26.5 381.5zM397 700q-40 -252 81.5 -411.5t359.5 -159.5 q241 0 414.5 159.5t213.5 411.5q20 122 3 216.5t-57 163.5t-102 114t-133 66.5t-149 21.5t-157 -21t-156.5 -67.5t-141 -113t-111 -164.5t-65.5 -216zM866 1833h195l98 -274h-143z" />
<glyph unicode="&#xd3;" d="M223 700q25 154 87 279.5t144 208.5t184 139.5t204.5 81.5t206.5 25q86 0 166.5 -17.5t155.5 -55t132 -96t97 -140t49.5 -187t-9.5 -238.5q-54 -330 -279 -526.5t-546 -196.5h4q-212 0 -359.5 88.5t-210 253t-26.5 381.5zM397 700q-40 -252 81.5 -411.5t359.5 -159.5 q241 0 414.5 159.5t213.5 411.5q20 122 3 216.5t-57 163.5t-102 114t-133 66.5t-149 21.5t-157 -21t-156.5 -67.5t-141 -113t-111 -164.5t-65.5 -216zM967 1559l188 274h195l-240 -274h-143z" />
<glyph unicode="&#xd4;" d="M223 700q25 154 87 279.5t144 208.5t184 139.5t204.5 81.5t206.5 25q86 0 166.5 -17.5t155.5 -55t132 -96t97 -140t49.5 -187t-9.5 -238.5q-54 -330 -279 -526.5t-546 -196.5h4q-212 0 -359.5 88.5t-210 253t-26.5 381.5zM397 700q-40 -252 81.5 -411.5t359.5 -159.5 q241 0 414.5 159.5t213.5 411.5q20 122 3 216.5t-57 163.5t-102 114t-133 66.5t-149 21.5t-157 -21t-156.5 -67.5t-141 -113t-111 -164.5t-65.5 -216zM786 1559l228 274h200l138 -274h-144l-110 170l-168 -170h-144z" />
<glyph unicode="&#xd5;" d="M223 700q25 154 87 279.5t144 208.5t184 139.5t204.5 81.5t206.5 25q86 0 166.5 -17.5t155.5 -55t132 -96t97 -140t49.5 -187t-9.5 -238.5q-54 -330 -279 -526.5t-546 -196.5h4q-212 0 -359.5 88.5t-210 253t-26.5 381.5zM397 700q-40 -252 81.5 -411.5t359.5 -159.5 q241 0 414.5 159.5t213.5 411.5q20 122 3 216.5t-57 163.5t-102 114t-133 66.5t-149 21.5t-157 -21t-156.5 -67.5t-141 -113t-111 -164.5t-65.5 -216zM786 1622q12 46 25.5 79.5t37.5 66t61 49t87 16.5q31 0 68.5 -16t67 -32t61 -24.5t62 8t57.5 64.5h94q-24 -96 -74 -153.5 t-145 -57.5q-27 0 -56 11.5t-56.5 27.5t-37.5 20q-62 24 -93 12t-64 -71h-95z" />
<glyph unicode="&#xd6;" d="M223 700q25 154 87 279.5t144 208.5t184 139.5t204.5 81.5t206.5 25q86 0 166.5 -17.5t155.5 -55t132 -96t97 -140t49.5 -187t-9.5 -238.5q-54 -330 -279 -526.5t-546 -196.5h4q-212 0 -359.5 88.5t-210 253t-26.5 381.5zM397 700q-40 -252 81.5 -411.5t359.5 -159.5 q241 0 414.5 159.5t213.5 411.5q20 122 3 216.5t-57 163.5t-102 114t-133 66.5t-149 21.5t-157 -21t-156.5 -67.5t-141 -113t-111 -164.5t-65.5 -216zM838 1726q7 50 34.5 78.5t88.5 28.5t79 -28t11 -79q-14 -106 -123 -106q-59 0 -78 28t-12 78zM1145 1726q7 50 34.5 78.5 t88.5 28.5t79 -28t11 -79q-14 -106 -123 -106q-59 0 -78 28t-12 78z" />
<glyph unicode="&#xd7;" horiz-adv-x="1044" d="M168 285l326 280l-238 281l135 117l238 -281l323 281l99 -117l-324 -281l236 -280l-136 -117l-235 281l-326 -281z" />
<glyph unicode="&#xd8;" d="M125 0l194 190q-148 197 -96 510q25 154 87 279.5t144 208.5t184 139.5t204.5 81.5t206.5 25q245 0 407 -129l203 192l80 -86l-197 -192q150 -195 98 -519q-54 -329 -279.5 -526t-545.5 -197q-254 0 -412 127l-194 -186zM397 700q-35 -226 56 -376l874 854 q-121 104 -301 104q-78 0 -157 -21t-156 -67.5t-140.5 -113t-110.5 -164.5t-65 -216zM535 231q114 -102 303 -102q241 0 414.5 159.5t213.5 411.5q38 235 -61 385z" />
<glyph unicode="&#xd9;" horiz-adv-x="1474" d="M253 425q-1 -73 11 -128t30.5 -100.5t48 -77.5t59 -56.5t68 -39.5t70.5 -24.5t70.5 -14t64.5 -6t56 -1.5q46 0 85 3t101.5 16.5t114.5 36.5t112 68.5t105.5 107.5t84 158t57.5 215l131 829h-174l-127 -788q-22 -138 -67.5 -236t-89.5 -145t-109.5 -72t-99 -28t-86.5 -3 h-11h-9q-25 0 -41 0.5t-48 4.5t-53.5 12t-51.5 24.5t-49 40t-38.5 61t-27 84.5t-7.5 112.5t13 144.5l127 788h-174l-131 -829q-14 -84 -15 -157zM791 1833h194l96 -274h-143z" />
<glyph unicode="&#xda;" horiz-adv-x="1474" d="M253 425q1 73 15 157l131 829h174l-127 -788q-13 -79 -13 -144.5t7.5 -112.5t27 -84.5t38.5 -61t49 -40t51.5 -24.5t54 -12t47.5 -4.5t41 -0.5h9h11q28 0 44.5 0.5t50.5 4.5t57.5 12t58 24.5t60 40t55.5 61t52 84.5t41.5 112.5t32.5 144.5l127 788h174l-131 -829 q-19 -119 -57.5 -215t-84 -158t-105.5 -107.5t-112 -68.5t-114.5 -36.5t-101.5 -16.5t-85 -3q-30 0 -56 1.5t-64.5 6t-70.5 14t-70.5 24.5t-68 39.5t-59 56.5t-48 77.5t-30.5 100.5t-11 128zM877 1559l190 274h195l-242 -274h-143z" />
<glyph unicode="&#xdb;" horiz-adv-x="1474" d="M253 425q1 73 15 157l131 829h174l-127 -788q-13 -79 -13 -144.5t7.5 -112.5t27 -84.5t38.5 -61t49 -40t51.5 -24.5t54 -12t47.5 -4.5t41 -0.5h9h11q28 0 44.5 0.5t50.5 4.5t57.5 12t58 24.5t60 40t55.5 61t52 84.5t41.5 112.5t32.5 144.5l127 788h174l-131 -829 q-19 -119 -57.5 -215t-84 -158t-105.5 -107.5t-112 -68.5t-114.5 -36.5t-101.5 -16.5t-85 -3q-30 0 -56 1.5t-64.5 6t-70.5 14t-70.5 24.5t-68 39.5t-59 56.5t-48 77.5t-30.5 100.5t-11 128zM700 1559l230 274h200l136 -274h-144l-108 170l-170 -170h-144z" />
<glyph unicode="&#xdc;" horiz-adv-x="1474" d="M253 425q-1 -73 11 -128t30.5 -100.5t48 -77.5t59 -56.5t68 -39.5t70.5 -24.5t70.5 -14t64.5 -6t56 -1.5q46 0 85 3t101.5 16.5t114.5 36.5t112 68.5t105.5 107.5t84 158t57.5 215l131 829h-174l-127 -788q-22 -138 -67.5 -236t-89.5 -145t-109.5 -72t-99 -28t-86.5 -3 h-11h-9q-25 0 -41 0.5t-48 4.5t-53.5 12t-51.5 24.5t-49 40t-38.5 61t-27 84.5t-7.5 112.5t13 144.5l127 788h-174l-131 -829q-14 -84 -15 -157zM752 1726q15 107 125 107q61 0 78 -28t10 -79q-14 -106 -123 -106q-59 0 -78 28t-12 78zM1059 1726q15 107 125 107 q61 0 78 -28t10 -79q-14 -106 -123 -106q-59 0 -78 28t-12 78z" />
<glyph unicode="&#xdd;" horiz-adv-x="1157" d="M250 1411h207l245 -631l445 631h205l-588 -801l-96 -610h-176l96 608zM727 1559l191 274h194l-242 -274h-143z" />
<glyph unicode="&#xde;" horiz-adv-x="1171" d="M193 0l223 1411h176l-43 -278h336q77 0 141.5 -27.5t110.5 -79.5t64.5 -135t2.5 -186t-61.5 -185.5t-108.5 -133t-136 -77t-150 -26.5h-336l-43 -283h-176zM438 434h291q262 0 307 271q45 276 -223 276h-291z" />
<glyph unicode="&#xdf;" horiz-adv-x="1187" d="M158 0l135 866q21 130 58.5 225t101 169.5t163.5 112.5t236 38h39q38 0 78.5 -9t86 -35.5t78 -66t47.5 -108t1 -154.5q-14 -92 -78 -171t-168 -115q101 -20 168.5 -122.5t44.5 -244.5q-31 -195 -165.5 -290t-340.5 -95h-172q1 9 3.5 24.5t7 48t7.5 54t3 20.5h174 q113 0 201 63.5t106 174.5q9 61 -4 111.5t-39.5 81.5t-61 52t-64.5 29.5t-54 8.5h-84l22 143h74q98 0 165.5 68t80.5 159q9 57 -3 101t-40 69.5t-65 38.5t-81 13q-75 0 -134 -25t-94 -61.5t-61.5 -93.5t-38.5 -104t-22 -110l-10 -78l-125 -788h-176z" />
<glyph unicode="&#xe0;" horiz-adv-x="1095" d="M129 168q12 -58 43.5 -100.5t97.5 -66.5t162 -24q88 0 189.5 40t138.5 77q14 -117 147 -117q59 0 158 41l20 129q-14 -8 -37 -15.5t-53 -12t-47.5 12t-11.5 54.5l63 402q18 98 7.5 170.5t-36 121.5t-70.5 78.5t-95.5 42.5t-112.5 13q-70 0 -140.5 -12.5t-111.5 -25.5 t-84 -30t-47 -18l-22 -137q6 2 48.5 19t81 30t100 25t118.5 12q104 0 157.5 -65t36.5 -185l-6 -47q-165 20 -237 20q-106 0 -201 -32t-166.5 -103.5t-87.5 -171.5q-14 -67 -2 -125zM301 285q33 190 324 190q76 0 178 -16l-39 -244q-36 -36 -129 -72.5t-156 -36.5 q-102 0 -146.5 51.5t-31.5 127.5zM510 1411h195l100 -274h-143z" />
<glyph unicode="&#xe1;" horiz-adv-x="1095" d="M129 168q-12 58 2 125q16 100 87.5 171.5t166.5 103.5t201 32q72 0 237 -20l6 47q17 120 -36.5 185t-157.5 65q-57 0 -118.5 -12t-100 -25t-81 -30t-48.5 -19l22 137q4 1 47 18t84 30t111.5 25.5t140.5 12.5q62 0 112.5 -13t95.5 -42.5t70.5 -78.5t36 -121.5t-7.5 -170.5 l-63 -402q-6 -38 11.5 -54.5t47.5 -12t53 12t37 15.5l-20 -129q-99 -41 -158 -41q-133 0 -147 117q-37 -37 -138.5 -77t-189.5 -40q-96 0 -162 24t-97.5 66.5t-43.5 100.5zM301 285q-13 -76 31.5 -127.5t146.5 -51.5q63 0 156 36.5t129 72.5l39 244q-102 16 -178 16 q-291 0 -324 -190zM582 1137l186 274h195l-238 -274h-143z" />
<glyph unicode="&#xe2;" horiz-adv-x="1095" d="M129 168q-12 58 2 125q16 100 87.5 171.5t166.5 103.5t201 32q72 0 237 -20l6 47q17 120 -36.5 185t-157.5 65q-57 0 -118.5 -12t-100 -25t-81 -30t-48.5 -19l22 137q4 1 47 18t84 30t111.5 25.5t140.5 12.5q62 0 112.5 -13t95.5 -42.5t70.5 -78.5t36 -121.5t-7.5 -170.5 l-63 -402q-6 -38 11.5 -54.5t47.5 -12t53 12t37 15.5l-20 -129q-99 -41 -158 -41q-133 0 -147 117q-37 -37 -138.5 -77t-189.5 -40q-96 0 -162 24t-97.5 66.5t-43.5 100.5zM301 285q-13 -76 31.5 -127.5t146.5 -51.5q63 0 156 36.5t129 72.5l39 244q-102 16 -178 16 q-291 0 -324 -190zM389 1137l225 274h201l139 -274h-143l-113 170l-166 -170h-143z" />
<glyph unicode="&#xe3;" horiz-adv-x="1095" d="M129 168q12 -58 43.5 -100.5t97.5 -66.5t162 -24q88 0 189.5 40t138.5 77q14 -117 147 -117q59 0 158 41l20 129q-14 -8 -37 -15.5t-53 -12t-47.5 12t-11.5 54.5l63 402q18 98 7.5 170.5t-36 121.5t-70.5 78.5t-95.5 42.5t-112.5 13q-70 0 -140.5 -12.5t-111.5 -25.5 t-84 -30t-47 -18l-22 -137q6 2 48.5 19t81 30t100 25t118.5 12q104 0 157.5 -65t36.5 -185l-6 -47q-165 20 -237 20q-106 0 -201 -32t-166.5 -103.5t-87.5 -171.5q-14 -67 -2 -125zM301 285q33 190 324 190q76 0 178 -16l-39 -244q-36 -36 -129 -72.5t-156 -36.5 q-102 0 -146.5 51.5t-31.5 127.5zM434 1200q10 37 20 64.5t27.5 56.5t39 47.5t54 30.5t72.5 12q31 0 69 -16t68 -32t61.5 -24.5t61.5 8t56 64.5h94q-48 -211 -221 -211q-27 0 -55.5 12t-55.5 28t-37 20q-62 24 -93 11.5t-67 -71.5h-94z" />
<glyph unicode="&#xe4;" horiz-adv-x="1095" d="M129 168q12 -58 43.5 -100.5t97.5 -66.5t162 -24q88 0 189.5 40t138.5 77q14 -117 147 -117q59 0 158 41l20 129q-14 -8 -37 -15.5t-53 -12t-47.5 12t-11.5 54.5l63 402q18 98 7.5 170.5t-36 121.5t-70.5 78.5t-95.5 42.5t-112.5 13q-70 0 -140.5 -12.5t-111.5 -25.5 t-84 -30t-47 -18l-22 -137q6 2 48.5 19t81 30t100 25t118.5 12q104 0 157.5 -65t36.5 -185l-6 -47q-165 20 -237 20q-106 0 -201 -32t-166.5 -103.5t-87.5 -171.5q-14 -67 -2 -125zM301 285q33 190 324 190q76 0 178 -16l-39 -244q-36 -36 -129 -72.5t-156 -36.5 q-102 0 -146.5 51.5t-31.5 127.5zM463 1305q7 50 34.5 78t88.5 28t79 -27.5t11 -78.5q-15 -107 -125 -107q-58 0 -76.5 28.5t-11.5 78.5zM770 1305q7 50 34.5 78t88.5 28t79 -27.5t11 -78.5q-15 -107 -125 -107q-58 0 -76.5 28.5t-11.5 78.5z" />
<glyph unicode="&#xe5;" horiz-adv-x="1095" d="M129 168q-12 58 2 125q16 100 87.5 171.5t166.5 103.5t201 32q72 0 237 -20l6 47q17 120 -36.5 185t-157.5 65q-57 0 -118.5 -12t-100 -25t-81 -30t-48.5 -19l22 137q4 1 47 18t84 30t111.5 25.5t140.5 12.5q62 0 112.5 -13t95.5 -42.5t70.5 -78.5t36 -121.5t-7.5 -170.5 l-63 -402q-6 -38 11.5 -54.5t47.5 -12t53 12t37 15.5l-20 -129q-99 -41 -158 -41q-133 0 -147 117q-37 -37 -138.5 -77t-189.5 -40q-96 0 -162 24t-97.5 66.5t-43.5 100.5zM301 285q-13 -76 31.5 -127.5t146.5 -51.5q63 0 156 36.5t129 72.5l39 244q-102 16 -178 16 q-291 0 -324 -190zM516 1313q17 100 77.5 144t145.5 44q86 0 132.5 -44t29.5 -144q-16 -98 -77 -143.5t-144 -45.5q-84 0 -132 46t-32 143zM618 1313q-7 -46 15 -68t61 -22q40 0 71 22t38 68q7 47 -15.5 68.5t-62.5 21.5t-70 -21.5t-37 -68.5z" />
<glyph unicode="&#xe6;" horiz-adv-x="1759" d="M125 168q-12 58 2 125q12 75 55.5 133.5t107.5 92t137.5 50.5t152.5 17q70 0 235 -21l10 62q20 119 -34.5 184.5t-159.5 65.5q-57 0 -116.5 -12t-96 -25.5t-76.5 -30t-47 -18.5l22 137l45 18t79.5 30t108 26t138.5 12q223 0 289 -166q81 81 182 123.5t207 42.5 q219 0 320 -141t61 -388l-12 -53h-760q-23 -145 67.5 -231t225.5 -86q120 0 352 57l-23 -135q-3 -1 -32 -8.5t-49.5 -12.5t-59.5 -12.5t-73.5 -12.5t-80 -9.5t-88.5 -4.5q-65 0 -138 25t-133 76.5t-69 114.5q-26 -63 -81.5 -109t-123.5 -67.5t-126.5 -30.5t-114.5 -9 q-96 0 -162 24t-97.5 66.5t-43.5 100.5zM297 285q-13 -76 31.5 -127.5t146.5 -51.5q101 0 193 55t106 144l23 139q-113 17 -179 17q-144 0 -224 -40t-97 -136zM993 557h592q22 137 -49 227t-195 90q-125 0 -226 -90.5t-122 -226.5z" />
<glyph unicode="&#xe7;" horiz-adv-x="970" d="M176 492q15 98 55.5 183t97.5 146.5t126 105.5t142.5 65.5t145.5 21.5q150 0 293 -35l-22 -135q-43 12 -124.5 23t-133.5 10q-90 0 -162 -31.5t-118 -87t-74.5 -121t-41.5 -143.5q-8 -60 -8 -115t18.5 -103.5t50 -84t86.5 -56t128 -20.5q50 -1 134 9.5t134 22.5l-22 -135 q-112 -30 -265 -35q36 -67 43 -129q14 -112 -59.5 -190.5t-198.5 -65.5q-68 7 -147 48l14 98l80 -25q61 -15 103.5 3t58.5 59t12.5 96.5t-28.5 114.5q-78 14 -142 54t-110 102.5t-64 153t-2 196.5z" />
<glyph unicode="&#xe8;" horiz-adv-x="1128" d="M179.5 267.5q-21.5 102.5 0.5 236.5q19 119 74 217.5t131 161.5t166 97t184 34q219 0 320 -141t61 -388l-12 -53h-760q-23 -145 67.5 -231t225.5 -86q128 0 352 57q-12 -90 -20 -135q-3 -1 -40 -10.5t-66.5 -16t-76 -15t-98 -13t-102.5 -5.5q-105 0 -187.5 31.5t-140 94 t-79 165zM365 557h591q22 137 -49.5 227t-195.5 90t-224 -90t-122 -227zM557 1411h195l100 -274h-143z" />
<glyph unicode="&#xe9;" horiz-adv-x="1128" d="M179.5 267.5q-21.5 102.5 0.5 236.5q19 119 74 217.5t131 161.5t166 97t184 34q219 0 320 -141t61 -388l-12 -53h-760q-23 -145 67.5 -231t225.5 -86q128 0 352 57q-12 -90 -20 -135q-3 -1 -40 -10.5t-66.5 -16t-76 -15t-98 -13t-102.5 -5.5q-105 0 -187.5 31.5t-140 94 t-79 165zM365 557h591q22 137 -49.5 227t-195.5 90t-224 -90t-122 -227zM625 1137l186 274h195l-238 -274h-143z" />
<glyph unicode="&#xea;" horiz-adv-x="1128" d="M179.5 267.5q-21.5 102.5 0.5 236.5q19 119 74 217.5t131 161.5t166 97t184 34q219 0 320 -141t61 -388l-12 -53h-760q-23 -145 67.5 -231t225.5 -86q128 0 352 57q-12 -90 -20 -135q-3 -1 -40 -10.5t-66.5 -16t-76 -15t-98 -13t-102.5 -5.5q-105 0 -187.5 31.5t-140 94 t-79 165zM365 557h591q22 137 -49.5 227t-195.5 90t-224 -90t-122 -227zM467 1137l225 274h201l139 -274h-143l-113 170l-166 -170h-143z" />
<glyph unicode="&#xeb;" horiz-adv-x="1128" d="M179.5 267.5q-21.5 102.5 0.5 236.5q19 119 74 217.5t131 161.5t166 97t184 34q219 0 320 -141t61 -388l-12 -53h-760q-23 -145 67.5 -231t225.5 -86q128 0 352 57q-12 -90 -20 -135q-3 -1 -40 -10.5t-66.5 -16t-76 -15t-98 -13t-102.5 -5.5q-105 0 -187.5 31.5t-140 94 t-79 165zM365 557h591q22 137 -49.5 227t-195.5 90t-224 -90t-122 -227zM516 1305q7 50 34.5 78t88.5 28t79 -27.5t11 -78.5q-15 -107 -123 -107q-105 0 -90 107zM823 1305q7 50 34.5 78t88.5 28t79 -27.5t11 -78.5q-15 -107 -123 -107q-105 0 -90 107z" />
<glyph unicode="&#xec;" horiz-adv-x="487" d="M156 0l155 991h176l-155 -991h-176zM213 1411h195l100 -274h-143z" />
<glyph unicode="&#xed;" horiz-adv-x="487" d="M156 0l155 991h176l-155 -991h-176zM336 1137l186 274h195l-238 -274h-143z" />
<glyph unicode="&#xee;" horiz-adv-x="487" d="M139 1137l226 274h200l140 -274h-144l-112 170l-166 -170h-144zM156 0l155 991h176l-155 -991h-176z" />
<glyph unicode="&#xef;" horiz-adv-x="487" d="M156 0l155 991h176l-155 -991h-176zM188 1305q7 50 34.5 78t88.5 28t79 -27.5t11 -78.5q-15 -107 -122 -107q-106 0 -91 107zM496 1305q7 50 34 78t88 28t79.5 -27.5t11.5 -78.5q-15 -107 -123 -107q-105 0 -90 107z" />
<glyph unicode="&#xf0;" horiz-adv-x="1226" d="M175.5 281q-18.5 84 0.5 196q17 110 61.5 198t104 144t133.5 93t146.5 52t146.5 13q38 0 82 -11.5t74 -29.5q-20 88 -148 203l-311 -133l20 124l191 82q-92 66 -172 103l100 119q141 -48 262 -140l305 129l-20 -125l-193 -81q143 -141 210 -329.5t32 -404.5 q-18 -117 -62 -207.5t-102 -146.5t-131.5 -92t-146.5 -49t-152 -11q-74 -2 -141.5 14t-129.5 52t-101.5 95t-58 143zM354 485q-29 -179 43.5 -275.5t233.5 -96.5t262 93.5t131 278.5q29 177 -44.5 267t-234.5 90q-160 0 -261.5 -92.5t-129.5 -264.5z" />
<glyph unicode="&#xf1;" horiz-adv-x="1167" d="M156 0l155 991h164v-78q38 37 124.5 69t174.5 32q41 0 75.5 -3.5t71.5 -11.5t65.5 -24t55 -39.5t43.5 -59t27.5 -81t10 -107.5t-12.5 -137l-88 -551h-184l84 539q31 196 -8.5 271t-186.5 75q-69 0 -150.5 -39t-123.5 -84l-121 -762h-176zM479 1200q12 46 25.5 79.5 t37.5 66t61 49t87 16.5q31 0 69 -16t68 -32t61.5 -24.5t61.5 8t56 64.5h94q-48 -211 -219 -211q-27 0 -55.5 12t-55.5 28t-37 20q-62 24 -94 11.5t-66 -71.5h-94z" />
<glyph unicode="&#xf2;" horiz-adv-x="1222" d="M176.5 293.5q16.5 -86.5 56 -148.5t99 -101t127.5 -56t141 -13q21 1 12 2q76 0 147 15t144.5 53t131.5 95.5t102.5 149t62.5 208.5q13 99 7 176t-35.5 134.5t-69.5 96.5t-95 63.5t-111 35t-118 10.5h-10q-74 0 -147 -17.5t-146 -57.5t-132 -99t-103 -148.5t-62 -199.5 q-18 -112 -1.5 -198.5zM354 500q28 174 134 276.5t264 102.5t229.5 -99.5t42.5 -279.5q-31 -187 -133.5 -287t-261.5 -100t-231.5 103t-43.5 284zM666 1411h194l101 -274h-144z" />
<glyph unicode="&#xf3;" horiz-adv-x="1222" d="M176.5 293.5q-16.5 86.5 1.5 198.5q18 110 62 199.5t103 148.5t132 99t146 57.5t147 17.5h10q62 0 118 -10.5t111 -35t95 -63.5t69.5 -96.5t35.5 -134.5t-7 -176q-18 -117 -62.5 -208.5t-102.5 -149t-131.5 -95.5t-144.5 -53t-147 -15h-7h1q7 -1 0 -1q-2 -1 -6 -1 q-73 -4 -141 13t-127.5 56t-99 101t-56 148.5zM354 500q-29 -181 43.5 -284t231.5 -103t261.5 100t133.5 287q29 180 -42.5 279.5t-229.5 99.5t-264 -102.5t-134 -276.5zM623 1137l186 274h195l-238 -274h-143z" />
<glyph unicode="&#xf4;" horiz-adv-x="1222" d="M176.5 293.5q-16.5 86.5 1.5 198.5q18 110 62 199.5t103 148.5t132 99t146 57.5t147 17.5h10q62 0 118 -10.5t111 -35t95 -63.5t69.5 -96.5t35.5 -134.5t-7 -176q-18 -117 -62.5 -208.5t-102.5 -149t-131.5 -95.5t-144.5 -53t-147 -15h-7h1q7 -1 0 -1q-2 -1 -6 -1 q-73 -4 -141 13t-127.5 56t-99 101t-56 148.5zM354 500q-29 -181 43.5 -284t231.5 -103t261.5 100t133.5 287q29 180 -42.5 279.5t-229.5 99.5t-264 -102.5t-134 -276.5zM508 1137l225 274h201l139 -274h-143l-113 170l-166 -170h-143z" />
<glyph unicode="&#xf5;" horiz-adv-x="1222" d="M176.5 293.5q16.5 -86.5 56 -148.5t99 -101t127.5 -56t141 -13q21 1 12 2q76 0 147 15t144.5 53t131.5 95.5t102.5 149t62.5 208.5q13 99 7 176t-35.5 134.5t-69.5 96.5t-95 63.5t-111 35t-118 10.5h-10q-74 0 -147 -17.5t-146 -57.5t-132 -99t-103 -148.5t-62 -199.5 q-18 -112 -1.5 -198.5zM354 500q28 174 134 276.5t264 102.5t229.5 -99.5t42.5 -279.5q-31 -187 -133.5 -287t-261.5 -100t-231.5 103t-43.5 284zM508 1200q12 46 25.5 79.5t37.5 66t61 49t87 16.5q31 0 69 -16t67.5 -32t61 -24.5t61.5 8t56 64.5h94q-48 -211 -219 -211 q-27 0 -55.5 12t-55 28t-36.5 20q-62 24 -94 11.5t-66 -71.5h-94z" />
<glyph unicode="&#xf6;" horiz-adv-x="1222" d="M176.5 293.5q16.5 -86.5 56 -148.5t99 -101t127.5 -56t141 -13q21 1 12 2q76 0 147 15t144.5 53t131.5 95.5t102.5 149t62.5 208.5q13 99 7 176t-35.5 134.5t-69.5 96.5t-95 63.5t-111 35t-118 10.5h-10q-74 0 -147 -17.5t-146 -57.5t-132 -99t-103 -148.5t-62 -199.5 q-18 -112 -1.5 -198.5zM354 500q28 174 134 276.5t264 102.5t229.5 -99.5t42.5 -279.5q-31 -187 -133.5 -287t-261.5 -100t-231.5 103t-43.5 284zM557 1305q7 50 34.5 78t88.5 28t79 -27.5t11 -78.5q-15 -107 -123 -107q-105 0 -90 107zM864 1305q7 50 34.5 78t88.5 28 t79 -27.5t11 -78.5q-15 -107 -123 -107q-105 0 -90 107z" />
<glyph unicode="&#xf7;" horiz-adv-x="1089" d="M217 575l21 138h835l-20 -138h-836zM469 276q8 56 38 86.5t97 30.5t87 -30.5t11 -86.5q-18 -116 -135 -116q-64 0 -85 30.5t-13 85.5zM588 1004q7 55 37.5 85.5t97.5 30.5q66 0 85.5 -29.5t12.5 -86.5q-14 -117 -135 -117q-64 0 -84.5 30.5t-13.5 86.5z" />
<glyph unicode="&#xf8;" horiz-adv-x="1222" d="M168 -100l133 170q-171 140 -125 422q22 136 85 244.5t147 171t177.5 91t182.5 17.5l10 -2q122 0 215 -41l133 172l84 -60l-127 -165q160 -133 115 -422q-18 -117 -62.5 -211t-103 -154.5t-130.5 -99.5t-144.5 -52.5t-145.5 -5.5l-12 2q-125 0 -217 43l-127 -161z M352 500q-30 -192 51 -293l492 641q-57 31 -143 31q-158 0 -265 -103t-135 -276zM475 143q65 -30 154 -30q159 0 260.5 100t132.5 287q30 182 -43 284z" />
<glyph unicode="&#xf9;" horiz-adv-x="1220" d="M199 286q0 68 14 154l88 551h184l-86 -538q-31 -196 9.5 -271.5t187.5 -75.5q69 0 150.5 39t123.5 84l121 762h176l-129 -805q-6 -39 11.5 -55t48 -11.5t54 12t38.5 15.5l-23 -129q-99 -41 -155 -41q-134 0 -148 117q-43 -45 -134 -81t-181 -36q-54 0 -95.5 4t-84 16.5 t-71.5 33.5t-53.5 56t-35 83t-10.5 116zM573 1411h195l100 -274h-143z" />
<glyph unicode="&#xfa;" horiz-adv-x="1220" d="M199 286q0 68 14 154l88 551h184l-86 -538q-31 -196 9.5 -271.5t187.5 -75.5q69 0 150.5 39t123.5 84l121 762h176l-129 -805q-6 -39 11.5 -55t48 -11.5t54 12t38.5 15.5l-23 -129q-99 -41 -155 -41q-134 0 -148 117q-43 -45 -134 -81t-181 -36q-54 0 -95.5 4t-84 16.5 t-71.5 33.5t-53.5 56t-35 83t-10.5 116zM625 1137l186 274h195l-238 -274h-143z" />
<glyph unicode="&#xfb;" horiz-adv-x="1220" d="M199 286q0 68 14 154l88 551h184l-86 -538q-31 -196 9.5 -271.5t187.5 -75.5q69 0 150.5 39t123.5 84l121 762h176l-129 -805q-6 -39 11.5 -55t48 -11.5t54 12t38.5 15.5l-23 -129q-99 -41 -155 -41q-134 0 -148 117q-43 -45 -134 -81t-181 -36q-54 0 -95.5 4t-84 16.5 t-71.5 33.5t-53.5 56t-35 83t-10.5 116zM512 1137l225 274h201l139 -274h-143l-113 170l-166 -170h-143z" />
<glyph unicode="&#xfc;" horiz-adv-x="1220" d="M199 286q0 68 14 154l88 551h184l-86 -538q-31 -196 9.5 -271.5t187.5 -75.5q69 0 150.5 39t123.5 84l121 762h176l-129 -805q-6 -39 11.5 -55t48 -11.5t54 12t38.5 15.5l-23 -129q-99 -41 -155 -41q-134 0 -148 117q-43 -45 -134 -81t-181 -36q-54 0 -95.5 4t-84 16.5 t-71.5 33.5t-53.5 56t-35 83t-10.5 116zM563 1305q7 50 33.5 78t87.5 28t80 -28t12 -78q-15 -107 -125 -107q-58 0 -76.5 28.5t-11.5 78.5zM870 1305q7 50 33.5 78t87.5 28t80 -28t12 -78q-15 -107 -125 -107q-58 0 -76.5 28.5t-11.5 78.5z" />
<glyph unicode="&#xfd;" horiz-adv-x="1052" d="M68 -430l22 135l82 2q32 2 48 4t38 9t36 19t30 33.5t32 53.5l84 170l-250 995h197l168 -790l420 790h196l-550 -991l-121 -238q-33 -63 -67.5 -102t-78 -59t-89.5 -26.5t-113 -4.5h-84zM539 1137l188 274h195l-240 -274h-143z" />
<glyph unicode="&#xfe;" horiz-adv-x="1165" d="M96 -358l289 1812h176l-80 -491q100 51 275 51q61 0 122 -19.5t116.5 -61.5t95 -100t56 -142t1.5 -181t-58.5 -183.5t-102.5 -147.5t-128.5 -106t-138 -67t-129.5 -22q-174 0 -256 51l-64 -393h-174zM356 172q86 -51 174 -51q167 0 287.5 111t145.5 278q26 165 -58.5 266 t-253.5 101q-83 0 -190 -52z" />
<glyph unicode="&#xff;" horiz-adv-x="1052" d="M68 -430l22 135l82 2q32 2 48 4t38 9t36 19t30 33.5t32 53.5l84 170l-250 995h197l168 -790l420 790h196l-550 -991l-121 -238q-33 -63 -67.5 -102t-78 -59t-89.5 -26.5t-113 -4.5h-84zM477 1305q7 50 34.5 78t88.5 28t79 -27.5t11 -78.5q-15 -107 -125 -107 q-58 0 -76.5 28.5t-11.5 78.5zM784 1305q7 50 34.5 78t88.5 28t79 -27.5t11 -78.5q-15 -107 -125 -107q-58 0 -76.5 28.5t-11.5 78.5z" />
<glyph unicode="&#x152;" horiz-adv-x="2330" d="M223 700q25 154 87 279.5t144 208.5t184 139.5t204.5 81.5t206.5 25q151 0 283.5 -56t215.5 -168l31 201h858l-22 -156h-682l-72 -448h635l-27 -156h-635l-57 -356q-10 -63 20.5 -101t120.5 -38h520l-24 -156h-551q-143 3 -206.5 48t-63.5 153q-112 -107 -260 -165.5 t-316 -58.5q-322 2 -485 198t-109 525zM397 700q-40 -252 81.5 -411.5t359.5 -159.5q236 0 409.5 152t216.5 395l4 24q21 122 4.5 216.5t-57 163.5t-103.5 114t-134.5 66.5t-149.5 21.5t-157 -21t-156.5 -67.5t-141 -113t-111 -164.5t-65.5 -216z" />
<glyph unicode="&#x153;" horiz-adv-x="1976" d="M176.5 295q-17.5 85 1.5 197q18 110 62.5 202.5t104.5 154.5t132 103.5t146 57t145 6.5l10 -2q126 0 229.5 -47.5t157.5 -149.5q78 94 190 145.5t228 51.5q219 0 320 -141t61 -388l-12 -53h-760q-23 -145 67.5 -231t225.5 -86q120 0 352 57l-22 -135q-1 0 -39 -10.5 t-66.5 -16.5t-76 -15t-99 -13.5t-102.5 -4.5q-131 0 -228 47.5t-145 143.5q-89 -105 -209 -155t-238 -38l-12 2q-74 0 -141 18t-127.5 56t-99 98.5t-56 145.5zM354 500q-29 -181 43.5 -284t231.5 -103t261.5 100t133.5 287q29 180 -42.5 279.5t-229.5 99.5t-264 -102.5 t-134 -276.5zM1212 557h592q20 137 -50.5 227t-194.5 90q-125 0 -226 -90.5t-121 -226.5z" />
<glyph unicode="&#x178;" horiz-adv-x="1157" d="M250 1411h207l245 -631l445 631h205l-588 -801l-96 -610h-176l96 608zM592 1726q15 107 125 107q61 0 78 -28t10 -79q-14 -106 -123 -106q-59 0 -78 28t-12 78zM899 1726q15 107 125 107q61 0 78 -28t10 -79q-14 -106 -123 -106q-59 0 -78 28t-12 78z" />
<glyph unicode="&#x2c6;" horiz-adv-x="995" d="M395 1137l226 274h200l140 -274h-144l-112 170l-166 -170h-144z" />
<glyph unicode="&#x2dc;" horiz-adv-x="915" d="M354 1200q12 46 25.5 79.5t37.5 66t61 49t87 16.5q31 0 69 -16t68 -32t61.5 -24.5t61.5 8t56 64.5h94q-48 -211 -219 -211q-27 0 -55.5 12t-55.5 28t-37 20q-62 24 -92.5 12t-66.5 -72h-95z" />
<glyph unicode="&#x2000;" horiz-adv-x="961" />
<glyph unicode="&#x2001;" horiz-adv-x="1923" />
<glyph unicode="&#x2002;" horiz-adv-x="961" />
<glyph unicode="&#x2003;" horiz-adv-x="1923" />
<glyph unicode="&#x2004;" horiz-adv-x="641" />
<glyph unicode="&#x2005;" horiz-adv-x="480" />
<glyph unicode="&#x2006;" horiz-adv-x="320" />
<glyph unicode="&#x2007;" horiz-adv-x="320" />
<glyph unicode="&#x2008;" horiz-adv-x="240" />
<glyph unicode="&#x2009;" horiz-adv-x="384" />
<glyph unicode="&#x200a;" horiz-adv-x="106" />
<glyph unicode="&#x2010;" horiz-adv-x="933" d="M209 455l22 155h660l-23 -155h-659z" />
<glyph unicode="&#x2011;" horiz-adv-x="933" d="M209 455l22 155h660l-23 -155h-659z" />
<glyph unicode="&#x2012;" horiz-adv-x="933" d="M209 455l22 155h660l-23 -155h-659z" />
<glyph unicode="&#x2013;" horiz-adv-x="1216" d="M205 467l22 151h955l-23 -151h-954z" />
<glyph unicode="&#x2014;" horiz-adv-x="1656" d="M205 467l22 151h1395l-23 -151h-1394z" />
<glyph unicode="&#x2018;" horiz-adv-x="468" d="M272 1081l209 353h131l-155 -353h-185z" />
<glyph unicode="&#x2019;" horiz-adv-x="456" d="M279 1081l155 353h184l-208 -353h-131z" />
<glyph unicode="&#x201a;" horiz-adv-x="475" d="M37 -168l158 352h184l-211 -352h-131z" />
<glyph unicode="&#x201c;" horiz-adv-x="737" d="M272 1081l209 353h131l-155 -353h-185zM557 1081l176 353h148l-156 -353h-168z" />
<glyph unicode="&#x201d;" horiz-adv-x="724" d="M279 1081l155 353h168l-176 -353h-147zM547 1081l155 353h185l-209 -353h-131z" />
<glyph unicode="&#x201e;" horiz-adv-x="745" d="M37 -168l158 352h170l-179 -352h-149zM307 -168l158 352h184l-211 -352h-131z" />
<glyph unicode="&#x2022;" horiz-adv-x="860" d="M211 526q12 69 32.5 119t58.5 93.5t102.5 66t154.5 22.5t148.5 -23.5t82.5 -64t30.5 -95.5t-7.5 -118q-12 -68 -34 -119t-61 -94t-103 -65.5t-150 -22.5q-306 0 -254 301z" />
<glyph unicode="&#x2026;" horiz-adv-x="1474" d="M135 94q8 56 38 86.5t97 30.5t87 -30.5t12 -86.5q-18 -117 -136 -117q-64 0 -85 31t-13 86zM635 94q8 56 38 86.5t97 30.5t87 -30.5t11 -86.5q-18 -117 -135 -117q-64 0 -85 31t-13 86zM1135 94q8 56 38 86.5t97 30.5t87 -30.5t11 -86.5q-18 -117 -135 -117q-64 0 -85 31 t-13 86z" />
<glyph unicode="&#x202f;" horiz-adv-x="384" />
<glyph unicode="&#x2039;" horiz-adv-x="657" d="M164 506l352 424h197l-353 -424l215 -424h-196z" />
<glyph unicode="&#x203a;" horiz-adv-x="657" d="M104 82l351 424l-213 424h196l213 -424l-350 -424h-197z" />
<glyph unicode="&#x205f;" horiz-adv-x="480" />
<glyph unicode="&#x20ac;" horiz-adv-x="1306" d="M174 500l21 125h196l17 108h-195l20 125h197q34 122 95.5 221t136.5 164t165.5 109t179.5 63t181 19q49 0 82.5 -3t74 -10t60.5 -10l-21 -139q-54 16 -165 16q-104 0 -195 -22.5t-173.5 -71t-146 -134t-98.5 -202.5h572l-21 -125h-573l-17 -108h572l-21 -125h-567 q1 -70 16 -126t39 -95t60.5 -67.5t75.5 -45.5t89.5 -27t95.5 -13t101 -3q111 0 174 16l-18 -139q-23 -3 -66 -10t-78 -10t-84 -3q-91 0 -172.5 15.5t-159.5 53t-133 95.5t-87.5 150t-30.5 209h-199z" />
<glyph unicode="&#x2122;" horiz-adv-x="1634" d="M279 950l18 105h711l141 -498l301 498h139l-63 -719h-121l47 526l-283 -456h-92l-133 456l-125 -526h-121l144 614h-228l-98 -614h-123l99 614h-213z" />
<glyph unicode="&#xe000;" horiz-adv-x="993" d="M0 0v993h993v-993h-993z" />
</font>
</defs>
</svg>
