<?xml version="1.0" standalone="no"?>
<!DOCTYPE svg PUBLIC "-//W3C//DTD SVG 1.1//EN" "http://www.w3.org/Graphics/SVG/1.1/DTD/svg11.dtd" >
<svg xmlns="http://www.w3.org/2000/svg">
<metadata></metadata>
<defs>
<font id="kyrial_display_pro_regularRg" horiz-adv-x="1642" >
<font-face units-per-em="2048" ascent="1536" descent="-512" />
<missing-glyph horiz-adv-x="466" />
<glyph unicode="&#xfb01;" horiz-adv-x="1216" d="M57 854v137h176v164q0 49 8.5 89t20.5 69t34 52t41 37.5t49.5 25t51.5 15.5t55 7.5t51.5 3t49.5 0.5h113v-137h-97q-124 0 -163 -36t-39 -138v-152h655v-991h-176v854h-479v-854h-175v854h-176zM866 1305q0 50 23 78t84 28t83.5 -28t22.5 -78q0 -107 -106 -107 q-107 0 -107 107z" />
<glyph unicode="&#xfb02;" horiz-adv-x="1294" d="M57 854v137h176v164q0 49 8.5 89t20.5 69t34 52t41 37.5t49.5 25t51.5 15.5t55 7.5t51.5 3t49.5 0.5h113v-137h-97q-124 0 -163 -36t-39 -138v-152h256v-137h-256v-854h-175v854h-176zM866 276q0 -164 78.5 -224t263.5 -60h62v141h-25q-58 0 -98 9t-61 21t-31.5 35.5 t-12.5 41t-2 49.5v1165h-174v-1178z" />
<glyph unicode="&#xfb03;" horiz-adv-x="1933" d="M57 854v137h176v164q0 49 8.5 89t20.5 69t34 52t41 37.5t49.5 25t51.5 15.5t55 7.5t51.5 3t49.5 0.5h113v-137h-97q-124 0 -163 -36t-39 -138v-152h542v164q0 49 8.5 89t20.5 69t34 52t41 37.5t49.5 25t51.5 15.5t55 7.5t51.5 3t49.5 0.5h112v-137h-96q-85 0 -128.5 -17 t-59 -52.5t-15.5 -104.5v-152h656v-991h-176v854h-480v-854h-174v854h-542v-854h-175v854h-176zM1583 1305q0 50 23 78t84 28t83.5 -28t22.5 -78q0 -107 -106 -107q-107 0 -107 107z" />
<glyph unicode="&#xfb04;" horiz-adv-x="2011" d="M57 854v137h176v164q0 49 8.5 89t20.5 69t34 52t41 37.5t49.5 25t51.5 15.5t55 7.5t51.5 3t49.5 0.5h113v-137h-97q-124 0 -163 -36t-39 -138v-152h542v164q0 49 8.5 89t20.5 69t34 52t41 37.5t49.5 25t51.5 15.5t55 7.5t51.5 3t49.5 0.5h112v-137h-96q-85 0 -128.5 -17 t-59 -52.5t-15.5 -104.5v-152h256v-137h-256v-854h-174v854h-542v-854h-175v854h-176zM1583 276q0 -164 78.5 -224t263.5 -60h62v141h-25q-58 0 -98 9t-61 21t-31.5 35.5t-12.5 41t-2 49.5v1165h-174v-1178z" />
<glyph horiz-adv-x="2048" />
<glyph horiz-adv-x="2048" />
<glyph unicode="&#xd;" horiz-adv-x="2048" />
<glyph unicode=" "  horiz-adv-x="466" />
<glyph unicode="&#x09;" horiz-adv-x="466" />
<glyph unicode="&#xa0;" horiz-adv-x="466" />
<glyph unicode="!" horiz-adv-x="503" d="M143 94q0 107 107 107q106 0 106 -107q0 -50 -22.5 -78t-83.5 -28t-84 28t-23 78zM164 1411h176l-16 -1092h-144z" />
<glyph unicode="&#x22;" horiz-adv-x="729" d="M131 1411h176l-20 -557h-137zM422 1411h176l-20 -557h-138z" />
<glyph unicode="#" horiz-adv-x="1495" d="M88 371l35 149h239l80 336h-239l35 150h239l94 405h150l-96 -405h346l96 405h150l-97 -405h287l-35 -150h-287l-79 -336h286l-35 -149h-286l-86 -371h-150l86 371h-346l-86 -371h-147l86 371h-240zM510 520h346l80 336h-346z" />
<glyph unicode="$" horiz-adv-x="1171" d="M104 1028v14q5 160 112 260t310 123v213h127v-206q85 -1 192 -27t167 -51v-162q-117 43 -196 61.5t-175 18.5q-176 0 -264.5 -67t-91.5 -173q-1 -5 -0.5 -14t8.5 -34.5t24.5 -48t55 -48.5t92.5 -43l82 -29q55 -18 90.5 -30t84 -29.5t79.5 -32t69.5 -34t63 -39t51 -43.5 t42 -50.5t28.5 -58t17.5 -67.5t2.5 -77q-8 -95 -41.5 -164t-90 -112t-127.5 -66t-163 -30v-215h-127v210q-74 3 -157 21.5t-126.5 33.5t-115.5 42v170q243 -109 426 -109q76 0 134.5 12t105 38t72.5 72.5t30 111.5q2 42 -17 77t-54 61.5t-86 50t-112 45t-132 44.5 q-18 5 -28.5 8.5t-26.5 9t-29 9.5q-67 22 -120 54.5t-84.5 66.5t-53.5 69.5t-31 67t-13.5 56.5t-3.5 40z" />
<glyph unicode="%" horiz-adv-x="1583" d="M96 1096q0 88 30 156.5t79 107t106 57.5t117 17q64 0 119.5 -16.5t104.5 -53t77.5 -104t28.5 -160.5q0 -164 -89.5 -250t-240.5 -86q-60 -2 -117 16.5t-106 56.5t-79 105t-30 154zM170 0l1128 1411h134l-1129 -1411h-133zM250 1102q0 -96 47 -150.5t131 -54.5 q82 0 128 53.5t46 151.5q0 92 -46 144t-128 52q-84 0 -131 -53t-47 -143zM821 309q0 88 30 156.5t79 107t106 57.5t117 17q64 0 119.5 -16.5t104.5 -53t77.5 -104t28.5 -160.5q0 -164 -89.5 -250t-240.5 -86q-60 -2 -117 16.5t-106 56.5t-79 105t-30 154zM975 315 q0 -96 47 -150t131 -54q82 0 128 53t46 151q0 92 -46 144.5t-128 52.5q-84 0 -131 -53.5t-47 -143.5z" />
<glyph unicode="&#x26;" horiz-adv-x="1327" d="M145 369q0 14 1.5 35.5t13.5 74.5t32.5 97.5t65 89.5t104.5 65q-61 20 -105.5 60t-65 77.5t-32 82.5t-13 62.5t-1.5 30.5q6 182 132.5 285t361.5 103q207 0 311 -46v-151q-129 39 -315 39q-150 0 -231.5 -68t-84.5 -172q0 -7 0.5 -18.5t9 -42.5t25 -57.5t55 -54.5 t91.5 -42h569h211v-149h-211v-551q-64 -47 -202 -94.5t-228 -47.5q-234 0 -361 104.5t-133 287.5zM319 379q3 -105 85 -174.5t231 -69.5q125 0 260 66v469h-299q-56 0 -102 -16t-74 -41.5t-49 -57t-30.5 -62.5t-15 -56.5t-5.5 -41.5z" />
<glyph unicode="'" horiz-adv-x="438" d="M131 1411h176l-20 -557h-137z" />
<glyph unicode="(" horiz-adv-x="694" d="M102 512q0 436 143.5 679t383.5 243v-127q-72 -1 -134 -45.5t-113 -136t-80.5 -249.5t-29.5 -368q0 -208 29.5 -364.5t80.5 -246.5t113 -133.5t134 -44.5v-129q-239 0 -383 245.5t-144 676.5z" />
<glyph unicode=")" horiz-adv-x="692" d="M66 -281q57 1 108 27.5t97 86.5t79 149t52.5 224t19.5 302q0 210 -29.5 368t-80 249.5t-112.5 136t-134 45.5v127q240 0 383 -243t143 -679q0 -431 -143.5 -676.5t-382.5 -245.5v129z" />
<glyph unicode="*" horiz-adv-x="980" d="M106 987v148l269 -15l-144 236l129 76l129 -246l127 246l129 -74l-143 -238l272 15v-148l-272 14l143 -237l-129 -74l-127 246l-129 -246l-129 76l144 235z" />
<glyph unicode="+" horiz-adv-x="1101" d="M96 483v164h373v373h164v-373h373v-164h-373v-372h-164v372h-373z" />
<glyph unicode="," horiz-adv-x="485" d="M25 -221l151 405h184l-200 -405h-135z" />
<glyph unicode="-" horiz-adv-x="933" d="M137 455v155h660v-155h-660z" />
<glyph unicode="." horiz-adv-x="479" d="M123 94q0 56 25 86.5t92 30.5t91.5 -30.5t24.5 -86.5q0 -55 -26 -86t-90 -31q-117 0 -117 117z" />
<glyph unicode="/" horiz-adv-x="874" d="M78 0l571 1411h148l-572 -1411h-147z" />
<glyph unicode="0" horiz-adv-x="1271" d="M106 702q0 154 31 279.5t82.5 208t120.5 139t143 81t152 24.5t152 -24.5t143.5 -81t121 -139t82.5 -208t31 -279.5q0 -330 -145 -527.5t-385 -197.5h2q-242 0 -386.5 197t-144.5 528zM281 702q0 -251 100 -410t256 -159q153 0 253.5 159.5t100.5 409.5q0 117 -21.5 214.5 t-57 163t-82 111.5t-96 66.5t-99.5 20.5q-63 0 -123.5 -34.5t-113 -101.5t-85 -181.5t-32.5 -258.5z" />
<glyph unicode="1" horiz-adv-x="870" d="M96 0v156h277v1067l-275 -121v166l303 143h148v-1255h276v-156h-729z" />
<glyph unicode="2" horiz-adv-x="1103" d="M74 0v137l524 543q75 72 124 133.5t68.5 106t25 70t5.5 52.5q-3 104 -82 168t-229 64q-197 0 -385 -111v162q84 50 185 78.5t196 28.5q237 0 363 -99.5t126 -279.5q0 -28 -1.5 -48t-13.5 -67t-33.5 -90.5t-67 -106.5t-109.5 -127l-457 -460l688 2v-156h-927z" />
<glyph unicode="3" horiz-adv-x="1114" d="M94 51v158q204 -74 414 -74q149 0 228.5 70t82.5 176q0 8 -1 22.5t-10 52.5t-25.5 69t-53 61.5t-86.5 40.5h-364v155h1h1h1h1h1h1h1h1h1h1h1h1h1h1h1h1h1h1h1h1h1h1h1h1h1h1h1h1h1h1h1h1h1h1h1h1h1h1h1h1h1h1h1h1h1h1h1h1h1h1h1h1h1h1h1h1h1h1h1h1h1h1h1h2h1h1h1h1h1h1h1 h1h1h1h1h2h1h1h1h1h1h1h2h1h1h1h1h1h2h1h1h1h1h2h1h1h1h1h2h1h1h1h2h1h1h2h1h1h1h2h1h1h2h1h1h2h1h1h2h1h1h2h1h1h2h1h1h2h1h2h1h1h2h1h2h1h1h2h1h2h1h2h1h2h1h1h2h1h2h1h2h1h2h1h2h1h2h1h2h1h2h1h2h1h2h1h2h2h1h2h1h2h1h2h2h1h2h1h2h1h2h2h1h2h1h2h2h1h2h2h1h2h2h1h2h1h2h2 h1h2h2h1h2h2h2h1h2h2h1h2h2h1h2h2h2h1h2h2h2h1h2h2h2h1h2h2h2h1h2h2h2h2h1h2h2h2h1h2h2h2h2h2h1h2h2h2h2h2h1h2h2h2h2h2h2h1h2h10q53 14 91 44t53.5 64t24 65.5t8.5 52.5l-1 20q-3 106 -82.5 176t-228.5 70q-101 0 -186.5 -17t-190.5 -55v156q54 24 169 49t204 25 q234 0 360.5 -105.5t132.5 -288.5q0 -9 -0.5 -18t-4 -38t-10 -54.5t-21.5 -60.5t-35.5 -63.5t-54 -56.5t-74.5 -45q56 -22 97 -65t60 -82.5t29.5 -86.5t12 -65.5t1.5 -31.5q-6 -183 -132.5 -288.5t-360.5 -105.5q-91 0 -225.5 26t-184.5 48z" />
<glyph unicode="4" horiz-adv-x="1193" d="M49 340v125l692 946h187v-917h205v-154h-205v-340h-176v340h-703zM246 494h506v704z" />
<glyph unicode="5" horiz-adv-x="1157" d="M96 49l19 158q198 -72 446 -72q154 0 244 81t90 208q0 16 -0.5 29.5t-6.5 44.5t-16.5 55t-32.5 54t-52.5 50t-80 34t-110.5 14h-459l62 706h794v-156h-633l-34 -389h53h231q104 0 185 -24t133 -65t85.5 -99.5t47.5 -123t14 -140.5q-3 -90 -40 -169t-102 -138.5 t-162 -94.5t-214 -35q-94 0 -254 25.5t-207 46.5z" />
<glyph unicode="6" horiz-adv-x="1230" d="M109 539q0 433 169 664t472 231q68 0 120 -5t71 -9t57 -16.5t46 -14.5v-148q-102 45 -262 45q-100 0 -184 -34.5t-142 -92t-98.5 -134t-59.5 -158.5t-19 -167q34 87 141 148t225 61q102 0 187 -27t143 -72t98 -106t58 -127.5t18 -136.5q0 -216 -133.5 -339.5 t-374.5 -123.5q-253 0 -392.5 137.5t-139.5 424.5zM289 440q0 -56 21.5 -109.5t62.5 -98t109.5 -72t154.5 -27.5q70 0 129.5 16t109 50.5t77.5 96t28 144.5q0 133 -89.5 221.5t-246.5 88.5q-86 0 -155 -27.5t-111.5 -73t-65 -99.5t-24.5 -110z" />
<glyph unicode="7" horiz-adv-x="1040" d="M72 1253v158h927v-156l-714 -1255h-191l709 1253h-731z" />
<glyph unicode="8" horiz-adv-x="1234" d="M106 371q0 17 0.5 33t11.5 67.5t30.5 92.5t63.5 88t105 73q-178 75 -178 334q6 172 125.5 273t339.5 102h27q220 -1 339.5 -102t125.5 -273q0 -259 -178 -334q44 -19 79.5 -49t57 -59.5t37 -67.5t22.5 -63.5t10.5 -57.5t3.5 -39v-18q-6 -180 -135.5 -286.5t-361.5 -107.5 h-27q-232 1 -362 107.5t-136 286.5zM285 381q3 -103 82.5 -173t222.5 -73h55q143 3 222.5 73t82.5 173q0 6 -1 15.5t-6.5 38t-15 54.5t-30 57.5t-48 54.5t-72 38.5t-99.5 15.5h-121q-55 0 -99.5 -15t-72 -39.5t-48 -53.5t-30 -58t-15 -53.5t-6.5 -39.5zM309 1049 q0 -5 0.5 -14t5 -35.5t13 -50t26 -53t41 -50t62 -35t86.5 -14.5h135q51 1 92 15.5t66 37t43.5 49t27 53t13.5 48.5t6 36v13q-3 97 -75 163t-206 70h-55q-134 -4 -206 -70t-75 -163z" />
<glyph unicode="9" horiz-adv-x="1228" d="M82 971q0 216 133.5 339.5t374.5 123.5q253 0 392.5 -137.5t139.5 -424.5q0 -433 -169 -664t-472 -231q-68 0 -120 5t-72 9.5t-57 16.5t-46 15v147q102 -45 263 -45q100 0 184 34.5t142 92t98.5 134t59.5 158.5t19 167q-34 -87 -141 -148t-225 -61q-102 0 -187 27 t-143 72t-98 106t-58 127.5t-18 136.5zM250 971q0 -133 89.5 -221t246.5 -88q86 0 155 27.5t111.5 73t65 99t24.5 109.5q0 56 -21.5 109.5t-62.5 98t-109.5 72t-154.5 27.5q-70 0 -129.5 -16t-109 -50.5t-77.5 -96t-28 -144.5z" />
<glyph unicode=":" horiz-adv-x="507" d="M137 94q0 56 25 86.5t92 30.5t92 -30.5t25 -86.5q0 -117 -117 -117t-117 117zM137 874q0 56 25 86.5t92 30.5t92 -30.5t25 -86.5q0 -55 -26 -85.5t-91 -30.5t-91 30.5t-26 85.5z" />
<glyph unicode=";" horiz-adv-x="565" d="M41 -221h135l201 405h-184zM186 897q0 56 25 86.5t92 30.5t92 -30.5t25 -86.5q0 -117 -117 -117t-117 117z" />
<glyph unicode="&#x3c;" horiz-adv-x="1273" d="M92 461v188l1043 379v-182l-859 -295l859 -287v-182z" />
<glyph unicode="=" horiz-adv-x="1212" d="M152 287v164h909v-164h-909zM152 692v164h909v-164h-909z" />
<glyph unicode="&#x3e;" horiz-adv-x="1273" d="M139 82v182l858 287l-858 295v182l1043 -379v-188z" />
<glyph unicode="?" horiz-adv-x="1001" d="M100 1335q128 85 297 97q222 18 367 -96t145 -285q0 -72 -6 -107q-38 -204 -251 -300q-6 -3 -11 -5q-113 -48 -175 -125t-56 -180v-15h-170v5q-9 166 79 285t252 190q46 20 79.5 49.5t49.5 56t25 56.5t10 46t0 31q0 112 -85.5 173t-239.5 61q-4 0 -25.5 -1.5t-36 -3 t-43.5 -7t-55 -13.5t-62.5 -23.5t-74.5 -35.5zM221 94q0 -50 23 -78t84 -28t83.5 28t22.5 78q0 107 -106 107q-107 0 -107 -107z" />
<glyph unicode="@" horiz-adv-x="2088" d="M102 553q0 178 77.5 341.5t206.5 281.5t306 188t369 70q155 0 290.5 -32t235 -87t177.5 -127t126 -155t72.5 -167t24.5 -166q0 -141 -36 -253t-93 -181.5t-132.5 -115.5t-148.5 -64t-147 -18q-75 0 -144.5 39.5t-87.5 103.5q-69 -61 -142 -86t-132 -25q-72 0 -135.5 22.5 t-116.5 69.5t-84 128.5t-31 189.5q0 67 18 133.5t57 129t94.5 110.5t137 77t178.5 29q57 0 129.5 -29t106.5 -79l18 92h189l-133 -594q-19 -68 16 -122t82 -54t96 14.5t101 50t92.5 88t66 138t25.5 190.5q0 118 -45 220t-121 174.5t-175 124.5t-208.5 77t-220.5 25 q-158 0 -306 -60.5t-257 -161.5t-174.5 -240t-65.5 -290q0 -219 105 -391t297.5 -268.5t439.5 -96.5q184 0 376.5 56.5t364.5 191.5v-151q-121 -109 -329.5 -171.5t-421.5 -62.5q-224 0 -412 71.5t-313 193.5t-194 284t-69 344zM737 510q0 -38 3.5 -68.5t16.5 -68.5 t35.5 -64t64 -43.5t97.5 -17.5q67 0 114.5 25.5t98.5 78.5l82 408q-39 46 -99 65t-106 19q-68 0 -123 -22.5t-88.5 -57.5t-56 -81t-31 -88.5t-8.5 -84.5z" />
<glyph unicode="A" horiz-adv-x="1312" d="M49 0q124 425 233 737.5t275 673.5h199q166 -361 275 -673.5t233 -737.5h-179l-127 428h-604q-92 -307 -127 -428h-178zM401 571h510q-111 348 -254 674q-131 -293 -256 -674z" />
<glyph unicode="B" horiz-adv-x="1310" d="M193 0v1411h587q38 0 79.5 -9t90 -35.5t86 -66t63 -108t25.5 -154.5q0 -96 -47 -184.5t-141 -132.5q106 -21 183 -108t77 -228q0 -195 -117.5 -290t-322.5 -95h-563zM369 156h389q114 0 184 56.5t70 172.5q0 62 -17 109.5t-42.5 75t-61 45.5t-68 24t-67.5 6h-387v-489z M369 788h354q100 0 159.5 78t59.5 172q0 75 -35.5 125.5t-86 71t-111.5 20.5h-340v-467z" />
<glyph unicode="C" horiz-adv-x="1304" d="M111 702q0 137 38.5 256t105 205t153.5 148t185 92.5t200 30.5q133 0 246.5 -13.5t174.5 -31.5v-150q-114 18 -183 26t-100 9.5t-87 1.5q-118 0 -219.5 -40t-176 -113t-117 -181.5t-42.5 -239.5t46 -240t123.5 -179.5t177 -109t208.5 -38.5q79 0 140 5.5t230 31.5v-152 q-167 -43 -421 -43q-102 0 -200 29t-185.5 89.5t-153.5 145.5t-104.5 204t-38.5 257z" />
<glyph unicode="D" horiz-adv-x="1421" d="M193 0v1411h176h290q102 0 196.5 -28t177 -86.5t143.5 -141.5t96 -199.5t35 -253.5q0 -139 -35 -255t-96 -197.5t-143.5 -138.5t-177 -84t-196.5 -27h-290h-176zM369 156h202q269 0 409 138.5t140 407.5q0 553 -549 553h-202v-1099z" />
<glyph unicode="E" horiz-adv-x="1159" d="M184 268v1143h858v-156h-682v-448h635v-156h-635v-356q0 -139 162 -139h520v-156h-550q-162 5 -233.5 63t-74.5 205z" />
<glyph unicode="F" horiz-adv-x="1052" d="M193 0v1411h780v-156h-604v-448h557v-156h-557v-651h-176z" />
<glyph unicode="G" horiz-adv-x="1460" d="M111 702q0 137 39.5 255.5t109 205t163.5 148.5t204.5 92.5t230.5 30.5q215 0 404 -54v-149q-173 27 -227.5 33t-125.5 6q-180 0 -318.5 -67t-217 -196.5t-78.5 -304.5q0 -131 45 -239t121.5 -177.5t175 -107t207.5 -37.5q152 0 309 43v383h-367v156h543v-651 q-120 -55 -247.5 -75t-288.5 -20q-102 0 -200 29t-185.5 89.5t-153.5 145.5t-104.5 204t-38.5 257z" />
<glyph unicode="H" horiz-adv-x="1464" d="M193 0v1411h176v-604h727v604h176v-1411h-176v670h-727v-670h-176z" />
<glyph unicode="I" horiz-adv-x="561" d="M193 0v1411h176v-1411h-176z" />
<glyph unicode="J" horiz-adv-x="598" d="M-258 -266q123 -12 196 -12q37 0 61 3q136 17 189 123q43 86 43 244v1319h175v-1362q0 -86 -16 -156.5t-41 -119.5t-64.5 -86t-77.5 -59t-90.5 -35t-92.5 -18q-33 -4 -76 -4h-18q-54 1 -84 3.5t-74 6.5q-21 2 -30 3v150z" />
<glyph unicode="K" horiz-adv-x="1204" d="M193 0v1411h176v-639q296 277 571 639h203q-278 -376 -647 -735q369 -263 708 -676h-231q-131 158 -292.5 311t-311.5 262v-573h-176z" />
<glyph unicode="L" horiz-adv-x="1101" d="M184 268v1143h176v-1116q0 -139 162 -139h537v-156h-567q-162 5 -233.5 63t-74.5 205z" />
<glyph unicode="M" horiz-adv-x="1918" d="M143 0l113 1411h213q253 -482 489 -1061q240 580 492 1061h213l113 -1411h-170l-93 1178q-273 -515 -475 -1033h-157q-202 518 -475 1033l-93 -1178h-170z" />
<glyph unicode="N" horiz-adv-x="1449" d="M193 0v1411h233q201 -283 341.5 -527t313.5 -581v1108h176v-1411h-198q-130 255 -210 405.5t-210 370t-270 422.5v-1198h-176z" />
<glyph unicode="O" d="M113 700q0 154 41.5 279.5t110.5 208.5t162 139.5t191.5 81.5t202.5 25t203 -25t191.5 -81.5t162 -139.5t111 -208.5t41.5 -279.5q0 -329 -194.5 -526t-516.5 -197h4q-322 0 -516 197t-194 526zM287 700q0 -252 147 -411.5t385 -159.5q241 0 389 159.5t148 411.5 q0 146 -47.5 261t-125.5 183t-170.5 103t-191.5 35q-78 0 -153 -21t-144.5 -67.5t-122 -113t-83.5 -164.5t-31 -216z" />
<glyph unicode="P" horiz-adv-x="1236" d="M193 0v1411h583q62 0 127.5 -26t123.5 -74.5t95 -128.5t37 -176q0 -103 -28.5 -182.5t-70.5 -125t-97.5 -75t-102.5 -39t-92 -9.5h-399v-575h-176zM369 733h401q31 0 64.5 13t69 42t58.5 85.5t23 132.5q0 108 -67.5 177.5t-141.5 69.5h-407v-520z" />
<glyph unicode="Q" d="M113 700q0 154 41.5 279.5t110.5 208.5t162 139.5t191.5 81.5t202.5 25t203 -25t191.5 -81.5t162 -139.5t111 -208.5t41.5 -279.5q0 -309 -171 -501t-462 -217q30 -158 215 -158q78 0 158 10.5t119 28.5v-135q-45 -21 -121.5 -33t-149.5 -12q-359 0 -393 301 q-281 29 -446.5 221t-165.5 495zM287 700q0 -253 147.5 -415t384.5 -162q159 0 282 74.5t189 205.5t66 297q0 118 -31.5 216.5t-84 166t-122 115t-144.5 69t-153 21.5t-153 -21.5t-144.5 -69t-122 -115t-83.5 -166t-31 -216.5z" />
<glyph unicode="R" horiz-adv-x="1286" d="M193 0v1411h555q177 0 291 -105t114 -300q0 -333 -297 -408q-27 -6 -57 -6q109 -107 225.5 -275.5t196.5 -316.5h-201q-99 177 -295 446q-60 84 -92 111t-84 27h-180v-584h-176zM369 733h391q44 0 80.5 13t69 42.5t51 85t18.5 132.5q0 115 -67 181t-183 66h-360v-520z " />
<glyph unicode="S" horiz-adv-x="1179" d="M110 1014l1 28q6 183 142.5 286.5t397.5 103.5q87 0 198.5 -26.5t168.5 -51.5v-162q-117 43 -196 61.5t-175 18.5q-176 0 -264.5 -67t-91.5 -173q-1 -5 -1 -14t8.5 -34.5t25 -48t55 -48.5t92.5 -43l82 -29q55 -18 90.5 -30t84 -29.5t79.5 -32t69.5 -34t63 -39t51 -43.5 t42 -50.5t28.5 -58t17 -67.5q3 -25 3 -52v-25q-9 -107 -50.5 -182t-112.5 -117t-158 -60t-201 -18q-78 0 -167 18.5t-135.5 34t-123.5 44.5v170q243 -109 426 -109q76 0 134.5 12t105 38t72.5 72.5t30 111.5v8q0 37 -17 69q-19 35 -54 61.5t-86 50t-112 45t-132 44.5 q-18 5 -28.5 8.5t-26.5 9t-29 9.5q-92 31 -157 80t-92.5 97t-42 92t-14.5 71z" />
<glyph unicode="T" horiz-adv-x="1148" d="M43 1255v156h1063v-156h-442v-1255h-177v1255h-444z" />
<glyph unicode="U" horiz-adv-x="1474" d="M176 582v829h174v-788q0 -100 16.5 -179.5t39.5 -129.5t61 -85.5t68 -52.5t74 -26t64.5 -10t54.5 -1h9h11q37 0 59 1t66 10t73 26t66 52.5t59 85.5t37.5 129.5t15.5 179.5v788h174v-829q0 -119 -23 -215t-58.5 -158t-88 -107.5t-100.5 -68.5t-108 -36.5t-98.5 -16.5 t-84.5 -3t-84.5 3t-98.5 16.5t-108 36.5t-100.5 68.5t-88 107.5t-58.5 158t-23 215z" />
<glyph unicode="V" horiz-adv-x="1247" d="M43 1411h190l392 -1210l391 1210h188l-487 -1411h-187z" />
<glyph unicode="W" horiz-adv-x="2056" d="M51 1411h187l346 -1243q115 516 350 1087h188q237 -576 351 -1087l346 1243h186l-412 -1411h-237q-137 579 -328 1063q-191 -484 -328 -1063h-237z" />
<glyph unicode="X" horiz-adv-x="1173" d="M31 0l452 733l-417 678h206l316 -532l313 532h207l-418 -678l455 -733h-209l-348 588l-350 -588h-207z" />
<glyph unicode="Y" horiz-adv-x="1157" d="M27 1411h206l347 -631l344 631h204l-460 -801v-610h-176v608z" />
<glyph unicode="Z" horiz-adv-x="1277" d="M76 0v147l876 1108h-835v156h1071v-149l-885 -1106h877v-156h-1104z" />
<glyph unicode="[" horiz-adv-x="647" d="M162 -410v1821h409v-135h-233v-1550h233v-136h-409z" />
<glyph unicode="\" horiz-adv-x="874" d="M78 1411h147l572 -1411h-148z" />
<glyph unicode="]" horiz-adv-x="647" d="M76 -274h233v1550h-233v135h409v-1821h-409v136z" />
<glyph unicode="_" horiz-adv-x="1458" d="M180 -88h1098v-152h-1098v152z" />
<glyph unicode="`" horiz-adv-x="964" d="M264 1411h195l143 -274h-143z" />
<glyph unicode="a" horiz-adv-x="1095" d="M86 293q0 100 60.5 171.5t150 103.5t195.5 32q74 0 239 -20v47q0 120 -64 185t-169 65q-57 0 -117 -12t-96.5 -25t-77 -30t-45.5 -19v137q6 2 45 18t78 30t107 26t138 12q78 0 142.5 -21t119 -68t85 -133t30.5 -204v-402q0 -38 21 -54.5t50 -12t52 12t35 15.5v-129 q-92 -41 -152 -41q-133 0 -165 117q-32 -37 -127 -77t-183 -40q-186 0 -269 85t-83 231zM258 285q0 -76 52 -127.5t153 -51.5q63 0 150.5 36.5t117.5 72.5v244q-106 16 -180 16q-293 0 -293 -190z" />
<glyph unicode="b" horiz-adv-x="1169" d="M156 0v1454h176v-491q87 51 262 51q77 0 158.5 -32.5t153 -92.5t117.5 -159.5t46 -219.5q0 -92 -18.5 -169.5t-48.5 -131.5t-72 -96t-85.5 -67t-92 -41t-89 -22t-79.5 -6q-85 0 -151 33t-101 74l-13 -84h-163zM332 225q37 -45 97.5 -82t129.5 -37q63 0 119 21.5t103.5 66 t75.5 123.5t28 183q0 166 -101.5 271.5t-269.5 105.5q-88 0 -182 -52v-600z" />
<glyph unicode="c" horiz-adv-x="970" d="M98 492q0 121 42 222.5t111 165.5t154.5 99t176.5 35q156 0 299 -35v-135q-47 12 -130 23q-76 10 -124 10h-9q-90 0 -157 -31.5t-104.5 -86.5t-55.5 -121t-18 -144t18 -143t55.5 -119.5t104.5 -85.5t157 -31h9q49 -1 125 9q84 10 129 23v-135q-143 -35 -299 -35 q-91 0 -176.5 34.5t-154.5 98t-111 164.5t-42 222v-4z" />
<glyph unicode="d" horiz-adv-x="1222" d="M100 510q0 120 46 219.5t117.5 159.5t153 92.5t158.5 32.5q176 0 263 -51v491h176v-1268q0 -38 20.5 -54.5t50 -12t51.5 12t35 15.5v-129q-92 -41 -151 -41q-134 0 -166 117q-28 -42 -104 -79.5t-164 -37.5q-39 0 -79.5 6t-89.5 22t-92.5 41t-85.5 67t-72 96t-48.5 131.5 t-18.5 169.5zM285 500q0 -104 28 -182.5t75 -123.5t103 -66.5t119 -21.5q69 0 130 37t98 82v600q-94 52 -183 52q-168 0 -269 -105.5t-101 -271.5z" />
<glyph unicode="e" horiz-adv-x="1128" d="M100 504q0 119 39 217.5t105 161.5t150.5 97t178.5 34q219 0 343 -141t124 -388l-4 -53h-760q0 -98 52.5 -172t129.5 -109.5t163 -35.5q120 0 344 57v-135q-2 -1 -38 -10.5t-64.5 -15.5t-74 -15t-96.5 -13.5t-102 -5.5q-105 0 -192.5 31.5t-155 94t-105 165t-37.5 236.5z M276 557h592q0 137 -85.5 227t-209.5 90t-210.5 -90.5t-86.5 -226.5z" />
<glyph unicode="f" horiz-adv-x="716" d="M57 854v137h176v164q0 49 8.5 89t20.5 69t34 52t41 37.5t49.5 25t51.5 15.5t55 7.5t51.5 3t49.5 0.5h113v-137h-97q-124 0 -163 -36t-39 -138v-152h256v-137h-256v-854h-175v854h-176z" />
<glyph unicode="g" horiz-adv-x="1153" d="M102 489q0 92 17.5 169.5t46 131.5t68.5 96t81.5 67t88.5 41t86.5 22t78.5 6q85 0 151 -33t101 -74l13 84h163v-1128q0 -82 -34.5 -141.5t-97 -93.5t-139 -50t-169.5 -16q-147 0 -305 51v139q2 -1 26 -8.5t27.5 -9t25.5 -8.5t28 -8.5t25.5 -7t28 -7t25 -5t28 -4.5 t25.5 -2t27 -1q61 0 109.5 6t80 15.5t53.5 25t33.5 29.5t18 35.5t7.5 35.5t1 37v170q-34 -31 -105.5 -49t-135.5 -18q-81 0 -163.5 32.5t-153.5 92.5t-116 159t-45 219zM287 500q0 -75 23.5 -142.5t67 -120t111 -83.5t150.5 -31t182 51v610q-33 39 -100 74t-127 35 q-61 -1 -113.5 -22.5t-97 -65.5t-70.5 -122.5t-26 -182.5z" />
<glyph unicode="h" horiz-adv-x="1169" d="M156 0v991v463h163v-479l-2 -62q31 36 118.5 68.5t176.5 32.5q410 0 410 -408v-606h-184v539q0 175 -54 254t-196 79q-71 0 -139.5 -29t-116.5 -75v-768h-176z" />
<glyph unicode="i" horiz-adv-x="487" d="M135 1305q0 50 23 78t84 28t83.5 -28t22.5 -78q0 -107 -106 -107q-107 0 -107 107zM156 0v991h176v-991h-176z" />
<glyph unicode="j" horiz-adv-x="485" d="M-92 -289h24q46 0 82.5 6t59.5 14t39.5 23.5t24.5 27.5t12.5 33.5t5 34.5t0.5 37v1104h174v-1116q0 -164 -88 -232.5t-273 -68.5h-61v137zM135 1305q0 50 23 78t84 28t83.5 -28t22.5 -78q0 -107 -106 -107q-107 0 -107 107z" />
<glyph unicode="k" horiz-adv-x="976" d="M156 0v1454h176v-799l319 336h217l-411 -428q135 -102 282.5 -265t231.5 -298h-203q-175 274 -436 453v-453h-176z" />
<glyph unicode="l" horiz-adv-x="581" d="M154 276v1178h174v-1165q0 -32 2 -49.5t12.5 -41t31 -35.5t60.5 -21t98 -9h25v-141h-61q-185 0 -263.5 60t-78.5 224z" />
<glyph unicode="m" horiz-adv-x="1841" d="M156 0v991h163l13 -78q32 37 109 69t165 32q128 0 212 -30.5t134 -117.5q60 72 151 110t183 38q49 0 89 -4t83.5 -16.5t77 -33t64.5 -56t51.5 -83t32.5 -116.5t12 -154v-551h-185v539q0 196 -51.5 271t-197.5 75q-71 0 -145.5 -44t-106.5 -100v-741h-179v539 q0 196 -51.5 271t-197.5 75q-69 0 -141.5 -38.5t-108.5 -84.5v-762h-176z" />
<glyph unicode="n" horiz-adv-x="1167" d="M156 0v991h163l13 -78q32 37 112 69t168 32q69 0 121.5 -8.5t109.5 -37.5t94 -77.5t61 -135t24 -204.5v-551h-184v539q0 196 -52 271t-198 75q-69 0 -145 -39t-111 -84v-762h-176z" />
<glyph unicode="o" horiz-adv-x="1222" d="M100 492q0 110 30 200t79.5 149.5t115.5 100.5q67 40 137 57q63 15 128 15h16h10q62 0 120.5 -11t116.5 -34.5t105.5 -64t85 -96t58 -135t20.5 -175.5q0 -117 -30 -209t-78.5 -150.5t-115.5 -96.5t-136 -52q-61 -13 -126 -13h-18h-12h-12q-87 1 -168 27 q-87 28 -161.5 87.5t-119.5 163t-45 237.5zM276 500q0 -181 88.5 -284t247.5 -103t246.5 100.5t87.5 286.5q0 180 -88 279.5t-246 99.5t-247 -102.5t-89 -276.5z" />
<glyph unicode="p" horiz-adv-x="1169" d="M156 -410v1401h163l13 -84q35 41 101 74t151 33q39 0 79.5 -6t89 -22t92 -41t85.5 -67t72 -96t48.5 -131.5t18.5 -169.5q0 -120 -46 -219.5t-117.5 -159.5t-153 -92.5t-158.5 -32.5q-173 0 -262 52v-439h-176zM332 166q92 -51 182 -51q168 0 269.5 105.5t101.5 271.5 q0 104 -28 182.5t-75.5 123t-103.5 66t-119 21.5q-69 0 -129.5 -37t-97.5 -82v-600z" />
<glyph unicode="q" horiz-adv-x="1167" d="M100 481q0 92 18.5 169.5t48.5 131.5t72 96t85.5 67t92.5 41t89.5 22t79.5 6q85 0 151 -33t101 -74l12 84h164v-1401h-176v439q-89 -52 -263 -52q-77 0 -158.5 32.5t-153 92.5t-117.5 159.5t-46 219.5zM285 492q0 -166 101 -271.5t269 -105.5q91 0 183 51v600 q-37 45 -98 82t-130 37q-63 0 -119 -21.5t-103 -66t-75 -123t-28 -182.5z" />
<glyph unicode="r" horiz-adv-x="757" d="M156 0v991h163l13 -92q66 49 148 81t145 32q40 0 73 -4v-160q-33 4 -73 4q-67 0 -149.5 -24t-143.5 -66v-762h-176z" />
<glyph unicode="s" horiz-adv-x="935" d="M104 716v19q4 135 110 211q94 68 273 69q21 0 43 -1q59 -3 141 -20t122 -29v-146q-56 25 -133 41t-138 19q-14 1 -28 1q-97 0 -150 -38q-61 -44 -63 -105q-1 -3 -1 -9t3 -22t11.5 -30t28.5 -29t50 -24q31 -10 79.5 -25.5t76.5 -24.5t68.5 -24t64 -26t54 -27.5t47.5 -33 t36 -38.5t27 -47t14 -56q4 -23 4 -48v-19q-5 -69 -30.5 -119.5t-62.5 -80.5t-92.5 -47.5t-111.5 -23.5t-129 -6q-149 0 -305 72v144q154 -70 311 -70q117 0 179 28.5t69 108.5v6q0 67 -92 114q-48 25 -217 80q-23 7 -41 13q-65 21 -111.5 56t-66.5 69.5t-30 66t-10 51.5z " />
<glyph unicode="t" horiz-adv-x="694" d="M51 854v137h172v244l174 51v-295h230v-137h-230v-567q0 -32 2 -49.5t12.5 -41t31.5 -35.5t61 -21t98 -9h27v-141h-64q-185 0 -263.5 60t-78.5 224v580h-172z" />
<glyph unicode="u" horiz-adv-x="1220" d="M145 440v551h185v-538q0 -196 52 -271.5t198 -75.5q69 0 145 39t111 84v762h176v-805q0 -38 20.5 -54.5t50 -12t51.5 12t35 15.5v-129q-92 -41 -151 -41q-134 0 -166 117q-37 -45 -122 -81t-175 -36q-54 0 -96 4t-86.5 16.5t-77 33.5t-62 56t-48 83t-29.5 116t-11 154z " />
<glyph unicode="v" horiz-adv-x="1038" d="M37 991h188l295 -807l293 807h188l-387 -991h-188z" />
<glyph unicode="w" horiz-adv-x="1646" d="M45 991h195l247 -817l236 772h201l235 -772l248 817h195l-328 -991h-217l-234 729l-233 -729h-217z" />
<glyph unicode="x" horiz-adv-x="1015" d="M43 0l356 500l-350 491h203l256 -379l256 379h201l-349 -491l355 -500h-203l-260 383l-262 -383h-203z" />
<glyph unicode="y" horiz-adv-x="1052" d="M35 991h196l295 -790l293 790h197l-395 -991l-82 -238q-22 -63 -50 -102t-68 -59t-85 -27q-34 -4 -82 -4h-31h-84v135l82 2q32 2 47 4t36.5 9t33.5 19t25.5 33.5t23.5 53.5l55 170z" />
<glyph unicode="z" horiz-adv-x="1069" d="M78 0v127l653 725h-614v139h858v-125l-658 -721h658v-145h-897z" />
<glyph unicode="{" horiz-adv-x="692" d="M78 442v119q59 9 99 39t40 84v369q0 358 342 358h62v-129h-25q-42 0 -74.5 -8.5t-54 -21.5t-36.5 -34t-22.5 -39t-12 -44.5t-5 -42t-0.5 -39.5v-291q0 -53 -9 -94t-20 -65.5t-34 -45.5t-38.5 -30.5t-45.5 -24.5q30 -15 45.5 -24.5t38.5 -30.5t34 -45.5t20 -65.5t9 -94 v-291q0 -24 0.5 -40t5 -42t12 -44t22.5 -39.5t36 -34t54 -21.5t75 -9h25v-129h-62q-342 0 -342 359v368q0 48 -41.5 81.5t-97.5 41.5z" />
<glyph unicode="|" horiz-adv-x="446" d="M160 -233v1871h127v-1871h-127z" />
<glyph unicode="}" horiz-adv-x="692" d="M72 -279h24q42 0 75 9t54 21.5t36 34t22.5 39.5t12 44t5 42t0.5 40v291q0 53 9 94t20.5 65.5t34.5 45.5t38.5 30t45.5 25q-30 16 -45.5 25t-38.5 30t-34.5 45.5t-20.5 65.5t-9 94v291q0 24 -0.5 39.5t-5 42t-12 44.5t-22.5 39t-36.5 34t-54 21.5t-74.5 8.5h-24v129h61 q342 0 342 -358v-369q0 -54 40 -84t99 -39v-119q-56 -8 -97.5 -41.5t-41.5 -81.5v-368q0 -359 -342 -359h-61v129z" />
<glyph unicode="&#xa1;" horiz-adv-x="462" d="M123 907q0 51 22.5 79t83.5 28t84 -28.5t23 -78.5q0 -106 -107 -106q-106 0 -106 106zM143 -410l17 1092h143l16 -1092h-176z" />
<glyph unicode="&#xa2;" horiz-adv-x="1011" d="M104 492q0 109 34 202t92 157t131.5 104t154.5 53v233h127v-229q121 -4 244 -33v-135q-47 12 -129.5 23t-132.5 10q-73 0 -131 -21t-95.5 -57t-63 -85.5t-36 -104t-10.5 -115.5q0 -77 18 -142.5t56 -120t105 -85.5t157 -31q50 -1 133 9.5t129 22.5v-135 q-118 -27 -244 -32v-213h-127v217q-81 12 -154 51t-131 101.5t-92 154.5t-35 201z" />
<glyph unicode="&#xa3;" horiz-adv-x="1177" d="M109 0v152h186v522h-174v119h174v176q0 209 140.5 336t400.5 127q93 0 174 -17v-153q-53 10 -179 10q-177 0 -266.5 -88t-89.5 -226v-165h252v-119h-252v-522h606v-152h-972z" />
<glyph unicode="&#xa4;" horiz-adv-x="1261" d="M139 260l146 146q-54 93 -54 223q0 139 58 231l-150 150l107 106l145 -147q102 68 232 65h16q129 3 231 -65l146 147l106 -106l-149 -150q57 -91 57 -231q0 -131 -53 -223l145 -146l-106 -106l-144 141q-105 -70 -233 -64h-16q-139 0 -234 64l-143 -141zM395 629 q0 -118 67.5 -177.5t155.5 -56.5h25q41 0 79 13t71 39.5t53 73.5t20 108q0 62 -20 110.5t-53 76.5t-72 41.5t-80 12.5h-20q-41 1 -80 -12.5t-72.5 -41.5t-53.5 -76.5t-20 -110.5z" />
<glyph unicode="&#xa5;" horiz-adv-x="1253" d="M74 1411h207l346 -631l344 631h205l-461 -801v-65h268v-119h-268v-98h268v-119h-268v-209h-176v209h-260v119h260v98h-260v119h260v63z" />
<glyph unicode="&#xa6;" horiz-adv-x="481" />
<glyph unicode="&#xa7;" horiz-adv-x="1026" d="M115 635l2 27q12 118 65 202q-22 48 -30.5 99.5t-6.5 78.5l2 27q15 183 135.5 277t340.5 79q81 -4 153 -21.5t113 -41.5l-15 -129q-89 25 -143 34.5t-121 14.5q-71 5 -128 -12t-92.5 -51t-55.5 -77.5t-25 -94.5q2 -2 -0.5 -14t4.5 -36t17.5 -48.5t39 -52.5t68.5 -48 l64 -33q91 -42 144 -70t115.5 -73.5t93 -90t48 -109.5t8.5 -144q-18 -118 -61 -191q43 -90 31 -219q-14 -106 -53.5 -177.5t-102 -109t-137 -50.5t-170.5 -7q-110 8 -161 18t-138 43l12 156q155 -67 297 -67q139 0 211.5 48.5t79.5 174.5q2 42 -13 78.5t-38.5 63.5t-69 57 t-83 50t-101.5 50q-40 16 -68 30q-74 37 -125 90t-71 103t-28.5 94.5t-6.5 71.5zM281 627q-1 -9 3 -35t15 -49.5t40 -52t73 -48.5q217 -104 311 -174q16 37 22 82q5 42 -9.5 79t-38.5 64.5t-69 57.5t-84 50.5t-102 49.5q-9 5 -61.5 32.5t-77.5 45.5q-7 -20 -20 -88 q-1 -5 -2 -14z" />
<glyph unicode="&#xa8;" horiz-adv-x="1011" d="M246 1305q0 50 22.5 78t83.5 28t84 -28t23 -78q0 -107 -107 -107q-106 0 -106 107zM553 1305q0 50 22.5 78t83.5 28t84 -28t23 -78q0 -107 -107 -107q-106 0 -106 107z" />
<glyph unicode="&#xa9;" horiz-adv-x="1648" d="M117 700q0 154 41.5 279.5t110.5 208.5t162 139.5t191.5 81.5t202.5 25t203 -25t191.5 -81.5t162 -139.5t111 -208.5t41.5 -279.5q0 -329 -194.5 -526t-516.5 -197h4q-322 0 -516 197t-194 526zM238 700q0 -271 161.5 -434.5t427.5 -163.5h-4q266 0 428 163.5t162 434.5 q0 128 -34.5 232t-91.5 173t-134 116t-159 67.5t-169 20.5t-169 -20.5t-159 -67.5t-133.5 -116t-91 -173t-34.5 -232zM487 690q0 -87 30 -158.5t79.5 -116t110 -68t124.5 -23.5q111 0 224 22v100q-111 -14 -197 -14q-100 0 -173 71.5t-73 186.5q0 117 70 188.5t176 71.5 q89 0 197 -16v100q-103 25 -224 25q-64 0 -125 -24.5t-110 -70t-79 -117t-30 -157.5z" />
<glyph unicode="&#xaa;" horiz-adv-x="815" d="M137 578v106h529v-106h-529zM137 979q0 95 78 147t184 52q44 0 138 -23v29q0 70 -37.5 107.5t-96.5 37.5q-74 0 -184 -45l-35 -12v102l39 21q1 0 11 4t14 5.5t15.5 5.5t19.5 6t21 5.5t25 5t27 3.5t31.5 3t34.5 1q50 0 92 -14t77 -44t55 -85.5t20 -131.5v-371h-121l-6 68 q-23 -28 -74 -55t-98 -27q-230 0 -230 205zM264 973q0 -42 29.5 -71.5t87.5 -29.5q36 0 85.5 21t70.5 43v137q-78 8 -103 8q-170 0 -170 -108z" />
<glyph unicode="&#xab;" horiz-adv-x="1030" d="M86 506l283 424h196l-282 -424l282 -424h-196zM459 506l282 424h197l-283 -424l283 -424h-197z" />
<glyph unicode="&#xac;" horiz-adv-x="1288" d="M137 631v164h991v-568h-163v404h-828z" />
<glyph unicode="&#xad;" horiz-adv-x="933" d="M137 455v155h660v-155h-660z" />
<glyph unicode="&#xae;" horiz-adv-x="1648" d="M117 700q0 154 41.5 279.5t110.5 208.5t162 139.5t191.5 81.5t202.5 25t203 -25t191.5 -81.5t162 -139.5t111 -208.5t41.5 -279.5q0 -329 -194.5 -526t-516.5 -197h4q-322 0 -516 197t-194 526zM238 700q0 -271 161.5 -434.5t427.5 -163.5h-4q266 0 428 163.5t162 434.5 q0 128 -34.5 232t-91.5 173t-134 116t-159 67.5t-169 20.5t-169 -20.5t-159 -67.5t-133.5 -116t-91 -173t-34.5 -232zM582 340v715h290q92 0 152.5 -55.5t60.5 -157.5q0 -95 -41.5 -146.5t-105.5 -66.5q90 -106 190 -289h-129q-39 76 -145 219q-36 49 -46 56q-10 6 -22 6 h-79v-281h-125zM707 721h170q36 0 61 29t25 92q0 47 -28 77.5t-73 30.5h-155v-229z" />
<glyph unicode="&#xaf;" horiz-adv-x="946" d="M246 1217v149h454v-149h-454z" />
<glyph unicode="&#xb0;" horiz-adv-x="772" d="M102 1157q0 76 22.5 131t63 86t89 45.5t106.5 14.5q60 0 109.5 -14.5t90.5 -45.5t64 -86t23 -131q0 -143 -81 -209.5t-206 -66.5q-121 0 -201 66.5t-80 209.5zM229 1157q0 -79 44 -115t110 -36q69 0 113.5 36t44.5 115q0 80 -44 116t-114 36q-67 0 -110.5 -36t-43.5 -116 z" />
<glyph unicode="&#xb1;" horiz-adv-x="1191" d="M141 0v158h910v-158h-910zM141 705v163h373v373h164v-373h373v-163h-373v-373h-164v373h-373z" />
<glyph unicode="&#xb2;" horiz-adv-x="718" d="M76 918v94l278 276q146 135 146 225q-2 54 -44.5 85.5t-119.5 31.5q-100 0 -227 -71v112q109 66 225 66q138 0 213.5 -58.5t75.5 -154.5q0 -134 -109 -234l-270 -266h381v-106h-549z" />
<glyph unicode="&#xb3;" horiz-adv-x="724" d="M88 950v107q115 -43 246 -43q76 0 117 36.5t43 90.5q-1 1 0.5 11t-2.5 27.5t-11 34.5t-26.5 32t-46.5 20h-218v108h216q41 12 63 44t23 58l2 25q-2 55 -43.5 92t-116.5 37q-103 0 -225 -43v105q33 14 102 29.5t121 15.5q138 0 212 -61.5t77 -168.5q0 -7 -0.5 -17 t-6 -35.5t-15.5 -47.5t-30.5 -46.5t-48.5 -39.5q45 -25 70 -73.5t28 -72.5t3 -40q-3 -107 -77 -168.5t-212 -61.5q-53 0 -133 16t-111 29z" />
<glyph unicode="&#xb4;" horiz-adv-x="964" d="M264 1137l144 274h194l-194 -274h-144z" />
<glyph unicode="&#xb6;" horiz-adv-x="905" d="M86 1133q0 115 81.5 196.5t197.5 81.5h340v-1663h-113v1555h-115v-1555h-112v1106q-116 0 -197.5 81t-81.5 198z" />
<glyph unicode="&#xb7;" horiz-adv-x="499" d="M133 524q0 56 25 86.5t92 30.5t92 -30.5t25 -86.5q0 -55 -26 -85.5t-91 -30.5t-91 30.5t-26 85.5z" />
<glyph unicode="&#xb8;" horiz-adv-x="1040" d="M328 -262l84 -25q69 -17 109 5t46 68.5t-14 109t-64 124.5h115q29 -34 59 -86t39 -86q31 -112 -29.5 -190.5t-187.5 -65.5q-69 7 -157 48v98z" />
<glyph unicode="&#xb9;" horiz-adv-x="573" d="M90 918v106h154v573l-152 -63v108l176 84h103v-702h153v-106h-434z" />
<glyph unicode="&#xba;" horiz-adv-x="901" d="M123 1102q0 70 19.5 127.5t51.5 95.5t75.5 63.5t89.5 36t94 9.5q61 0 115 -16.5t102.5 -52.5t77 -102.5t28.5 -156.5q0 -92 -28.5 -160t-76.5 -104.5t-102 -53t-114 -14.5h-9q-46 -1 -91 9.5t-87.5 35.5t-74 62.5t-51 94.5t-19.5 126zM168 578v106h567v-106h-567z M252 1106q0 -107 52.5 -168t146.5 -61t145 58.5t51 170.5q0 106 -51.5 165.5t-144.5 59.5q-94 0 -146.5 -60.5t-52.5 -164.5z" />
<glyph unicode="&#xbb;" horiz-adv-x="1030" d="M92 82l283 424l-283 424h197l282 -424l-282 -424h-197zM465 82l283 424l-283 424h197l282 -424l-282 -424h-197z" />
<glyph unicode="&#xbc;" horiz-adv-x="1671" d="M117 604v107h153v573l-151 -63v108l176 84h102v-702h154v-107h-434zM487 0l572 1411h106l-571 -1411h-107zM954 190h392v-190h127v190h108v105h-108v514h-127l-392 -537v-82zM1085 295l261 356v-356h-261z" />
<glyph unicode="&#xbd;" horiz-adv-x="1714" d="M109 604v107h153v573l-151 -63v108l176 84h102v-702h154v-107h-434zM479 0l572 1411h106l-571 -1411h-107zM1065 0v94l278 277q146 135 146 225q-2 54 -44.5 85.5t-119.5 31.5q-98 0 -227 -72v113q108 65 225 65q138 0 213.5 -58.5t75.5 -154.5q0 -133 -109 -233 l-270 -267h381v-106h-549z" />
<glyph unicode="&#xbe;" horiz-adv-x="1736" d="M113 637v106q115 -43 245 -43q76 0 117 36.5t43 90.5q-1 1 0.5 11t-2.5 27.5t-11 34.5t-26.5 32t-46.5 20h-217v109h215q26 8 44.5 23.5t26.5 33t12.5 33.5t4.5 27v10q-2 55 -43.5 92t-116.5 37q-103 0 -225 -43v104q33 14 102 29.5t121 15.5q138 0 212 -61t77 -168 q0 -7 -0.5 -17t-6 -35.5t-15 -47.5t-30 -46.5t-48.5 -39.5q28 -16 48.5 -41t30 -47t15 -47.5t6 -35t0.5 -16.5q-3 -107 -77 -168t-212 -61q-53 0 -132.5 16t-110.5 29zM553 0l571 1411h107l-572 -1411h-106zM1020 190h391v-190h127v190h109v105h-109v514h-127l-391 -537v-82 zM1151 295l260 356v-356h-260z" />
<glyph unicode="&#xbf;" horiz-adv-x="983" d="M84 -39q-7 244 197 368q34 20 71 36q113 48 175.5 125t56.5 180v14h170v-4q9 -166 -79.5 -285t-252.5 -190q-46 -20 -79.5 -49.5t-49.5 -56t-25 -56.5t-10 -46.5t0 -31.5q0 -112 85.5 -172.5t240.5 -60.5q4 0 25.5 1.5t36 3t43.5 7t55 13.5t62.5 23.5t74.5 35.5l12 -148 q-126 -84 -297 -96q-222 -18 -367 96t-145 285v8zM559 909q0 50 23 78.5t84 28.5t83.5 -28t22.5 -79q0 -106 -106 -106q-107 0 -107 106z" />
<glyph unicode="&#xc0;" horiz-adv-x="1312" d="M49 0h178q35 121 127 428h604l127 -428h179q-124 425 -233 737.5t-275 673.5h-199q-166 -361 -275 -673.5t-233 -737.5zM383 1833h195l143 -274h-143zM401 571q125 381 256 674q143 -326 254 -674h-510z" />
<glyph unicode="&#xc1;" horiz-adv-x="1312" d="M49 0q124 425 233 737.5t275 673.5h199q166 -361 275 -673.5t233 -737.5h-179l-127 428h-604q-92 -307 -127 -428h-178zM401 571h510q-111 348 -254 674q-131 -293 -256 -674zM588 1559l143 274h195l-195 -274h-143z" />
<glyph unicode="&#xc2;" horiz-adv-x="1312" d="M49 0q124 425 233 737.5t275 673.5h199q166 -361 275 -673.5t233 -737.5h-179l-127 428h-604q-92 -307 -127 -428h-178zM373 1559l182 274h201l182 -274h-143l-140 170l-139 -170h-143zM401 571h510q-111 348 -254 674q-131 -293 -256 -674z" />
<glyph unicode="&#xc3;" horiz-adv-x="1312" d="M49 0h178q35 121 127 428h604l127 -428h179q-124 425 -233 737.5t-275 673.5h-199q-166 -361 -275 -673.5t-233 -737.5zM362 1620q3 36 9 64t18.5 57t31 47.5t49.5 30.5t71 12q31 0 71 -16t72.5 -32t65 -24.5t60 8t46.5 64.5h94q-15 -211 -186 -211q-27 0 -57.5 11.5 t-60 27.5t-40.5 20q-65 24 -94.5 12t-54.5 -71h-95zM401 571q125 381 256 674q143 -326 254 -674h-510z" />
<glyph unicode="&#xc4;" horiz-adv-x="1312" d="M49 0h178q35 121 127 428h604l127 -428h179q-124 425 -233 737.5t-275 673.5h-199q-166 -361 -275 -673.5t-233 -737.5zM395 1726q0 50 23 78.5t84 28.5t83.5 -28t22.5 -79q0 -106 -106 -106q-107 0 -107 106zM401 571q125 381 256 674q143 -326 254 -674h-510zM702 1726 q0 50 23 78.5t84 28.5t83.5 -28t22.5 -79q0 -106 -106 -106q-107 0 -107 106z" />
<glyph unicode="&#xc5;" horiz-adv-x="1312" d="M49 0q124 425 233 737.5t275 673.5h199q166 -361 275 -673.5t233 -737.5h-179l-127 428h-604q-92 -307 -127 -428h-178zM401 571h510q-111 348 -254 674q-131 -293 -256 -674zM463 1735q0 100 53.5 144t138.5 44q86 0 139.5 -44t53.5 -144q0 -97 -55 -143t-138 -46 t-137.5 46t-54.5 143zM563 1735q0 -46 26.5 -68t65.5 -22t66 22t27 68q0 47 -26.5 68.5t-66.5 21.5t-66 -21.5t-26 -68.5z" />
<glyph unicode="&#xc6;" horiz-adv-x="1824" d="M49 0q124 425 233 737.5t275 673.5h293h858v-156h-682v-448h635v-156h-635v-356q0 -139 162 -139h520v-156h-551q-162 5 -233 63t-74 205v160h-496q-92 -307 -127 -428h-178zM401 571h449v684h-191q-126 -282 -258 -684z" />
<glyph unicode="&#xc7;" horiz-adv-x="1306" d="M111 702q0 137 38.5 256t105 205t153.5 148t185 92.5t200 30.5q133 0 246.5 -13.5t174.5 -31.5v-150q-114 18 -183 26t-100 9.5t-87 1.5q-118 0 -219.5 -40t-176 -113t-117 -181.5t-42.5 -239.5t46 -240t123.5 -179.5t177 -109t208.5 -38.5q79 0 140 5.5t230 31.5v-152 q-137 -37 -385 -43q51 -75 66 -129q31 -112 -29.5 -190.5t-187.5 -65.5q-70 7 -158 48v98l84 -25q85 -21 125 16t32 106.5t-54 148.5q-93 11 -179.5 46.5t-162.5 97.5t-132.5 144t-89 192.5t-32.5 237.5z" />
<glyph unicode="&#xc8;" horiz-adv-x="1159" d="M184 268v1143h858v-156h-682v-448h635v-156h-635v-356q0 -139 162 -139h520v-156h-550q-162 5 -233.5 63t-74.5 205zM403 1833h195l143 -274h-143z" />
<glyph unicode="&#xc9;" horiz-adv-x="1159" d="M184 268v1143h858v-156h-682v-448h635v-156h-635v-356q0 -139 162 -139h520v-156h-550q-162 5 -233.5 63t-74.5 205zM477 1559l144 274h194l-194 -274h-144z" />
<glyph unicode="&#xca;" horiz-adv-x="1159" d="M184 268v1143h858v-156h-682v-448h635v-156h-635v-356q0 -139 162 -139h520v-156h-550q-162 5 -233.5 63t-74.5 205zM289 1559l182 274h201l182 -274h-143l-140 170l-139 -170h-143z" />
<glyph unicode="&#xcb;" horiz-adv-x="1159" d="M184 268v1143h858v-156h-682v-448h635v-156h-635v-356q0 -139 162 -139h520v-156h-550q-162 5 -233.5 63t-74.5 205zM311 1726q0 50 23 78.5t84 28.5t83.5 -28t22.5 -79q0 -106 -106 -106q-107 0 -107 106zM618 1726q0 50 23 78.5t84 28.5t83.5 -28t22.5 -79 q0 -106 -106 -106q-107 0 -107 106z" />
<glyph unicode="&#xcc;" horiz-adv-x="561" d="M31 1833h194l144 -274h-144zM193 0v1411h176v-1411h-176z" />
<glyph unicode="&#xcd;" horiz-adv-x="561" d="M193 0v1411h176v-1411h-176zM193 1559l143 274h194l-194 -274h-143z" />
<glyph unicode="&#xce;" horiz-adv-x="561" d="M-2 1559l182 274h201l182 -274h-143l-139 170l-140 -170h-143zM193 0v1411h176v-1411h-176z" />
<glyph unicode="&#xcf;" horiz-adv-x="561" d="M20 1726q0 50 23 78.5t84 28.5t83.5 -28t22.5 -79q0 -106 -106 -106q-107 0 -107 106zM193 0v1411h176v-1411h-176zM328 1726q0 51 22.5 79t83.5 28t84 -28.5t23 -78.5q0 -106 -107 -106q-106 0 -106 106z" />
<glyph unicode="&#xd0;" horiz-adv-x="1447" d="M51 625v155h168v631h467q102 0 196.5 -28t176.5 -86.5t143 -141.5t96 -199.5t35 -253.5q0 -172 -53.5 -309t-144.5 -221t-205.5 -128t-243.5 -44h-467v625h-168zM395 156h203q269 0 409 138.5t140 407.5q0 553 -549 553h-203v-475h293v-155h-293v-469z" />
<glyph unicode="&#xd1;" horiz-adv-x="1449" d="M193 0h176v1198q140 -203 270 -422.5t210 -370t210 -405.5h198v1411h-176v-1108q-173 337 -313.5 581t-341.5 527h-233v-1411zM430 1622q4 46 13 79.5t27.5 66t53 49t84.5 16.5q31 0 71.5 -16t72.5 -32t65 -24.5t60.5 8t46.5 64.5h94q-15 -211 -187 -211 q-27 0 -57.5 11.5t-59.5 27.5t-40 20q-65 24 -95 12t-55 -71h-94z" />
<glyph unicode="&#xd2;" d="M113 700q0 154 41.5 279.5t110.5 208.5t162 139.5t191.5 81.5t202.5 25t203 -25t191.5 -81.5t162 -139.5t111 -208.5t41.5 -279.5q0 -329 -194.5 -526t-516.5 -197h4q-322 0 -516 197t-194 526zM287 700q0 -252 147 -411.5t385 -159.5q241 0 389 159.5t148 411.5 q0 146 -47.5 261t-125.5 183t-170.5 103t-191.5 35q-78 0 -153 -21t-144.5 -67.5t-122 -113t-83.5 -164.5t-31 -216zM573 1833h195l143 -274h-143z" />
<glyph unicode="&#xd3;" d="M113 700q0 154 41.5 279.5t110.5 208.5t162 139.5t191.5 81.5t202.5 25t203 -25t191.5 -81.5t162 -139.5t111 -208.5t41.5 -279.5q0 -329 -194.5 -526t-516.5 -197h4q-322 0 -516 197t-194 526zM287 700q0 -252 147 -411.5t385 -159.5q241 0 389 159.5t148 411.5 q0 146 -47.5 261t-125.5 183t-170.5 103t-191.5 35q-78 0 -153 -21t-144.5 -67.5t-122 -113t-83.5 -164.5t-31 -216zM719 1559l143 274h195l-195 -274h-143z" />
<glyph unicode="&#xd4;" d="M113 700q0 154 41.5 279.5t110.5 208.5t162 139.5t191.5 81.5t202.5 25t203 -25t191.5 -81.5t162 -139.5t111 -208.5t41.5 -279.5q0 -329 -194.5 -526t-516.5 -197h4q-322 0 -516 197t-194 526zM287 700q0 -252 147 -411.5t385 -159.5q241 0 389 159.5t148 411.5 q0 146 -47.5 261t-125.5 183t-170.5 103t-191.5 35q-78 0 -153 -21t-144.5 -67.5t-122 -113t-83.5 -164.5t-31 -216zM539 1559l182 274h201l182 -274h-143l-140 170l-139 -170h-143z" />
<glyph unicode="&#xd5;" d="M113 700q0 154 41.5 279.5t110.5 208.5t162 139.5t191.5 81.5t202.5 25t203 -25t191.5 -81.5t162 -139.5t111 -208.5t41.5 -279.5q0 -329 -194.5 -526t-516.5 -197h4q-322 0 -516 197t-194 526zM287 700q0 -252 147 -411.5t385 -159.5q241 0 389 159.5t148 411.5 q0 146 -47.5 261t-125.5 183t-170.5 103t-191.5 35q-78 0 -153 -21t-144.5 -67.5t-122 -113t-83.5 -164.5t-31 -216zM526 1622q3 36 9 64t18.5 57t31 47.5t49.5 30.5t71 12q31 0 71 -16t72.5 -32t65 -24.5t60 8t46.5 64.5h94q-15 -211 -186 -211q-27 0 -57.5 11.5t-60 27.5 t-40.5 20q-65 24 -94.5 12t-54.5 -71h-95z" />
<glyph unicode="&#xd6;" d="M113 700q0 154 41.5 279.5t110.5 208.5t162 139.5t191.5 81.5t202.5 25t203 -25t191.5 -81.5t162 -139.5t111 -208.5t41.5 -279.5q0 -329 -194.5 -526t-516.5 -197h4q-322 0 -516 197t-194 526zM287 700q0 -252 147 -411.5t385 -159.5q241 0 389 159.5t148 411.5 q0 146 -47.5 261t-125.5 183t-170.5 103t-191.5 35q-78 0 -153 -21t-144.5 -67.5t-122 -113t-83.5 -164.5t-31 -216zM561 1726q0 50 23 78.5t84 28.5t83.5 -28t22.5 -79q0 -106 -106 -106q-107 0 -107 106zM868 1726q0 50 23 78.5t84 28.5t83.5 -28t22.5 -79 q0 -106 -106 -106q-107 0 -107 106z" />
<glyph unicode="&#xd7;" horiz-adv-x="1044" d="M125 285l281 280l-281 281l117 117l280 -281l281 281l117 -117l-281 -281l281 -280l-117 -117l-281 281l-280 -281z" />
<glyph unicode="&#xd8;" d="M113 700q0 154 41.5 279.5t110.5 208.5t162 139.5t191.5 81.5t202.5 25q246 0 428 -129l172 192l95 -86l-166 -192q180 -193 180 -519q0 -329 -194 -525t-515 -198q-254 0 -432 127l-164 -186l-100 82l166 190q-178 193 -178 510zM287 700q0 -226 116 -376l738 854 q-139 104 -320 104q-78 0 -153 -21t-144.5 -67.5t-122 -113t-83.5 -164.5t-31 -216zM498 231q133 -102 321 -102q241 0 389 159.5t148 411.5q0 235 -121 385z" />
<glyph unicode="&#xd9;" horiz-adv-x="1474" d="M176 582q0 -119 23 -215t58.5 -158t88 -107.5t100.5 -68.5t108 -36.5t98.5 -16.5t84.5 -3t84.5 3t98.5 16.5t108 36.5t100.5 68.5t88 107.5t58.5 158t23 215v829h-174v-788q0 -100 -15.5 -179.5t-37.5 -129.5t-59 -85.5t-66 -52.5t-73 -26t-66 -10t-59 -1h-11h-9 q-25 0 -40.5 0.5t-48.5 4.5t-55.5 12t-55 24.5t-55.5 40t-47.5 61t-40 84.5t-25.5 112.5t-10 144.5v788h-174v-829zM498 1833h194l144 -274h-144z" />
<glyph unicode="&#xda;" horiz-adv-x="1474" d="M176 582v829h174v-788q0 -100 16.5 -179.5t39.5 -129.5t61 -85.5t68 -52.5t74 -26t64.5 -10t54.5 -1h9h11q37 0 59 1t66 10t73 26t66 52.5t59 85.5t37.5 129.5t15.5 179.5v788h174v-829q0 -119 -23 -215t-58.5 -158t-88 -107.5t-100.5 -68.5t-108 -36.5t-98.5 -16.5 t-84.5 -3t-84.5 3t-98.5 16.5t-108 36.5t-100.5 68.5t-88 107.5t-58.5 158t-23 215zM631 1559l143 274h195l-195 -274h-143z" />
<glyph unicode="&#xdb;" horiz-adv-x="1474" d="M176 582v829h174v-788q0 -100 16.5 -179.5t39.5 -129.5t61 -85.5t68 -52.5t74 -26t64.5 -10t54.5 -1h9h11q37 0 59 1t66 10t73 26t66 52.5t59 85.5t37.5 129.5t15.5 179.5v788h174v-829q0 -119 -23 -215t-58.5 -158t-88 -107.5t-100.5 -68.5t-108 -36.5t-98.5 -16.5 t-84.5 -3t-84.5 3t-98.5 16.5t-108 36.5t-100.5 68.5t-88 107.5t-58.5 158t-23 215zM455 1559l182 274h201l182 -274h-143l-140 170l-139 -170h-143z" />
<glyph unicode="&#xdc;" horiz-adv-x="1474" d="M176 582q0 -119 23 -215t58.5 -158t88 -107.5t100.5 -68.5t108 -36.5t98.5 -16.5t84.5 -3t84.5 3t98.5 16.5t108 36.5t100.5 68.5t88 107.5t58.5 158t23 215v829h-174v-788q0 -100 -15.5 -179.5t-37.5 -129.5t-59 -85.5t-66 -52.5t-73 -26t-66 -10t-59 -1h-11h-9 q-25 0 -40.5 0.5t-48.5 4.5t-55.5 12t-55 24.5t-55.5 40t-47.5 61t-40 84.5t-25.5 112.5t-10 144.5v788h-174v-829zM477 1726q0 50 23 78.5t84 28.5t83.5 -28t22.5 -79q0 -106 -106 -106q-107 0 -107 106zM784 1726q0 50 23 78.5t84 28.5t83.5 -28t22.5 -79 q0 -106 -106 -106q-107 0 -107 106z" />
<glyph unicode="&#xdd;" horiz-adv-x="1157" d="M27 1411h206l347 -631l344 631h204l-460 -801v-610h-176v608zM481 1559l144 274h194l-194 -274h-144z" />
<glyph unicode="&#xde;" horiz-adv-x="1171" d="M193 0v1411h176v-278h336q77 0 146 -27.5t123.5 -79.5t87 -135t32.5 -186t-32 -185.5t-87 -133t-124 -77t-146 -26.5h-336v-283h-176zM369 434h290q133 0 200 69t67 202q0 276 -267 276h-290v-547z" />
<glyph unicode="&#xdf;" horiz-adv-x="1187" d="M158 0v866q0 130 22 225t74 169.5t145.5 112.5t229.5 38h39q38 0 80 -9t91.5 -35.5t88 -66t64.5 -108t26 -154.5q0 -92 -51.5 -171t-149.5 -115q104 -20 188.5 -122.5t84.5 -244.5q0 -195 -120.5 -290t-326.5 -95h-172v1v1v1v1v1v1v1v1v1v1v1v1v1v1v1v1v1v1v1v1v1v1v1v1 v1v1v1v1v1v1v1v1v1v1v2v1v1v1v2v1v1v1v2v1v1v1v2v1v2v1v1v2v1v1v2v1v2v1v2v1v2v1v2v1v2v1v2v1v2v2v1v2v1v2v2v1v2v2v1v2v2v1v2v2v1v2v2v2v2v1v2v2v2v2v1v2v2v2v2v2v1v9h174q113 0 190.5 63.5t77.5 174.5q0 61 -21.5 111.5t-53 81.5t-69.5 52t-70 29.5t-56 8.5h-84v143h74 q97 0 154 68t57 159q0 111 -66 166.5t-160 55.5q-75 0 -130 -25t-84 -62t-46 -93.5t-21 -104t-3 -109.5v-78v-788h-176z" />
<glyph unicode="&#xe0;" horiz-adv-x="1095" d="M86 293q0 -146 83 -231t269 -85q88 0 183 40t127 77q32 -117 165 -117q60 0 152 41v129q-12 -8 -35 -15.5t-52 -12t-50 12t-21 54.5v402q0 118 -30.5 204t-85 133t-119 68t-142.5 21q-70 0 -138 -12t-107 -26t-78 -30t-45 -18v-137q5 2 45.5 19t77 30t96.5 25t117 12 q105 0 169 -65t64 -185v-47q-165 20 -239 20q-106 0 -195.5 -32t-150 -103.5t-60.5 -171.5zM258 285q0 190 293 190q74 0 180 -16v-244q-30 -36 -117.5 -72.5t-150.5 -36.5q-101 0 -153 51.5t-52 127.5zM287 1411h194l144 -274h-144z" />
<glyph unicode="&#xe1;" horiz-adv-x="1095" d="M86 293q0 100 60.5 171.5t150 103.5t195.5 32q74 0 239 -20v47q0 120 -64 185t-169 65q-57 0 -117 -12t-96.5 -25t-77 -30t-45.5 -19v137q6 2 45 18t78 30t107 26t138 12q78 0 142.5 -21t119 -68t85 -133t30.5 -204v-402q0 -38 21 -54.5t50 -12t52 12t35 15.5v-129 q-92 -41 -152 -41q-133 0 -165 117q-32 -37 -127 -77t-183 -40q-186 0 -269 85t-83 231zM258 285q0 -76 52 -127.5t153 -51.5q63 0 150.5 36.5t117.5 72.5v244q-106 16 -180 16q-293 0 -293 -190zM401 1137l144 274h194l-194 -274h-144z" />
<glyph unicode="&#xe2;" horiz-adv-x="1095" d="M86 293q0 100 60.5 171.5t150 103.5t195.5 32q74 0 239 -20v47q0 120 -64 185t-169 65q-57 0 -117 -12t-96.5 -25t-77 -30t-45.5 -19v137q6 2 45 18t78 30t107 26t138 12q78 0 142.5 -21t119 -68t85 -133t30.5 -204v-402q0 -38 21 -54.5t50 -12t52 12t35 15.5v-129 q-92 -41 -152 -41q-133 0 -165 117q-32 -37 -127 -77t-183 -40q-186 0 -269 85t-83 231zM209 1137l182 274h201l182 -274h-143l-139 170l-140 -170h-143zM258 285q0 -76 52 -127.5t153 -51.5q63 0 150.5 36.5t117.5 72.5v244q-106 16 -180 16q-293 0 -293 -190z" />
<glyph unicode="&#xe3;" horiz-adv-x="1095" d="M86 293q0 -146 83 -231t269 -85q88 0 183 40t127 77q32 -117 165 -117q60 0 152 41v129q-12 -8 -35 -15.5t-52 -12t-50 12t-21 54.5v402q0 118 -30.5 204t-85 133t-119 68t-142.5 21q-70 0 -138 -12t-107 -26t-78 -30t-45 -18v-137q5 2 45.5 19t77 30t96.5 25t117 12 q105 0 169 -65t64 -185v-47q-165 20 -239 20q-106 0 -195.5 -32t-150 -103.5t-60.5 -171.5zM246 1200q4 46 13 79.5t27.5 66t53 49t84.5 16.5q31 0 71 -16t72.5 -32t65 -24.5t60 8t46.5 64.5h95q-15 -211 -187 -211q-27 0 -57.5 12t-60 28t-40.5 20q-65 24 -94.5 11.5 t-54.5 -71.5h-94zM258 285q0 190 293 190q74 0 180 -16v-244q-30 -36 -117.5 -72.5t-150.5 -36.5q-101 0 -153 51.5t-52 127.5z" />
<glyph unicode="&#xe4;" horiz-adv-x="1095" d="M86 293q0 -146 83 -231t269 -85q88 0 183 40t127 77q32 -117 165 -117q60 0 152 41v129q-12 -8 -35 -15.5t-52 -12t-50 12t-21 54.5v402q0 118 -30.5 204t-85 133t-119 68t-142.5 21q-70 0 -138 -12t-107 -26t-78 -30t-45 -18v-137q5 2 45.5 19t77 30t96.5 25t117 12 q105 0 169 -65t64 -185v-47q-165 20 -239 20q-106 0 -195.5 -32t-150 -103.5t-60.5 -171.5zM256 1305q0 50 22.5 78t83.5 28t84 -28t23 -78q0 -107 -107 -107q-106 0 -106 107zM258 285q0 190 293 190q74 0 180 -16v-244q-30 -36 -117.5 -72.5t-150.5 -36.5 q-101 0 -153 51.5t-52 127.5zM563 1305q0 50 23 78t84 28t83.5 -28t22.5 -78q0 -107 -106 -107q-107 0 -107 107z" />
<glyph unicode="&#xe5;" horiz-adv-x="1095" d="M86 293q0 100 60.5 171.5t150 103.5t195.5 32q74 0 239 -20v47q0 120 -64 185t-169 65q-57 0 -117 -12t-96.5 -25t-77 -30t-45.5 -19v137q6 2 45 18t78 30t107 26t138 12q78 0 142.5 -21t119 -68t85 -133t30.5 -204v-402q0 -38 21 -54.5t50 -12t52 12t35 15.5v-129 q-92 -41 -152 -41q-133 0 -165 117q-32 -37 -127 -77t-183 -40q-186 0 -269 85t-83 231zM258 285q0 -76 52 -127.5t153 -51.5q63 0 150.5 36.5t117.5 72.5v244q-106 16 -180 16q-293 0 -293 -190zM309 1313q0 100 53.5 144t139.5 44q85 0 138.5 -44t53.5 -144 q0 -97 -54.5 -143t-137.5 -46t-138 46t-55 143zM410 1313q0 -46 26.5 -68t65.5 -22t65.5 22t26.5 68q0 47 -26 68.5t-66 21.5t-66 -21.5t-26 -68.5z" />
<glyph unicode="&#xe6;" horiz-adv-x="1759" d="M82 293q0 61 22.5 110.5t61 83t91 56.5t110 33t120.5 10q67 0 240 -21v62q0 120 -64 185t-169 65q-57 0 -115 -12t-92.5 -25.5t-72 -30t-44.5 -18.5v137q7 2 43.5 18t73.5 30t103 26t136 12q226 0 320 -166q65 81 158.5 123.5t199.5 42.5q219 0 343 -141t124 -388l-4 -53 h-760q0 -98 52 -172t129 -109.5t163 -35.5q120 0 344 57v-135q-3 -1 -38.5 -10.5t-64 -15.5t-73.5 -15t-96 -13.5t-102 -5.5q-65 0 -142 25t-145 76.5t-88 114.5q-13 -51 -48.5 -91t-79 -63t-98 -37.5t-99 -19.5t-87.5 -5q-186 0 -269 85t-83 231zM254 285q0 -76 52 -127.5 t153 -51.5t184.5 55t83.5 144v139q-113 17 -180 17q-144 0 -218.5 -40.5t-74.5 -135.5zM907 557h592q0 137 -85.5 227t-209.5 90t-210.5 -90.5t-86.5 -226.5z" />
<glyph unicode="&#xe7;" horiz-adv-x="970" d="M98 492q0 121 42 222.5t111 165.5t154.5 99t176.5 35q156 0 299 -35v-135q-47 12 -130 23t-133 10q-90 0 -157 -31.5t-104.5 -86.5t-55.5 -121t-18 -144t18 -143t55.5 -119.5t104.5 -85.5t157 -31q50 -1 133.5 9.5t129.5 22.5v-135q-113 -30 -260 -35q49 -72 65 -129 q31 -112 -29.5 -190.5t-187.5 -65.5q-70 7 -158 48v98l84 -25q64 -15 103.5 3t49 59t-3.5 96.5t-48 114.5q-79 14 -149.5 54t-126 102.5t-88.5 153t-34 196.5z" />
<glyph unicode="&#xe8;" horiz-adv-x="1128" d="M100 504q0 119 39 217.5t105 161.5t150.5 97t178.5 34q219 0 343 -141t124 -388l-4 -53h-760q0 -98 52.5 -172t129.5 -109.5t163 -35.5q120 0 344 57v-135q-2 -1 -38 -10.5t-64.5 -15.5t-74 -15t-96.5 -13.5t-102 -5.5q-105 0 -192.5 31.5t-155 94t-105 165t-37.5 236.5z M276 557h592q0 137 -85.5 227t-209.5 90t-210.5 -90.5t-86.5 -226.5zM334 1411h194l144 -274h-144z" />
<glyph unicode="&#xe9;" horiz-adv-x="1128" d="M100 504q0 119 39 217.5t105 161.5t150.5 97t178.5 34q219 0 343 -141t124 -388l-4 -53h-760q0 -98 52.5 -172t129.5 -109.5t163 -35.5q120 0 344 57v-135q-2 -1 -38 -10.5t-64.5 -15.5t-74 -15t-96.5 -13.5t-102 -5.5q-105 0 -192.5 31.5t-155 94t-105 165t-37.5 236.5z M276 557h592q0 137 -85.5 227t-209.5 90t-210.5 -90.5t-86.5 -226.5zM444 1137l144 274h194l-194 -274h-144z" />
<glyph unicode="&#xea;" horiz-adv-x="1128" d="M100 504q0 119 39 217.5t105 161.5t150.5 97t178.5 34q219 0 343 -141t124 -388l-4 -53h-760q0 -98 52.5 -172t129.5 -109.5t163 -35.5q120 0 344 57v-135q-2 -1 -38 -10.5t-64.5 -15.5t-74 -15t-96.5 -13.5t-102 -5.5q-105 0 -192.5 31.5t-155 94t-105 165t-37.5 236.5z M276 557h592q0 137 -85.5 227t-209.5 90t-210.5 -90.5t-86.5 -226.5zM287 1137l182 274h201l182 -274h-143l-140 170l-139 -170h-143z" />
<glyph unicode="&#xeb;" horiz-adv-x="1128" d="M100 504q0 119 39 217.5t105 161.5t150.5 97t178.5 34q219 0 343 -141t124 -388l-4 -53h-760q0 -98 52.5 -172t129.5 -109.5t163 -35.5q120 0 344 57v-135q-2 -1 -38 -10.5t-64.5 -15.5t-74 -15t-96.5 -13.5t-102 -5.5q-105 0 -192.5 31.5t-155 94t-105 165t-37.5 236.5z M276 557h592q0 137 -85.5 227t-209.5 90t-210.5 -90.5t-86.5 -226.5zM309 1305q0 50 23 78t84 28t83.5 -28t22.5 -78q0 -107 -106 -107q-107 0 -107 107zM616 1305q0 50 23 78t84 28t83.5 -28t22.5 -78q0 -107 -106 -107q-107 0 -107 107z" />
<glyph unicode="&#xec;" horiz-adv-x="487" d="M-10 1411h194l144 -274h-144zM156 0v991h176v-991h-176z" />
<glyph unicode="&#xed;" horiz-adv-x="487" d="M156 0v991h176v-991h-176zM156 1137l143 274h195l-195 -274h-143z" />
<glyph unicode="&#xee;" horiz-adv-x="487" d="M-41 1137l182 274h201l182 -274h-143l-139 170l-140 -170h-143zM156 0v991h176v-991h-176z" />
<glyph unicode="&#xef;" horiz-adv-x="487" d="M-18 1305q0 50 22.5 78t83.5 28t84 -28t23 -78q0 -107 -107 -107q-106 0 -106 107zM156 0v991h176v-991h-176zM289 1305q0 50 22.5 78t83.5 28t84 -28t23 -78q0 -107 -107 -107q-106 0 -106 107z" />
<glyph unicode="&#xf0;" horiz-adv-x="1226" d="M102 477q0 110 30.5 198t81 144t118 93t138 52t144.5 13q38 0 84 -11.5t76 -29.5q-36 94 -178 203l-291 -133v124l180 82q-108 67 -188 103l82 119q149 -50 283 -140l284 129v-125l-180 -81q165 -140 261.5 -328.5t96.5 -405.5q0 -117 -29.5 -207.5t-78 -146.5 t-116.5 -92t-138.5 -49t-149.5 -11q-74 -2 -144.5 13.5t-137.5 53t-117 94t-80.5 144t-30.5 195.5zM279 485q0 -179 87.5 -275.5t247.5 -96.5q161 0 247.5 93.5t86.5 278.5q0 177 -86.5 267t-247.5 90q-160 0 -247.5 -93t-87.5 -264z" />
<glyph unicode="&#xf1;" horiz-adv-x="1167" d="M156 0v991h163l13 -78q32 37 112 69t168 32q69 0 121.5 -8.5t109.5 -37.5t94 -77.5t61 -135t24 -204.5v-551h-184v539q0 196 -52 271t-198 75q-69 0 -145 -39t-111 -84v-762h-176zM289 1200q4 46 13 79.5t27.5 66t53 49t84.5 16.5q31 0 71 -16t72.5 -32t65 -24.5t60 8 t46.5 64.5h95q-15 -211 -187 -211q-27 0 -57.5 12t-60 28t-40.5 20q-65 24 -94.5 11.5t-54.5 -71.5h-94z" />
<glyph unicode="&#xf2;" horiz-adv-x="1222" d="M100 492q0 -134 45 -237.5t119.5 -163t161.5 -88t180 -26.5h12q75 -2 144 12.5t136 52.5t115.5 96.5t78.5 150.5t30 209q0 96 -20.5 175.5t-58 135t-85 96t-105.5 64t-116.5 34.5t-120.5 11h-10q-74 2 -144.5 -15t-136.5 -57.5t-115.5 -100t-79.5 -149.5t-30 -200z M276 500q0 174 89 276.5t247 102.5t246 -99.5t88 -279.5q0 -186 -87.5 -286.5t-246.5 -100.5t-247.5 103t-88.5 284zM442 1411h195l143 -274h-143z" />
<glyph unicode="&#xf3;" horiz-adv-x="1222" d="M100 492q0 110 30 200t79.5 149.5t115.5 100t136.5 57.5t144.5 15h10q62 0 120.5 -11t116.5 -34.5t105.5 -64t85 -96t58 -135t20.5 -175.5q0 -117 -30 -209t-78.5 -150.5t-115.5 -96.5t-136 -52.5t-144 -12.5h-12q-93 -2 -180 26.5t-161.5 88t-119.5 163t-45 237.5z M276 500q0 -181 88.5 -284t247.5 -103t246.5 100.5t87.5 286.5q0 180 -88 279.5t-246 99.5t-247 -102.5t-89 -276.5zM442 1137l144 274h194l-194 -274h-144z" />
<glyph unicode="&#xf4;" horiz-adv-x="1222" d="M100 492q0 110 30 200t79.5 149.5t115.5 100t136.5 57.5t144.5 15h10q62 0 120.5 -11t116.5 -34.5t105.5 -64t85 -96t58 -135t20.5 -175.5q0 -117 -30 -209t-78.5 -150.5t-115.5 -96.5t-136 -52.5t-144 -12.5h-12q-93 -2 -180 26.5t-161.5 88t-119.5 163t-45 237.5z M276 500q0 -181 88.5 -284t247.5 -103t246.5 100.5t87.5 286.5q0 180 -88 279.5t-246 99.5t-247 -102.5t-89 -276.5zM328 1137l182 274h201l182 -274h-143l-140 170l-139 -170h-143z" />
<glyph unicode="&#xf5;" horiz-adv-x="1222" d="M100 492q0 -134 45 -237.5t119.5 -163t161.5 -88t180 -26.5h12q75 -2 144 12.5t136 52.5t115.5 96.5t78.5 150.5t30 209q0 96 -20.5 175.5t-58 135t-85 96t-105.5 64t-116.5 34.5t-120.5 11h-10q-74 2 -144.5 -15t-136.5 -57.5t-115.5 -100t-79.5 -149.5t-30 -200z M276 500q0 174 89 276.5t247 102.5t246 -99.5t88 -279.5q0 -186 -87.5 -286.5t-246.5 -100.5t-247.5 103t-88.5 284zM317 1200q3 36 9 64t18.5 57t31 47.5t49.5 30.5t71 12q31 0 71 -16t72.5 -32t65 -24.5t60 8t46.5 64.5h94q-15 -211 -186 -211q-27 0 -57.5 12t-60 28 t-40.5 20q-65 24 -94.5 11.5t-54.5 -71.5h-95z" />
<glyph unicode="&#xf6;" horiz-adv-x="1222" d="M100 492q0 -134 45 -237.5t119.5 -163t161.5 -88t180 -26.5h12q75 -2 144 12.5t136 52.5t115.5 96.5t78.5 150.5t30 209q0 96 -20.5 175.5t-58 135t-85 96t-105.5 64t-116.5 34.5t-120.5 11h-10q-74 2 -144.5 -15t-136.5 -57.5t-115.5 -100t-79.5 -149.5t-30 -200z M276 500q0 174 89 276.5t247 102.5t246 -99.5t88 -279.5q0 -186 -87.5 -286.5t-246.5 -100.5t-247.5 103t-88.5 284zM350 1305q0 50 23 78t84 28t83.5 -28t22.5 -78q0 -107 -106 -107q-107 0 -107 107zM657 1305q0 50 23 78t84 28t83.5 -28t22.5 -78q0 -107 -106 -107 q-107 0 -107 107z" />
<glyph unicode="&#xf7;" horiz-adv-x="1089" d="M127 575v138h836v-138h-836zM428 276q0 56 25 86.5t92 30.5t92 -30.5t25 -86.5q0 -55 -26 -85.5t-91 -30.5t-91 30.5t-26 85.5zM428 1004q0 56 25 86t92 30t92 -30t25 -86q0 -117 -117 -117t-117 117z" />
<glyph unicode="&#xf8;" horiz-adv-x="1222" d="M100 492q0 110 30 200t79.5 149.5t115.5 100t136.5 57.5t144.5 15h10q124 0 226 -41l104 172l94 -60l-102 -165q184 -135 184 -422q0 -117 -30 -209t-78.5 -150.5t-115.5 -96.5t-136 -52.5t-144 -12.5h-12q-118 -3 -225 43l-100 -161l-95 41l105 170q-191 141 -191 422z M276 500q0 -191 97 -293l391 641q-67 31 -152 31q-158 0 -247 -102.5t-89 -276.5zM457 143q67 -30 155 -30q159 0 246.5 100.5t87.5 286.5q0 181 -92 284z" />
<glyph unicode="&#xf9;" horiz-adv-x="1220" d="M145 440v551h185v-538q0 -196 52 -271.5t198 -75.5q69 0 145 39t111 84v762h176v-805q0 -38 20.5 -54.5t50 -12t51.5 12t35 15.5v-129q-92 -41 -151 -41q-134 0 -166 117q-37 -45 -122 -81t-175 -36q-54 0 -96 4t-86.5 16.5t-77 33.5t-62 56t-48 83t-29.5 116t-11 154z M352 1411h195l143 -274h-143z" />
<glyph unicode="&#xfa;" horiz-adv-x="1220" d="M145 440v551h185v-538q0 -196 52 -271.5t198 -75.5q69 0 145 39t111 84v762h176v-805q0 -38 20.5 -54.5t50 -12t51.5 12t35 15.5v-129q-92 -41 -151 -41q-134 0 -166 117q-37 -45 -122 -81t-175 -36q-54 0 -96 4t-86.5 16.5t-77 33.5t-62 56t-48 83t-29.5 116t-11 154z M446 1137l144 274h194l-194 -274h-144z" />
<glyph unicode="&#xfb;" horiz-adv-x="1220" d="M145 440v551h185v-538q0 -196 52 -271.5t198 -75.5q69 0 145 39t111 84v762h176v-805q0 -38 20.5 -54.5t50 -12t51.5 12t35 15.5v-129q-92 -41 -151 -41q-134 0 -166 117q-37 -45 -122 -81t-175 -36q-54 0 -96 4t-86.5 16.5t-77 33.5t-62 56t-48 83t-29.5 116t-11 154z M334 1137l182 274h201l182 -274h-143l-140 170l-139 -170h-143z" />
<glyph unicode="&#xfc;" horiz-adv-x="1220" d="M145 440v551h185v-538q0 -196 52 -271.5t198 -75.5q69 0 145 39t111 84v762h176v-805q0 -38 20.5 -54.5t50 -12t51.5 12t35 15.5v-129q-92 -41 -151 -41q-134 0 -166 117q-37 -45 -122 -81t-175 -36q-54 0 -96 4t-86.5 16.5t-77 33.5t-62 56t-48 83t-29.5 116t-11 154z M356 1305q0 50 23 78t84 28t83.5 -28t22.5 -78q0 -107 -106 -107q-107 0 -107 107zM664 1305q0 50 22.5 78t83.5 28t84 -28t23 -78q0 -107 -107 -107q-106 0 -106 107z" />
<glyph unicode="&#xfd;" horiz-adv-x="1052" d="M35 991h196l295 -790l293 790h197l-395 -991l-82 -238q-22 -63 -50 -102t-68 -59t-85 -26.5t-113 -4.5h-84v135l82 2q32 2 47 4t36.5 9t33.5 19t25.5 33.5t23.5 53.5l55 170zM360 1137l144 274h194l-194 -274h-144z" />
<glyph unicode="&#xfe;" horiz-adv-x="1165" d="M156 -358v1812h176v-491q87 51 262 51q77 0 158.5 -32.5t153 -92.5t117.5 -159.5t46 -219.5t-46 -223t-117.5 -167t-153 -100t-158.5 -36q-175 0 -262 51l-2 -393h-174zM332 172q92 -51 182 -51q167 0 269 110.5t102 278.5q0 165 -101 266t-270 101q-88 0 -182 -52v-653z " />
<glyph unicode="&#xff;" horiz-adv-x="1052" d="M35 991h196l295 -790l293 790h197l-395 -991l-82 -238q-22 -63 -50 -102t-68 -59t-85 -26.5t-113 -4.5h-84v135l82 2q32 2 47 4t36.5 9t33.5 19t25.5 33.5t23.5 53.5l55 170zM270 1305q0 50 23 78t84 28t83.5 -28t22.5 -78q0 -107 -106 -107q-107 0 -107 107zM578 1305 q0 50 22.5 78t83.5 28t84 -28t23 -78q0 -107 -107 -107q-106 0 -106 107z" />
<glyph unicode="&#x152;" horiz-adv-x="2330" d="M113 700q0 154 41.5 279.5t110.5 208.5t162 139.5t191.5 81.5t202.5 25q151 0 293 -56t242 -168v201h858v-156h-682v-448h635v-156h-635v-356q0 -139 162 -139h520v-156h-551q-142 3 -213 48t-88 153q-95 -107 -234 -165.5t-307 -58.5q-322 2 -515 198t-193 525zM287 700 q0 -252 147 -411.5t385 -159.5q235 0 382 152t155 395v24q0 146 -47.5 261t-125.5 183t-170.5 103t-191.5 35q-78 0 -153 -21t-144.5 -67.5t-122 -113t-83.5 -164.5t-31 -216z" />
<glyph unicode="&#x153;" horiz-adv-x="1976" d="M100 492q0 110 30 200t79.5 149.5t115.5 100t136.5 57.5t144.5 15h10q127 0 239 -47.5t181 -149.5q65 94 167 145.5t218 51.5q219 0 343 -141t124 -388l-4 -53h-760q0 -98 52 -172t129 -109.5t163 -35.5q120 0 344 57v-135q-3 -1 -38.5 -10.5t-64 -15.5t-73.5 -15 t-96 -13.5t-102 -5.5q-131 0 -235.5 47.5t-168.5 143.5q-69 -101 -180 -147.5t-236 -43.5h-12q-93 -2 -180 26.5t-161.5 88t-119.5 163t-45 237.5zM276 500q0 -181 88.5 -284t247.5 -103t246.5 100.5t87.5 286.5q0 180 -88 279.5t-246 99.5t-247 -102.5t-89 -276.5z M1124 557h592q0 137 -85.5 227t-209.5 90t-210.5 -90.5t-86.5 -226.5z" />
<glyph unicode="&#x178;" horiz-adv-x="1157" d="M27 1411h206l347 -631l344 631h204l-460 -801v-610h-176v608zM317 1726q0 50 23 78.5t84 28.5t83.5 -28t22.5 -79q0 -106 -106 -106q-107 0 -107 106zM625 1726q0 51 22.5 79t83.5 28t84 -28.5t23 -78.5q0 -106 -107 -106q-106 0 -106 106z" />
<glyph unicode="&#x2c6;" horiz-adv-x="995" d="M215 1137l182 274h201l182 -274h-143l-139 170l-140 -170h-143z" />
<glyph unicode="&#x2dc;" horiz-adv-x="915" d="M164 1200q4 46 13 79.5t27.5 66t53 49t84.5 16.5q31 0 71 -16t72.5 -32t65 -24.5t60 8t46.5 64.5h95q-15 -211 -187 -211q-27 0 -57.5 12t-59.5 28t-40 20q-65 24 -95 11.5t-55 -71.5h-94z" />
<glyph unicode="&#x2000;" horiz-adv-x="961" />
<glyph unicode="&#x2001;" horiz-adv-x="1923" />
<glyph unicode="&#x2002;" horiz-adv-x="961" />
<glyph unicode="&#x2003;" horiz-adv-x="1923" />
<glyph unicode="&#x2004;" horiz-adv-x="641" />
<glyph unicode="&#x2005;" horiz-adv-x="480" />
<glyph unicode="&#x2006;" horiz-adv-x="320" />
<glyph unicode="&#x2007;" horiz-adv-x="320" />
<glyph unicode="&#x2008;" horiz-adv-x="240" />
<glyph unicode="&#x2009;" horiz-adv-x="384" />
<glyph unicode="&#x200a;" horiz-adv-x="106" />
<glyph unicode="&#x2010;" horiz-adv-x="933" d="M137 455v155h660v-155h-660z" />
<glyph unicode="&#x2011;" horiz-adv-x="933" d="M137 455v155h660v-155h-660z" />
<glyph unicode="&#x2012;" horiz-adv-x="933" d="M137 455v155h660v-155h-660z" />
<glyph unicode="&#x2013;" horiz-adv-x="1216" d="M131 467v151h954v-151h-954z" />
<glyph unicode="&#x2014;" horiz-adv-x="1656" d="M131 467v151h1395v-151h-1395z" />
<glyph unicode="&#x2018;" horiz-adv-x="468" d="M100 1081l154 353h131l-100 -353h-185z" />
<glyph unicode="&#x2019;" horiz-adv-x="456" d="M106 1081l101 353h184l-153 -353h-132z" />
<glyph unicode="&#x201a;" horiz-adv-x="475" d="M66 -168l100 352h184l-153 -352h-131z" />
<glyph unicode="&#x201c;" horiz-adv-x="737" d="M100 1081l154 353h131l-100 -353h-185zM385 1081l121 353h147l-100 -353h-168z" />
<glyph unicode="&#x201d;" horiz-adv-x="724" d="M106 1081l101 353h168l-121 -353h-148zM375 1081l100 353h184l-153 -353h-131z" />
<glyph unicode="&#x201e;" horiz-adv-x="745" d="M66 -168l100 352h170l-121 -352h-149zM336 -168l100 352h185l-154 -352h-131z" />
<glyph unicode="&#x2022;" horiz-adv-x="860" d="M129 526q0 68 12.5 118.5t44.5 94t93 66t151 22.5t151 -22.5t93 -66t44.5 -94t12.5 -118.5q0 -53 -8.5 -96t-29.5 -82t-54.5 -65.5t-86 -42t-122.5 -15.5t-122.5 15.5t-86 42t-54.5 65.5t-29.5 82t-8.5 96z" />
<glyph unicode="&#x2026;" horiz-adv-x="1474" d="M121 94q0 56 25 86.5t92 30.5t91.5 -30.5t24.5 -86.5q0 -55 -26 -86t-90 -31q-117 0 -117 117zM621 94q0 56 24.5 86.5t91.5 30.5t92 -30.5t25 -86.5q0 -117 -117 -117q-64 0 -90 31t-26 86zM1120 94q0 56 25 86.5t92 30.5t92 -30.5t25 -86.5q0 -117 -117 -117t-117 117z " />
<glyph unicode="&#x202f;" horiz-adv-x="384" />
<glyph unicode="&#x2039;" horiz-adv-x="657" d="M86 506l283 424h196l-282 -424l282 -424h-196z" />
<glyph unicode="&#x203a;" horiz-adv-x="657" d="M92 82l283 424l-283 424h197l282 -424l-282 -424h-197z" />
<glyph unicode="&#x205f;" horiz-adv-x="480" />
<glyph unicode="&#x20ac;" horiz-adv-x="1306" d="M98 500v125h197l-2 108h-195v125h197q14 122 60 221t111 164t148.5 109t170 63t178.5 19q49 0 83 -3t75.5 -10t62.5 -10v-139q-58 16 -170 16q-82 0 -153.5 -13.5t-138 -45.5t-116.5 -80.5t-85.5 -122.5t-49.5 -168h571v-125h-573l2 -108h571v-125h-567 q13 -81 41.5 -143.5t70.5 -103t88.5 -67t106.5 -40t113 -18.5t119 -5q112 0 170 16v-139q-21 -3 -62.5 -10t-75.5 -10t-83 -3q-91 0 -175 15.5t-168 53t-148.5 95.5t-111.5 150t-63 209h-199z" />
<glyph unicode="&#x2122;" horiz-adv-x="1634" d="M129 950v105h711l221 -498l221 498h139l54 -719h-121l-39 526l-209 -456h-92l-207 456l-39 -526h-121l45 614h-227v-614h-123v614h-213z" />
<glyph unicode="&#xe000;" horiz-adv-x="993" d="M0 0v993h993v-993h-993z" />
</font>
</defs>
</svg>
