<?xml version="1.0" standalone="no"?>
<!DOCTYPE svg PUBLIC "-//W3C//DTD SVG 1.1//EN" "http://www.w3.org/Graphics/SVG/1.1/DTD/svg11.dtd" >
<svg xmlns="http://www.w3.org/2000/svg">
<metadata></metadata>
<defs>
<font id="kyrial_display_proLtIt" horiz-adv-x="1636" >
<font-face units-per-em="2048" ascent="1536" descent="-512" />
<missing-glyph horiz-adv-x="479" />
<glyph unicode="&#xfb01;" horiz-adv-x="1150" d="M-139 -410l16 107h115q107 0 159.5 45.5t67.5 146.5l160 1004h-178l14 98h182l27 172q9 60 29.5 107.5t44 77.5t59 51.5t63 32t69.5 16t64.5 6t61.5 0.5h103l-17 -106h-129q-110 0 -161.5 -45.5t-69.5 -147.5l-27 -164h627l-156 -991h-121l142 893h-506l-162 -1012 q-10 -60 -30.5 -107.5t-44 -77.5t-59 -51.5t-63 -32t-69 -16t-63.5 -6t-60 -0.5h-88zM1057 1313q10 71 86 71q75 0 65 -71q-11 -72 -88 -72q-38 0 -53 20t-10 52z" />
<glyph unicode="&#xfb02;" horiz-adv-x="1251" d="M-139 -410l16 107h115q107 0 159.5 45.5t67.5 146.5l160 1004h-178l14 98h182l27 172q9 60 29.5 107.5t44 77.5t59 51.5t63 32t69.5 16t64.5 6t61.5 0.5h395l-190 -1186q-14 -92 36.5 -125.5t180.5 -33.5l-18 -117q-198 0 -270.5 57.5t-47.5 218.5l174 1080h-303 q-110 0 -161.5 -45.5t-69.5 -147.5l-27 -164h285l-15 -98h-284l-162 -1012q-10 -60 -30.5 -107.5t-44 -77.5t-59 -51.5t-63 -32t-69 -16t-63.5 -6t-60 -0.5h-88z" />
<glyph unicode="&#xfb03;" horiz-adv-x="1849" d="M-139 -410l16 107h115q107 0 159.5 45.5t67.5 146.5l160 1004h-178l14 98h182l27 172q9 60 29.5 107.5t44 77.5t59 51.5t63 32t69.5 16t64.5 6t61.5 0.5h103l-17 -106h-129q-110 0 -161.5 -45.5t-69.5 -147.5l-27 -164h582l26 172q9 60 29.5 107.5t44 77.5t59 51.5t63 32 t69.5 16t64.5 6t61.5 0.5h103l-17 -106h-129q-110 0 -161.5 -45.5t-69.5 -147.5l-27 -164h627l-156 -991h-120l141 893h-506l-162 -1012q-8 -47 -22 -86.5t-30.5 -67.5t-41.5 -50.5t-45.5 -36.5t-51.5 -24t-52 -15t-53.5 -7.5t-49.5 -3t-47 -0.5h-88l16 107h115 q111 0 164 45.5t68 146.5l159 1004h-577l-162 -1012q-10 -60 -30.5 -107.5t-44 -77.5t-59 -51.5t-63 -32t-69 -16t-63.5 -6t-60 -0.5h-88zM1755 1313q10 71 86 71t66 -71q-11 -72 -88 -72q-38 0 -53.5 20t-10.5 52z" />
<glyph unicode="&#xfb04;" horiz-adv-x="1949" d="M-139 -410l16 107h115q107 0 159.5 45.5t67.5 146.5l160 1004h-178l14 98h182l27 172q9 60 29.5 107.5t44 77.5t59 51.5t63 32t69.5 16t64.5 6t61.5 0.5h103l-17 -106h-129q-110 0 -161.5 -45.5t-69.5 -147.5l-27 -164h582l26 172q9 60 29.5 107.5t44 77.5t59 51.5t63 32 t69.5 16t64.5 6t61.5 0.5h277h119l-191 -1186q-14 -92 36.5 -125.5t180.5 -33.5l-18 -117q-198 0 -270.5 57.5t-47.5 218.5l175 1080h-304q-110 0 -161.5 -45.5t-69.5 -147.5l-27 -164h285l-14 -98h-285l-162 -1012q-8 -47 -22 -86.5t-30.5 -67.5t-41.5 -50.5t-45.5 -36.5 t-51.5 -24t-52 -15t-53.5 -7.5t-49.5 -3t-47 -0.5h-88l16 107h115q111 0 164 45.5t68 146.5l159 1004h-577l-162 -1012q-10 -60 -30.5 -107.5t-44 -77.5t-59 -51.5t-63 -32t-69 -16t-63.5 -6t-60 -0.5h-88z" />
<glyph horiz-adv-x="2048" />
<glyph horiz-adv-x="2048" />
<glyph unicode="&#xd;" horiz-adv-x="2048" />
<glyph unicode=" "  horiz-adv-x="479" />
<glyph unicode="&#x09;" horiz-adv-x="479" />
<glyph unicode="&#xa0;" horiz-adv-x="479" />
<glyph unicode="!" horiz-adv-x="471" d="M164 55q7 37 26 57.5t62 20.5q46 0 59 -20.5t6 -57.5q-7 -35 -26.5 -55t-61.5 -20q-80 0 -65 75zM244 328l159 1085h117l-184 -1085h-92z" />
<glyph unicode="&#x22;" horiz-adv-x="620" d="M297 913l65 500h111l-90 -500h-86zM524 913l66 500h110l-90 -500h-86z" />
<glyph unicode="#" horiz-adv-x="1439" d="M162 446l45 119h289l110 275h-289l48 118h288q33 80 100.5 247.5t84.5 207.5h123l-185 -455h299q149 364 185 455h122l-184 -455h299l-47 -118h-299l-111 -275h299l-45 -119h-301l-178 -446h-123l178 446h-299l-180 -446h-121l179 446h-287zM618 565h302l108 275h-299z " />
<glyph unicode="$" horiz-adv-x="1161" d="M143 80l23 135l41 -27q71 -33 182 -60.5t184 -27.5q167 0 278.5 65t139.5 197q7 45 -9.5 83.5t-46.5 67.5t-84 57.5t-107.5 49t-131.5 46.5l-84 26q-60 21 -105.5 52.5t-70 64.5t-40 68t-19 65.5t-4 55t2.5 38.5l3 15q30 157 148.5 255t320.5 121l27 168h112l-26 -161h2 q75 0 169.5 -21.5t168.5 -48.5l-21 -129q-74 30 -172 53t-164 23q-194 0 -304 -71t-136 -198q-2 -7 -3 -18t3 -43t18.5 -60t52.5 -59.5t95 -50.5l76 -25q51 -17 86 -29t79 -28.5t73.5 -30.5t63 -32.5t55 -37t43.5 -41t33.5 -47.5t19.5 -54t7.5 -62.5t-8.5 -71.5 q-19 -93 -60.5 -162t-103.5 -111.5t-136.5 -65.5t-166.5 -29l-35 -197h-112l32 193q-87 4 -203.5 34t-185.5 66z" />
<glyph unicode="%" horiz-adv-x="1441" d="M100 0l1352 1411h113l-1352 -1411h-113zM301 1120q13 81 50 144.5t86.5 99t103 53.5t106.5 17q46 0 85.5 -9.5t77 -31.5t59.5 -57.5t32.5 -88.5t-2.5 -125q-24 -152 -119.5 -232.5t-232.5 -80.5q-54 -1 -102 16.5t-86 52.5t-54.5 98t-3.5 144zM420 1120 q-17 -98 29.5 -146t117.5 -46q83 0 141 49.5t72 144.5q17 101 -28.5 147t-122.5 46q-70 2 -131 -47t-78 -148zM764 289q26 157 128 236t220 77q58 0 106 -15t87.5 -49t55 -97t1.5 -150q-24 -152 -119 -231.5t-231 -79.5q-55 -1 -103 16.5t-86.5 52.5t-55 97t-3.5 143z M883 289q-16 -98 30 -145.5t119 -45.5q83 0 139.5 49t71.5 144q17 103 -28 147.5t-121 44.5q-72 2 -133.5 -46.5t-77.5 -147.5z" />
<glyph unicode="&#x26;" horiz-adv-x="1349" d="M221 354q2 20 4.5 35.5t17.5 67.5t35.5 91.5t61 85.5t92.5 71q-43 27 -68.5 71t-33.5 83t-6.5 85t4.5 64t6 34q33 176 168.5 278.5t359.5 102.5q100 0 209.5 -19.5t147.5 -37.5l-19 -123q-56 22 -160 41.5t-196 20.5q-136 2 -253 -74t-140 -193q-2 -11 -4 -33t2.5 -62.5 t18.5 -75.5t50.5 -66t91.5 -41h811l-18 -117h-246l-84 -528q-116 -68 -238.5 -103t-201.5 -35q-225 0 -329.5 101t-82.5 276zM342 358q-15 -122 63 -192t246 -70q61 0 153 23t159 57l73 467h-444q-61 -8 -109 -40t-72.5 -67t-41.5 -79t-21 -64.5t-6 -34.5z" />
<glyph unicode="'" horiz-adv-x="393" d="M297 913l65 500h111l-90 -500h-86z" />
<glyph unicode="(" horiz-adv-x="735" d="M175.5 17.5q-29.5 207.5 12.5 492.5q68 426 260 675t445 249l-19 -115q-196 -5 -352 -223.5t-215 -585.5q-37 -246 -12 -427t108 -284.5t209 -107.5l-16 -115h-33q-155 0 -256.5 117t-131 324.5z" />
<glyph unicode=")" horiz-adv-x="735" d="M4 -424l12 115q195 6 353.5 231.5t216.5 587.5q59 367 -27.5 585.5t-282.5 223.5l19 115q166 0 275 -112t144 -317.5t-9 -494.5q-45 -278 -144 -490.5t-236 -328t-292 -115.5h-29z" />
<glyph unicode="*" horiz-adv-x="964" d="M274 1028l19 115l272 -4l-102 237l112 56l95 -244l170 246l96 -58l-176 -237l272 4l-18 -115l-271 4l101 -237l-115 -56l-92 238l-172 -240l-94 58l178 237z" />
<glyph unicode="+" horiz-adv-x="1110" d="M180 510l21 117h393l63 395h117l-63 -395h395l-21 -117h-395l-59 -393h-117l59 393h-393z" />
<glyph unicode="," horiz-adv-x="434" d="M-6 -236l215 418h117l-228 -418h-104z" />
<glyph unicode="-" horiz-adv-x="929" d="M225 520l19 115h639l-19 -115h-639z" />
<glyph unicode="." horiz-adv-x="428" d="M143 55q7 37 26 57.5t62 20.5q81 0 66 -78q-7 -35 -26.5 -55t-61.5 -20t-57.5 21t-8.5 54z" />
<glyph unicode="/" horiz-adv-x="854" d="M82 0l795 1415h120l-794 -1415h-121z" />
<glyph unicode="0" horiz-adv-x="1286" d="M225 688q24 151 74.5 274t114.5 204t141.5 136t155 79t155.5 24t147 -24.5t130 -78t98 -137.5t50.5 -203t-13.5 -274q-52 -323 -226.5 -515.5t-412.5 -192.5q-240 0 -353 192.5t-61 515.5zM346 688q-43 -270 42 -430t271 -160q185 0 323 160.5t181 429.5q23 163 8 276.5 t-66 185t-115.5 104t-141.5 32.5q-61 0 -121 -20t-120.5 -66t-110.5 -113.5t-90 -170t-60 -228.5z" />
<glyph unicode="1" horiz-adv-x="845" d="M102 0l17 115h289l180 1120l-316 -180l21 135l334 194h104l-203 -1269h287l-16 -115h-697z" />
<glyph unicode="2" horiz-adv-x="1062" d="M80 0l14 104l760 705q129 133 141 227q19 118 -60 184t-249 66q-84 0 -188.5 -31.5t-190.5 -80.5l23 131q182 100 375 100q225 0 331 -98.5t78 -268.5q-5 -28 -6.5 -36.5t-16 -47.5t-35 -70t-63.5 -83.5t-102 -108.5l-623 -573h701l-17 -119h-872z" />
<glyph unicode="3" horiz-adv-x="1077" d="M119 41l16 111q70 -22 180.5 -39t176.5 -17q167 0 266.5 69.5t126.5 192.5l-2 -2l3 18t2.5 36t-1.5 51t-13 52.5t-27.5 53t-49 40t-74.5 24.5h-293l19 114h292q60 9 107.5 40.5t72 65t41.5 76t21 61t6 32.5q12 125 -63.5 195.5t-241.5 70.5q-97 0 -207 -15t-166 -36 l17 113q44 18 159 37.5t215 19.5q224 0 327 -102.5t81 -278.5q-1 -13 -6 -35.5t-23 -69t-43 -87t-72 -80t-106 -58.5q53 -22 87.5 -64.5t46 -84.5t13.5 -88t-0.5 -69t-5.5 -34q-33 -175 -168 -276t-360 -101q-60 0 -164 20t-190 44z" />
<glyph unicode="4" horiz-adv-x="1189" d="M102 330l13 90l891 964h118l-149 -935h221l-18 -119h-222l-51 -330h-119l52 330h-736zM268 449h588l121 757z" />
<glyph unicode="5" horiz-adv-x="1144" d="M117 51l20 123q256 -76 434 -76q166 0 285 92t143 232q3 17 4.5 33t0.5 50t-8.5 62t-28 61.5t-51.5 56.5t-85 38.5t-124 15.5h-445l164 645h766l-18 -116h-658l-104 -410h315q74 0 135 -13.5t102 -33.5t71.5 -52t48 -61t27.5 -67.5t13 -65.5t1.5 -62t-3 -48t-4.5 -33 q-31 -192 -188.5 -317t-378.5 -125q-183 0 -434 71z" />
<glyph unicode="6" horiz-adv-x="1191" d="M199 274q-20 102 0 246q68 428 267 656.5t490 228.5q130 0 244 -43l-18 -117q-109 41 -244 41q-203 0 -362 -159t-232 -457q75 101 189 154t233 53q81 0 148.5 -18t113 -50t79.5 -75.5t49 -94t20.5 -105.5t-5.5 -110q-32 -208 -176.5 -326t-371.5 -118 q-111 0 -196.5 30.5t-146.5 96t-81 167.5zM317 325q17 -81 63 -130t112 -73t151 -24q171 0 278 86.5t132 239.5q10 64 -2 122t-46 106t-100.5 77t-156.5 29q-121 0 -240.5 -65t-190.5 -179q-17 -108 0 -189z" />
<glyph unicode="7" horiz-adv-x="1024" d="M113 0l936 1264h-773l19 120h905l-16 -110l-936 -1274h-135z" />
<glyph unicode="8" horiz-adv-x="1191" d="M174 389q1 6 3 16t12 40.5t22.5 59t36 64.5t52 64t71.5 51.5t92 32.5q-52 22 -86.5 62t-47.5 81t-18.5 79t-3.5 63l2 24q11 69 48 134.5t95 120t143.5 88.5t184.5 36h78q99 -2 174 -36t116 -88.5t57 -120t5 -134.5q-2 -9 -6 -25t-23 -60.5t-44.5 -82t-74 -78.5 t-108.5 -63q47 -9 81.5 -32t53 -52.5t29.5 -63t12.5 -65.5t1 -58t-3.5 -42l-2 -15q0 -74 -39 -147t-105.5 -130t-162.5 -93.5t-203 -38.5h-49q-106 2 -189 38t-130.5 94t-67 130t-6.5 147zM293 391q-7 -53 8.5 -104t51 -93t97.5 -68.5t140 -27.5h45q153 3 259 91.5 t128 201.5q1 6 2.5 15.5t1 37.5t-6 54t-22.5 57t-44.5 53.5t-76.5 38t-114 15.5h-123q-65 0 -119 -15t-88.5 -39t-61.5 -53t-41 -57.5t-22.5 -52.5t-10.5 -39zM426.5 1011.5q-0.5 -9.5 0.5 -35.5t6.5 -50t21 -53.5t39 -50.5t65.5 -35.5t96 -14.5h127q54 0 101 14t78.5 36.5 t57 49.5t40 54t24.5 49.5t13 36.5l4 14q0 49 -13.5 92t-42.5 81t-81.5 61.5t-122.5 25.5h-78q-140 -4 -229 -81.5t-105 -178.5q-1 -5 -1.5 -14.5z" />
<glyph unicode="9" horiz-adv-x="1191" d="M209 23l18 116q113 -41 246 -41q203 0 361 159.5t231 457.5q-74 -100 -189 -153.5t-235 -53.5q-81 0 -148.5 18t-113 50t-80 75.5t-49.5 94t-20.5 105.5t6.5 110q34 208 179 326t373 118q111 0 196.5 -30.5t146 -96t80 -168t-0.5 -246.5q-68 -428 -267 -656t-490 -228 q-126 0 -244 43zM354 961q-10 -63 2.5 -121.5t47 -106.5t101.5 -77t157 -29q121 0 240 64.5t192 178.5q15 111 0 189.5t-61.5 129t-112 74t-150.5 23.5q-171 0 -281 -86t-135 -239z" />
<glyph unicode=":" horiz-adv-x="444" d="M152 55q7 37 26 57.5t62 20.5q46 0 59 -20.5t6 -57.5q-7 -35 -26.5 -55t-61.5 -20q-80 0 -65 75zM293 926q5 37 24.5 57.5t63.5 20.5q45 0 57.5 -20t7.5 -58q-11 -76 -90 -76q-74 0 -63 76z" />
<glyph unicode=";" horiz-adv-x="505" d="M20 -236h109l227 418h-116zM348 926q5 37 24.5 57.5t63.5 20.5q45 0 58 -20.5t8 -57.5q-11 -76 -92 -76q-73 0 -62 76z" />
<glyph unicode="&#x3c;" horiz-adv-x="1232" d="M170 502l16 112l1076 430l-23 -131l-887 -356l774 -354l-22 -131z" />
<glyph unicode="=" horiz-adv-x="1204" d="M207 299l20 129h885l-20 -129h-885zM272 721l23 129h885l-23 -129h-885z" />
<glyph unicode="&#x3e;" horiz-adv-x="1232" d="M147 72l23 131l883 354q-113 54 -770 356l20 131l934 -430l-16 -112z" />
<glyph unicode="?" horiz-adv-x="962" d="M240 55q7 37 26 57.5t62 20.5q46 0 59 -20.5t6 -57.5q-7 -35 -26.5 -55t-61.5 -20q-80 0 -65 75zM301 1225l23 137q168 62 262 70q113 8 205 -18.5t149 -79t82.5 -126t11.5 -155.5q-56 -308 -334 -408q-120 -44 -196.5 -123t-79.5 -180v-14h-121v14q13 140 111.5 245.5 t255.5 168.5q59 24 104.5 59t69.5 67t40.5 70t21 58.5t7.5 42.5q18 117 -77 194t-261 64q-170 -11 -274 -86z" />
<glyph unicode="@" horiz-adv-x="2058" d="M201 557q22 141 91.5 274t174.5 240.5t233.5 188.5t278.5 125.5t301 44.5q102 0 194 -14.5t165 -40.5t136.5 -62.5t110 -80.5t84.5 -94t59.5 -103t36 -108.5t14 -110t-6.5 -107.5q-22 -139 -75 -249.5t-118.5 -179t-145.5 -113.5t-152.5 -63t-143.5 -18q-160 0 -197 129 q-71 -46 -157.5 -73t-151.5 -27q-42 0 -82 7.5t-83.5 30t-73 57t-43 95.5t-1.5 139q8 53 39 138q49 136 152.5 237t214.5 147t213 46q49 0 106 -22t103 -66l32 69h105l-252 -669v2q-10 -37 -5 -60.5t25.5 -37t39 -18.5t36.5 -5q45 0 92 10.5t98.5 33t98.5 62.5t88 93.5 t71.5 132t45.5 172.5q13 82 -3 164.5t-66 161.5t-130 140t-207 98.5t-284 37.5q-221 0 -426.5 -101t-345 -275t-171.5 -378q-12 -89 -8 -172.5t31 -160t69.5 -142t106.5 -119t142 -91.5t177 -58.5t210 -20.5q183 0 384 55t347 156l-19 -133q-152 -91 -351.5 -144t-379.5 -53 q-220 0 -393 71t-276 192t-145 281t-13 339zM768 354.5q11 -37.5 28 -61t46.5 -37t55.5 -18.5t54 -5q52 0 135.5 30t163.5 89l174 473q-106 74 -176 74q-77 0 -163 -38.5t-165 -118t-118 -181.5q-23 -53 -35 -117q-11 -52 0 -89.5z" />
<glyph unicode="A" horiz-adv-x="1298" d="M55 0q191 401 368 730.5t404 682.5h91q115 -346 186.5 -669t140.5 -744h-127q-16 82 -41.5 230.5t-36.5 205.5h-643q-165 -323 -217 -436h-125zM446 539h572q-86 412 -174 694q-173 -276 -398 -694z" />
<glyph unicode="B" horiz-adv-x="1302" d="M201 0l223 1413h575q28 0 58.5 -6t66.5 -21.5t64 -42t52 -66.5t30 -96q2 -21 1 -45q0 -39 -5 -85q-8 -51 -31.5 -108.5t-73 -118.5t-112.5 -87q74 -18 120.5 -74.5t60.5 -130.5q7 -38 7 -78q0 -38 -6 -77q-31 -191 -157.5 -284t-323.5 -93h-549zM340 117h453 q121 0 209.5 65.5t109.5 194.5q5 32 5 60q-1 33 -7 61q-12 52 -38 82.5t-65 49.5t-76 25.5t-77 6.5h-428zM444 776h416q115 0 190.5 84.5t92.5 190.5q5 34 5 62q0 82 -42 125q-57 58 -164 58h-416z" />
<glyph unicode="C" horiz-adv-x="1284" d="M227 444q-10 55 -10 116q0 67 12 142q28 171 107.5 311.5t191.5 231t246.5 140t276.5 49.5q192 0 362 -37l-18 -121q-179 35 -361 35q-118 0 -229.5 -41t-205 -116.5t-160 -192.5t-89.5 -259q-10 -62 -10 -118q0 -51 8 -97q18 -96 63 -168.5t113 -121t149.5 -73 t172.5 -24.5q219 0 366 37l-20 -121q-180 -36 -367 -36q-110 0 -208.5 29.5t-179.5 88t-135 145.5t-75 201z" />
<glyph unicode="D" horiz-adv-x="1406" d="M201 0l223 1413h450q99 0 187.5 -29t159.5 -86.5t117 -143.5q48 -86 64 -199q7 -47 6 -99q0 -72 -13 -154q-28 -172 -102 -308.5t-176 -221t-221.5 -128.5t-244.5 -44h-450zM340 117h330q101 0 197.5 37t180 107.5t144 184.5t82.5 256q10 67 10 128q0 68 -12 128 q-24 115 -85 187.5t-146 111.5t-185 39h-330z" />
<glyph unicode="E" horiz-adv-x="1136" d="M233 256l185 1157h823l-18 -121h-701l-82 -516h654l-19 -121h-653l-66 -397q-2 -18 -2 -33q0 -51 25 -73q33 -30 123 -31h532l-16 -121h-533q-156 2 -214 58q-43 41 -43 131q0 31 5 67z" />
<glyph unicode="F" horiz-adv-x="1019" d="M201 0l223 1413h741l-18 -121h-621l-77 -501h571l-21 -121h-571l-106 -670h-121z" />
<glyph unicode="G" horiz-adv-x="1443" d="M226 444q-9 53 -9 112q0 69 12 146q22 137 80 255.5t140.5 205t185 148.5t216.5 92.5t232 30.5q190 0 377 -50l-20 -124q-219 51 -373 51q-124 0 -242 -41t-216 -116.5t-167 -192.5t-92 -259q-10 -63 -10 -121q0 -74 16 -140q30 -117 98 -190t161.5 -112t201.5 -39 q224 0 393 52l62 376h-377l20 121h498l-92 -581q-222 -88 -524 -88q-105 0 -199.5 29.5t-172 88t-129 145.5t-70.5 201z" />
<glyph unicode="H" horiz-adv-x="1452" d="M201 0l223 1413h121l-99 -614h807l99 614h123l-224 -1413h-123l107 682h-807l-106 -682h-121z" />
<glyph unicode="I" horiz-adv-x="522" d="M201 0l223 1413h121l-223 -1413h-121z" />
<glyph unicode="J" horiz-adv-x="563" d="M-324 -406l19 109q42 -4 160 -4q57 0 104 9t96.5 35.5t87 70t68 116t45.5 170.5l209 1313h121l-217 -1358q-18 -117 -62.5 -205t-98 -137.5t-122.5 -79.5t-125.5 -39.5t-118.5 -9.5q-81 0 -166 10z" />
<glyph unicode="K" horiz-adv-x="1142" d="M201 0l223 1413h121l-107 -665q427 362 707 665h151q-362 -391 -772 -737q304 -255 613 -676h-162q-275 367 -559 604l-94 -604h-121z" />
<glyph unicode="L" horiz-adv-x="1079" d="M233 256l185 1157h121l-185 -1155q-2 -16 -2 -31q0 -53 26 -75q32 -30 122 -31h549l-17 -121h-549q-155 2 -213 58q-42 41 -43 128q0 32 6 70z" />
<glyph unicode="M" horiz-adv-x="1912" d="M145 0l361 1413h127q253 -571 362 -1157q307 596 731 1157h127l-86 -1413h-122l69 1210q-332 -430 -678 -1097h-127q-133 669 -329 1097l-312 -1210h-123z" />
<glyph unicode="N" horiz-adv-x="1437" d="M201 0l223 1413h102q180 -225 359.5 -552.5t263.5 -631.5l188 1184h123l-223 -1413h-127q-250 765 -596 1214l-192 -1214h-121z" />
<glyph unicode="O" d="M231 700q25 154 86 279.5t142 208.5t181 139.5t201 81.5t203 25q85 0 164 -17.5t153.5 -55t130.5 -96t95 -140t49 -187.5q3 -35 3 -73q0 -76 -13 -165q-54 -329 -276 -524.5t-539 -195.5q-316 0 -475 196q-119 146 -119 366q0 75 14 158zM350 700q-11 -66 -11 -125 q0 -183 100 -311q132 -168 390 -168q262 0 448.5 168t229.5 436q12 69 12 130q0 53 -9 99q-19 100 -63.5 173t-113 120.5t-146 70t-161.5 22.5t-168.5 -22t-167.5 -71t-150.5 -119.5t-118.5 -174t-71 -228.5z" />
<glyph unicode="P" horiz-adv-x="1218" d="M201 0l223 1413h569q47 0 94.5 -16t90.5 -49.5t74 -79.5q32 -46 44 -112q6 -34 6 -71q0 -35 -6 -71q-16 -101 -55.5 -179.5t-87 -122.5t-105 -72.5t-103.5 -38t-89 -9.5h-442l-92 -592h-121zM432 713h442q29 0 60 6.5t70 26.5t71 52t59.5 88t39.5 128q5 28 5 54 q0 34 -9 66q-15 54 -46.5 88t-70.5 52t-78 18h-449z" />
<glyph unicode="Q" d="M231 700q24 154 85 279.5t141.5 208.5t180.5 139.5t201 81.5t203 25q103 0 196 -25.5t177 -80.5t137.5 -141t77.5 -207q10 -56 10 -121q0 -74 -14 -159q-34 -207 -139.5 -365.5t-264.5 -249t-352 -103.5q0 -103 56.5 -147t163.5 -44q138 0 256 39l-21 -123 q-123 -37 -256 -37q-321 0 -321 312q-288 25 -428 216q-103 139 -103 344q0 75 14 158zM350 700q-10 -64 -10 -124q0 -102 30 -189q49 -137 168 -214t289 -77q262 0 449.5 168.5t230.5 435.5q12 69 12 130q0 53 -9 99q-19 100 -64 173t-113.5 120.5t-146.5 70t-162 22.5 t-168.5 -22t-167 -71t-150 -119.5t-118 -174t-70.5 -228.5z" />
<glyph unicode="R" horiz-adv-x="1265" d="M201 0l223 1411h541q81 0 147 -25.5t112 -73.5q46 -50 64 -126q10 -41 9 -87q0 -40 -7 -85q-29 -172 -137.5 -278t-259.5 -120l-41 -2q56 -48 110 -128.5t101.5 -184.5t70.5 -160t54 -141h-137q-18 50 -39 101t-54 124.5t-68.5 135.5t-75 118t-82.5 88.5t-83 32.5h-231 l-94 -600h-123zM436 717h363q320 0 368 297q5 33 5 62q0 89 -48 145q-64 75 -180 75h-416z" />
<glyph unicode="S" horiz-adv-x="1163" d="M141 80l23 135l41 -27q71 -33 182 -60.5t184 -27.5q167 0 278.5 65t139.5 197q2 13 2 26q0 32 -12 58q-17 38 -46 66t-85.5 57t-106.5 49t-131 48l-82 26q-61 21 -106.5 52.5t-70 64.5t-40.5 68t-19.5 65.5t-4 55t2.5 38.5l3 15q35 180 183 281.5t401 101.5 q147 0 337 -70l-20 -129q-74 30 -172 53t-164 23q-194 0 -304 -71t-136 -198q-2 -7 -3 -18t4 -42.5t18.5 -59.5t52 -59.5t96.5 -51.5l73 -25q52 -17 86 -29t79 -29t73.5 -31t63 -32.5t55.5 -36.5t43.5 -40.5t34 -47.5t19.5 -54t7.5 -62.5t-8.5 -71.5q-22 -104 -72 -178 t-125 -115.5t-163.5 -60t-200.5 -18.5q-85 0 -209.5 31t-200.5 69z" />
<glyph unicode="T" horiz-adv-x="1126" d="M252 1292l18 121h1033l-19 -121h-453l-204 -1292h-125l205 1292h-455z" />
<glyph unicode="U" horiz-adv-x="1466" d="M262 422q1 72 14 156l134 835h120l-133 -835q-13 -57 -13 -106q0 -16 2 -31q6 -61 11.5 -108.5t30 -82.5t44.5 -60t54 -41.5t59 -26.5t59.5 -14.5t56 -6t47.5 -1.5q424 0 501 478l133 835h121l-133 -835q-96 -598 -643 -598q-29 0 -54 1.5t-63 5.5t-69 14t-68.5 24.5 t-66 38.5t-57.5 55.5t-47 76.5q-18 46 -30 100q-11 50 -10 115v11z" />
<glyph unicode="V" horiz-adv-x="1210" d="M276 1413h132l223 -1243l622 1243h129l-712 -1413h-129z" />
<glyph unicode="W" horiz-adv-x="2048" d="M281 1413h129l184 -1245q115 291 257 550t323 533h98q92 -274 151 -533t80 -550l582 1245h129l-672 -1413h-123q-76 692 -221 1104q-304 -460 -569 -1104h-123z" />
<glyph unicode="X" horiz-adv-x="1126" d="M37 0l567 733l-309 680h139l258 -590l447 590h137l-524 -680l340 -733h-140l-288 645l-492 -645h-135z" />
<glyph unicode="Y" horiz-adv-x="1118" d="M258 1413h137l279 -684l489 684h140l-586 -803l-96 -610h-121l94 606z" />
<glyph unicode="Z" horiz-adv-x="1243" d="M72 0l14 104l1118 1192h-885l19 117h1040l-16 -106l-1120 -1190h923l-18 -117h-1075z" />
<glyph unicode="[" horiz-adv-x="612" d="M102 -410l291 1823h367l-17 -104h-245l-258 -1614h245l-16 -105h-367z" />
<glyph unicode="\" horiz-adv-x="854" d="M303 1415h121l348 -1415h-121z" />
<glyph unicode="]" horiz-adv-x="612" d="M12 -410l13 105h245l258 1614h-245l16 104h367l-291 -1823h-363z" />
<glyph unicode="_" horiz-adv-x="1259" d="M94 -201l19 115h1001l-18 -115h-1002z" />
<glyph unicode="`" horiz-adv-x="890" d="M477 1413h123l105 -258h-121z" />
<glyph unicode="a" horiz-adv-x="1083" d="M137 285q23 148 153 227.5t333 79.5q60 0 129 -8.5t104 -24.5l4 33q6 50 6 92q0 30 -3 54q-8 60 -38.5 96t-69.5 51.5t-89 15.5q-171 0 -371 -78l18 111q206 82 371 82q60 0 109 -13t92.5 -42.5t67.5 -78.5t34 -121q4 -26 3 -55q0 -52 -11 -114l-70 -430q-1 -10 -1 -18 q0 -28 16 -42q20 -18 54.5 -14.5t66 14t53.5 23.5l-17 -109q-76 -36 -145 -36q-47 0 -78.5 10.5t-45.5 30.5t-19 38.5t-5 42.5q-61 -51 -174.5 -86.5t-189.5 -35.5q-179 0 -244 80q-49 60 -49 156q0 33 6 69zM256 285q-3 -20 -3 -39q0 -60 33 -98q43 -50 158 -50 q79 0 180.5 26.5t172.5 76.5l43 254q-86 30 -238 30q-146 0 -238.5 -53t-107.5 -147z" />
<glyph unicode="b" horiz-adv-x="1161" d="M166 0l229 1454h121l-82 -528q149 88 301 88q94 0 173 -32t136.5 -93t81.5 -159q13 -54 13 -116q0 -50 -9 -104q-15 -92 -45.5 -169.5t-68 -131t-85 -95t-94 -66.5t-96.5 -41t-90 -21.5t-78 -5.5q-86 0 -147.5 31t-124.5 91l-27 -102h-108zM322 227q37 -61 119 -95 t153 -34q42 0 85.5 9t98 36.5t99 70.5t82 120t53.5 176q7 41 7 79q0 48 -11 89q-19 75 -62.5 121.5t-103 71t-127.5 24.5q-60 0 -144.5 -22t-156.5 -64z" />
<glyph unicode="c" horiz-adv-x="952" d="M180 313q-7 38 -7 81q0 48 9 102q21 121 79 221t135 164t165.5 98.5t175.5 34.5q126 0 279 -29l-21 -119q-132 27 -278 27q-137 0 -259.5 -108t-154.5 -291v2q-7 -41 -7 -79q0 -47 11 -91q19 -78 61.5 -126.5t100.5 -75t123 -26.5q172 0 285 25l-19 -119 q-132 -27 -287 -27q-69 0 -133.5 21.5t-118 64t-89.5 105.5t-50 145z" />
<glyph unicode="d" horiz-adv-x="1214" d="M176 359q0 3 -1 6q0 65 11 145q19 122 75.5 220t134.5 159t169 93t185 32q148 0 272 -88l82 528h121l-207 -1292q-1 -10 -1 -18q-1 -28 15 -42q20 -18 55 -14.5t66 14t53 23.5l-16 -109q-76 -36 -146 -36q-47 0 -78.5 10.5t-45.5 30.5t-18.5 38t-4.5 43 q-82 -58 -158.5 -90t-163.5 -32q-33 0 -66 4.5t-73 15.5t-74 30t-69 48t-58.5 68.5t-41 92.5t-17.5 120zM299 378q6 -58 20 -101.5t40.5 -74.5t54.5 -51.5t62 -32t63 -16t57 -4.5q71 0 163.5 34t149.5 95l92 582q-58 42 -135 64t-137 22q-68 0 -135.5 -24.5t-126.5 -71 t-102 -122t-58 -167.5q-10 -52 -10 -96q0 -18 2 -36z" />
<glyph unicode="e" horiz-adv-x="1118" d="M187 266q-9 48 -9 107q0 61 10 131q19 119 72.5 217.5t128.5 161.5t163 97t179 34q213 0 311 -152q69 -108 70 -272q0 -67 -12 -144h-799q-3 -29 -3 -56q0 -134 70 -208q84 -88 234 -88q190 3 363 45l-19 -112q-210 -45 -362 -47q-104 0 -184 30t-137 93t-76 163z M315 545h676q1 15 1 30q0 139 -68 225q-74 96 -213 95q-131 0 -244.5 -95t-151.5 -255z" />
<glyph unicode="f" horiz-adv-x="698" d="M-139 -410l16 107h115q107 0 159.5 45.5t67.5 146.5l160 1004h-178l14 98h180l29 172q9 60 29.5 107.5t44 77.5t59 51.5t63 32t69.5 16t64.5 6t61.5 0.5h103l-17 -106h-129q-110 0 -161.5 -45.5t-69.5 -147.5l-27 -164h285l-15 -98h-284l-162 -1012q-10 -60 -30.5 -107.5 t-44 -77.5t-59 -51.5t-63 -32t-69 -16t-63.5 -6t-60 -0.5h-88z" />
<glyph unicode="g" horiz-adv-x="1163" d="M186 481q21 127 71 225.5t110 154.5t133.5 92t132.5 47.5t115 11.5q70 0 146.5 -29t127.5 -84l27 92h104l-178 -1128q-13 -79 -56 -137t-109 -91t-142.5 -48t-167.5 -15q-107 0 -267 41l21 121q165 -43 264 -43q89 0 158.5 16t119.5 56t60 102l31 186q-147 -74 -291 -74 q-88 0 -168.5 32.5t-142 93t-89.5 159.5q-18 59 -18 126q0 45 8 93zM305 481q-6 -39 -6 -74q0 -50 12 -95q21 -75 68 -121t107.5 -70.5t127.5 -24.5q60 0 138.5 21.5t152.5 64.5l96 592q-39 45 -126 82t-148 37q-42 0 -85.5 -9t-99 -36.5t-100.5 -70.5t-83 -120t-54 -176z " />
<glyph unicode="h" horiz-adv-x="1144" d="M166 0l229 1454h119l-86 -555q79 56 168.5 85.5t161.5 29.5q336 0 336 -297q0 -49 -9 -107l-96 -610h-119l97 610q6 40 6 74q0 213 -234 213q-64 0 -152.5 -27.5t-176.5 -76.5l-125 -793h-119z" />
<glyph unicode="i" horiz-adv-x="452" d="M166 0l156 991h120l-155 -991h-121zM358 1313q10 71 86 71q67 0 67 -55q0 -7 -1 -16q-11 -72 -88 -72q-38 0 -54 20q-12 15 -11 37q0 7 1 15z" />
<glyph unicode="j" horiz-adv-x="448" d="M-160 -422l17 105q54 3 96.5 11t70.5 17.5t49.5 27t32.5 30.5t19.5 37t11 37t6.5 40l179 1108h116l-178 -1120q-27 -159 -128.5 -226t-291.5 -67zM356 1313q10 71 86 71q67 0 67 -55q0 -8 -1 -16q-11 -72 -88 -72q-39 0 -54 20q-11 15 -11 37q0 7 1 15z" />
<glyph unicode="k" horiz-adv-x="929" d="M166 0l229 1454h121l-133 -831q100 86 397 368h158q-12 -12 -71 -68.5t-86 -82t-82 -77.5t-89.5 -83t-77 -68.5t-73.5 -62.5q295 -257 465 -549h-148q-138 219 -418 461l-71 -461h-121z" />
<glyph unicode="l" horiz-adv-x="552" d="M203 268l190 1186h119l-190 -1186q-3 -20 -3 -37q-1 -63 39 -89q50 -34 181 -33l-19 -117q-198 0 -270 58q-53 43 -53 142q0 35 6 76z" />
<glyph unicode="m" horiz-adv-x="1865" d="M166 0l156 991h106v-92q192 115 338 115q46 0 76.5 -2t70 -9.5t67 -21.5t55.5 -40.5t48 -63.5q110 85 202 111t190 26q41 0 74.5 -3t70 -11.5t63.5 -24t53 -39t42 -58.5q14 -34 24 -80q9 -41 9 -96v-12q-1 -62 -13 -137l-88 -553h-121l88 553q10 54 10 97q-1 9 -1 18 q-2 50 -8.5 86.5t-24.5 62.5t-36.5 42.5t-47 25.5t-54.5 12.5t-59 3.5q-201 0 -344 -143l-119 -758h-121l115 733q2 14 2 27q-1 65 -55 99q-66 40 -186 40q-72 0 -169 -32.5t-171 -92.5l-123 -774h-119z" />
<glyph unicode="n" horiz-adv-x="1144" d="M166 0l156 991h104v-94q56 48 158 82.5t174 34.5q336 0 336 -297q0 -49 -9 -107l-96 -610h-119l97 610q6 40 6 74q0 213 -234 213q-64 0 -152.5 -27.5t-176.5 -76.5l-125 -793h-119z" />
<glyph unicode="o" horiz-adv-x="1226" d="M186 496q21 130 76.5 231.5t135.5 163.5t175.5 93.5t202.5 31.5q106 0 190.5 -31.5t143.5 -93.5q60 -61 84 -163q12 -54 12 -116q0 -55 -10 -116q-21 -130 -76.5 -231t-135 -162t-174 -92t-200.5 -31q-107 0 -192.5 31t-145.5 92t-84 162q-12 53 -12 115q0 55 10 116z M305 496q-8 -51 -8 -96q1 -129 69 -206q92 -104 263 -104q169 0 292.5 104t155.5 302q8 52 8 97q0 129 -67 207q-91 106 -260 105q-110 0 -203 -43.5t-160.5 -137.5t-89.5 -228z" />
<glyph unicode="p" horiz-adv-x="1161" d="M98 -410l226 1403h108l-4 -102q83 60 155 91.5t158 31.5q33 0 66 -4.5t73 -15.5t74 -30t68.5 -48t57.5 -69t40.5 -93t17.5 -120q1 -3 1 -6q0 -65 -11 -145q-19 -122 -75 -220t-133.5 -158.5t-168 -92.5t-184.5 -32q-149 0 -270 88l-78 -478h-121zM315 184 q57 -42 134.5 -64t138.5 -22q68 0 135.5 24.5t126.5 71t102 122t58 167.5q10 52 10 96q0 19 -2 37q-6 58 -20 101t-40.5 74t-54.5 51.5t-62 32t-63 16t-57 4.5q-71 0 -164.5 -34t-148.5 -95z" />
<glyph unicode="q" horiz-adv-x="1161" d="M182 483q21 127 71 225.5t109.5 154.5t133 92t132 47.5t113.5 11.5q85 0 146 -31t127 -92l30 102h109l-227 -1403h-121l78 478q-149 -88 -301 -88q-94 0 -174 32t-138 92.5t-82 158.5q-14 55 -14 118q0 49 8 102zM301 483q-7 -40 -7 -77q0 -48 12 -90q19 -76 63.5 -122.5 t104.5 -71t128 -24.5q59 0 142 22t157 64l92 582q-37 61 -119 95t-153 34q-34 0 -70 -6.5t-80 -22.5t-85 -47t-78 -74t-65.5 -111t-41.5 -151z" />
<glyph unicode="r" horiz-adv-x="727" d="M166 0l156 991h108l-10 -102q71 53 168.5 89t167.5 36q40 0 71 -4l-16 -113q-24 2 -47 2q-71 0 -141 -18q-93 -24 -215 -88l-125 -793h-117z" />
<glyph unicode="s" horiz-adv-x="911" d="M131 39l21 125q64 -36 134.5 -54t123.5 -18q52 0 89.5 2.5t79.5 12t70 25.5t50.5 45.5t31.5 70.5q3 14 3 27q0 19 -6 37q-10 28 -27 46t-56 37.5t-67 30t-85 29.5q-8 3 -12 4l-98 33q-45 15 -78 38t-50 49.5t-27 50t-11 49.5t-0.5 38t2.5 24q27 132 141 207 q102 67 274 67q21 0 42 -1q44 -1 116 -17t117 -34l-18 -121q-43 18 -121.5 33.5t-120.5 17.5q-16 1 -32 1q-128 0 -199 -44q-80 -50 -80 -123v-1q-1 -9 0.5 -19t8.5 -30t30.5 -39t60.5 -32l97 -33q38 -12 59 -19t54 -19t51.5 -21t44.5 -22.5t40 -27t31.5 -31t25 -37 t14 -43.5t6 -51.5t-6.5 -59.5q-12 -52 -33.5 -93t-46.5 -69t-61 -47.5t-68.5 -30t-79.5 -16.5t-84 -7.5t-90 -1.5q-59 0 -132 17t-128 45z" />
<glyph unicode="t" horiz-adv-x="655" d="M197 893l14 98h180l43 256l125 37l-49 -293h238l-15 -98h-237l-99 -617q-5 -34 -5 -54.5t8.5 -47t30.5 -41.5t67 -25.5t112 -11.5l-18 -108q-197 0 -270 59q-53 43 -53 140q0 36 7 79l101 627h-180z" />
<glyph unicode="u" horiz-adv-x="1198" d="M215 381l96 610h119l-96 -610q-7 -42 -7 -77q0 -210 238 -210q61 0 149.5 28t176.5 77l125 792h119l-131 -829q-1 -10 -1 -18q-1 -28 15 -42q20 -18 54.5 -14.5t65.5 14t52 23.5l-16 -109q-76 -36 -144 -36q-89 0 -119 34q-28 32 -28 81v7q-58 -54 -160 -89.5t-176 -35.5 q-341 0 -341 298q0 49 9 106z" />
<glyph unicode="v" horiz-adv-x="997" d="M199 991h131l196 -815l455 815h129l-561 -991h-100z" />
<glyph unicode="w" horiz-adv-x="1646" d="M201 991h127l172 -833l415 786h113l162 -786l440 833h127l-536 -991h-107l-168 780l-414 -780h-108z" />
<glyph unicode="x" horiz-adv-x="972" d="M53 0l439 494l-281 497h145l219 -422l353 422h145l-434 -495l281 -496h-150l-219 418l-348 -418h-150z" />
<glyph unicode="y" horiz-adv-x="1026" d="M76 -430l18 113h56q81 5 129 30t86 99l86 170l-252 1009h127l206 -862q76 137 237 428t241 434h129l-561 -1005l-117 -232q-58 -111 -132 -148q-70 -36 -186 -36h-12h-55z" />
<glyph unicode="z" horiz-adv-x="1048" d="M80 0l16 106l822 771h-662l18 114h834l-14 -104l-830 -772h705l-17 -115h-872z" />
<glyph unicode="{" horiz-adv-x="620" d="M152 451l16 102q55 8 98 34.5t49 63.5l64 406q27 166 125 263t268 110l-16 -109q-125 -11 -186.5 -79.5t-80.5 -184.5l-63 -406q-7 -52 -33.5 -86t-52.5 -46.5t-64 -22.5q24 -9 39.5 -17t34.5 -24t26 -42t1 -61l-66 -407q-38 -232 183 -254l-17 -111 q-168 10 -234.5 104.5t-39.5 260.5l63 407q6 32 -30 61.5t-84 37.5z" />
<glyph unicode="|" horiz-adv-x="452" d="M133 -219l291 1814h113l-291 -1814h-113z" />
<glyph unicode="}" horiz-adv-x="620" d="M8 -420l12 111q121 11 184 77t81 177l65 407q6 35 21 60.5t39.5 42t41.5 24.5t44 17q-24 7 -40.5 16t-33.5 25.5t-23 45t0 68.5l64 406q10 72 2 127.5t-53.5 92t-128.5 44.5l16 109q167 -13 234 -110t40 -263l-63 -406q-6 -37 29 -63.5t86 -34.5l-17 -102q-51 -8 -96 -37 t-51 -62l-64 -407q-27 -165 -124 -260t-265 -105z" />
<glyph unicode="&#xa1;" horiz-adv-x="428" d="M88 -418l184 1086h93l-160 -1086h-117zM283 940q11 76 90 76q74 0 63 -76q-5 -37 -24.5 -57.5t-65.5 -20.5q-43 0 -55.5 20.5t-7.5 57.5z" />
<glyph unicode="&#xa2;" horiz-adv-x="1003" d="M193 496q19 111 70.5 206t121.5 158.5t151.5 102.5t165.5 49l29 196h113l-29 -194q62 -3 209 -29l-18 -113q-106 23 -279 23q-138 0 -261 -108.5t-155 -290.5q-16 -94 2.5 -171.5t61.5 -126t101 -74.5t124 -26q163 0 285 25l-19 -119q-73 -13 -219 -24l-35 -211h-112 l37 213q-82 9 -151 46.5t-119.5 100.5t-71 158t-2.5 209z" />
<glyph unicode="&#xa3;" horiz-adv-x="1155" d="M111 0l18 117h193l79 516h-180l17 106h180l39 228q32 206 191.5 333t414.5 127q57 0 145 -12l-18 -119q-82 7 -152 7q-199 0 -317 -98.5t-141 -250.5l-37 -215h264l-16 -106h-265l-80 -516h631l-18 -117h-948z" />
<glyph unicode="&#xa4;" horiz-adv-x="1173" d="M162 246l176 149q-50 99 -31 232q16 112 103 229l-127 150l98 81l121 -145q110 72 248 72q132 0 219 -74l172 150l67 -84l-174 -152q48 -97 29 -227q-21 -133 -105 -230l129 -149l-96 -84l-123 147q-107 -69 -243 -69q-137 0 -219 69l-175 -149zM426 627 q-19 -113 40 -190t177 -77q117 0 199.5 76.5t101.5 190.5q19 115 -39.5 191.5t-175.5 76.5q-118 0 -201 -76t-102 -192z" />
<glyph unicode="&#xa5;" horiz-adv-x="1200" d="M276 178l15 101h295l22 129h-295l15 100h295l14 88q-243 587 -330 788h137l275 -651q80 109 238.5 325t238.5 326h135l-575 -786l-17 -90h289l-14 -100h-289l-23 -129h289l-14 -101h-289l-26 -178h-117l26 178h-295z" />
<glyph unicode="&#xa6;" horiz-adv-x="501" />
<glyph unicode="&#xa7;" horiz-adv-x="1110" d="M86 -334l31 131q188 -83 282 -92q58 -4 82 -4q278 0 350 219q12 36 11.5 80t-13.5 70q-17 26 -42.5 49.5t-44.5 38.5t-64 40t-63 34l-80 40l-113 50q-53 25 -92 59.5t-59.5 69.5t-33.5 71.5t-15 68t-1.5 56t3.5 39.5l3 14q38 118 107 185q-33 90 -8 209l2 10 q45 157 174.5 243.5t331.5 86.5q65 0 96 -4q100 -11 229 -62l-24 -123q-142 56 -232 66q-62 4 -84 4q-153 0 -247.5 -60.5t-127.5 -169.5q-3 -10 -6.5 -26t-3.5 -57t12 -72q20 -41 51.5 -68.5t84.5 -52.5l69 -29q195 -91 264 -137q133 -89 149 -200q8 -60 -15 -134 q-34 -106 -103 -182q18 -42 18 -103.5t-18 -119.5q-100 -322 -475 -322q-55 0 -102 6q-99 5 -283 78zM338 619.5q1 -31.5 12 -61t45.5 -66t89.5 -62.5h-2l99 -41q212 -98 297 -172q33 53 57 113q6 22 6.5 43t-6 40.5t-15.5 37t-26 35t-33.5 32t-43 31t-48 29.5t-55 29.5 t-58.5 28.5t-63 30l-76 34q-76 36 -121 84q-40 -49 -53 -104q-2 -6 -4.5 -17.5t-1.5 -43z" />
<glyph unicode="&#xa8;" horiz-adv-x="882" d="M451 1298q14 74 86 74q77 0 63 -74q-11 -69 -86 -69q-37 0 -52.5 19.5t-10.5 49.5zM692 1298q14 74 86 74q78 0 64 -74q-11 -69 -86 -69q-38 0 -53.5 19.5t-10.5 49.5z" />
<glyph unicode="&#xa9;" horiz-adv-x="1656" d="M236 700q24 154 85.5 280t143.5 209.5t183.5 140t204 81.5t206.5 25q103 0 196.5 -25.5t177.5 -80.5t137.5 -141t77.5 -208t-3 -281q-52 -327 -277.5 -523.5t-544.5 -196.5q-319 2 -479 197t-108 523zM330 700q-46 -287 92.5 -457.5t415.5 -170.5q278 0 475 171.5 t243 456.5q24 139 3 245.5t-68.5 182t-121 123.5t-155 70t-170.5 22q-90 0 -179 -21.5t-177 -71.5t-159 -122.5t-124.5 -182.5t-74.5 -245zM541 688q33 199 168 313.5t307 114.5q31 0 65.5 -3.5t53 -7t57.5 -11t47 -9.5l-12 -92q-124 21 -226 21q-129 0 -234.5 -88.5 t-129.5 -237.5q-25 -150 55 -236.5t207 -86.5q163 0 229 28l-14 -102q-125 -25 -229 -25q-81 0 -149.5 27t-118.5 78t-71 133t-5 184z" />
<glyph unicode="&#xaa;" horiz-adv-x="817" d="M236 592l14 88h516l-14 -88h-516zM295 965q15 96 100.5 147t216.5 51q75 0 129 -35q30 207 -114 207q-93 0 -232 -49l15 84q138 55 241 55q102 0 158 -65t33 -209l-60 -377h-80l-10 57q-40 -34 -101 -51.5t-104 -17.5q-222 0 -192 203zM391 965q-6 -46 20.5 -75.5 t90.5 -29.5q44 0 103 17t102 47l22 129l-37 8q-66 12 -94 12q-84 0 -141.5 -30.5t-65.5 -77.5z" />
<glyph unicode="&#xab;" horiz-adv-x="894" d="M176 506l326 393h135l-326 -393l201 -393h-135zM469 506l326 393h135l-326 -393l201 -393h-135z" />
<glyph unicode="&#xac;" horiz-adv-x="1292" d="M258 670l18 116h971l-90 -548h-119l72 432h-852z" />
<glyph unicode="&#xad;" horiz-adv-x="929" d="M225 520l19 115h639l-19 -115h-639z" />
<glyph unicode="&#xae;" horiz-adv-x="1656" d="M236 700q24 154 85.5 280t143.5 209.5t183.5 140t204 81.5t206.5 25q103 0 196.5 -25.5t177.5 -80.5t137.5 -141t77.5 -208t-3 -281q-52 -327 -277.5 -523.5t-544.5 -196.5q-319 2 -479 197t-108 523zM330 700q-46 -287 92.5 -457.5t415.5 -170.5q278 0 475 171.5 t243 456.5q24 139 3 245.5t-68.5 182t-121 123.5t-155 70t-170.5 22q-90 0 -179 -21.5t-177 -71.5t-159 -122.5t-124.5 -182.5t-74.5 -245zM606 299l131 827h318q103 0 160 -62t38 -179q-34 -199 -211 -240q105 -132 150 -346h-111q-11 47 -28 98.5t-41 108t-55 93t-62 36.5 h-137l-53 -336h-99zM774 733h195q159 0 184 152q10 67 -21 106t-88 39h-223z" />
<glyph unicode="&#xaf;" horiz-adv-x="903" d="M444 1262l17 106h411l-16 -106h-412z" />
<glyph unicode="&#xb0;" horiz-adv-x="749" d="M291 1165q17 111 106.5 190t202.5 79q115 0 179.5 -78.5t47.5 -190.5t-106 -190t-205 -78q-113 0 -177.5 78.5t-47.5 189.5zM410 1165q-10 -63 26 -106t99 -43q65 0 114 42.5t60 106.5q11 63 -25 106.5t-102 43.5q-63 0 -112 -43.5t-60 -106.5z" />
<glyph unicode="&#xb1;" horiz-adv-x="1191" d="M143 0l17 111h905l-16 -111h-906zM244 641l18 117h393l64 393h117l-64 -393h395l-18 -117h-395l-64 -395h-117l64 395h-393z" />
<glyph unicode="&#xb2;" horiz-adv-x="708" d="M223 950l15 76l442 406q13 12 23 26t16.5 25t11.5 23t7 19l4 14l1 7q9 55 -30.5 87t-124.5 32q-118 0 -213 -53l16 106q43 24 102 39t111 15q139 0 204.5 -60.5t47.5 -165.5q-16 -94 -96 -166l-359 -327h369l-18 -103h-529z" />
<glyph unicode="&#xb3;" horiz-adv-x="696" d="M250 977l14 100q112 -41 201 -41q83 0 134 37t60 96q2 11 2 28t-4 41.5t-22 43t-47 23.5h-152l17 92h147q41 11 70 43.5t38 56.5t11 39q9 59 -31 97t-123 38q-84 0 -211 -43l17 103q108 41 209 41q137 0 200 -64t47 -172q-28 -142 -135 -184q31 -11 50.5 -38t23.5 -55 t6 -54t-2 -36q-18 -107 -100 -170t-219 -63q-49 0 -108 14t-93 27z" />
<glyph unicode="&#xb4;" horiz-adv-x="882" d="M428 1155l186 258h123l-188 -258h-121z" />
<glyph unicode="&#xb6;" horiz-adv-x="878" d="M276 -233l183 1134q-89 15 -143.5 88.5t-39.5 165.5q17 106 103.5 182t191.5 76h326l-262 -1646h-109l246 1538h-141l-246 -1538h-109z" />
<glyph unicode="&#xb7;" horiz-adv-x="446" d="M244 633q7 37 26.5 57.5t63.5 20.5q80 0 65 -78q-7 -36 -26.5 -56t-61.5 -20t-58 21.5t-9 54.5z" />
<glyph unicode="&#xb8;" horiz-adv-x="1056" d="M266 -383l19 115q48 -26 157 -41q53 -6 89 20.5t42 67.5q10 68 -8.5 122.5t-70.5 125.5h88q58 -40 90 -108t20 -140q-16 -96 -92 -156t-188 -51q-70 6 -146 45z" />
<glyph unicode="&#xb9;" horiz-adv-x="583" d="M248 954l14 90h162l96 594l-178 -100l18 104l203 119h84l-112 -717h161l-14 -90h-434z" />
<glyph unicode="&#xba;" horiz-adv-x="892" d="M279 592l14 88h516l-14 -88h-516zM297 1092q27 164 129.5 248.5t243.5 84.5t218.5 -84.5t51.5 -248.5q-13 -84 -48.5 -148.5t-86 -103.5t-110.5 -58.5t-128 -19.5q-143 0 -219.5 82.5t-50.5 247.5zM393 1092q-18 -113 35 -174.5t152 -61.5q97 0 170.5 62t91.5 174 q18 115 -35.5 174t-151.5 59q-101 0 -172.5 -59t-89.5 -174z" />
<glyph unicode="&#xbb;" horiz-adv-x="894" d="M123 113l323 393l-196 393h135l197 -393l-324 -393h-135zM416 113l323 393l-196 393h135l196 -393l-323 -393h-135z" />
<glyph unicode="&#xbc;" horiz-adv-x="1552" d="M213 606l16 90h162l94 594l-176 -100l17 104l204 119h84l-112 -717h162l-17 -90h-434zM438 0l795 1413h104l-794 -1413h-105zM848 184h412l-29 -184h110l29 184h113l14 103h-113l86 520h-96l-514 -545zM993 287l340 360l-59 -360h-281z" />
<glyph unicode="&#xbd;" horiz-adv-x="1591" d="M209 606l16 90h162l94 594l-176 -100l17 104l204 119h84l-112 -717h161l-16 -90h-434zM434 0l795 1413h104l-794 -1413h-105zM952 0l11 76l442 405q13 12 23.5 26t17 25.5t11 23t6.5 19t3 14.5l2 7q9 55 -30 87t-123 32q-117 0 -215 -53l16 106q45 23 105 38t112 15 q126 0 187 -55.5t61 -169.5q0 -11 -7 -33.5t-30.5 -61.5t-58.5 -71l-357 -328h369l-16 -102h-529z" />
<glyph unicode="&#xbe;" horiz-adv-x="1599" d="M215 629l14 100q112 -41 201 -41q84 0 135 37t60 96q4 7 2 27.5t-6 42t-22 41t-46 24.5h-152l17 93h147q41 11 70 43.5t38 56.5t11 39q9 59 -31 97t-123 38q-84 0 -211 -43l17 102q103 41 209 41q137 0 200 -63.5t48 -171.5q-28 -141 -136 -184q31 -11 50.5 -38t23.5 -55 t6 -54t-2 -36q-18 -107 -100.5 -170t-220.5 -63q-49 0 -108.5 14t-90.5 27zM485 0l795 1413h104l-794 -1413h-105zM895 184l10 78l514 545h97l-84 -520h112l-14 -103h-113l-28 -184h-111l29 184h-412zM1040 287h281l59 360z" />
<glyph unicode="&#xbf;" horiz-adv-x="944" d="M80 -49q0 2 1 6q3 18 6 32.5t13.5 49t24.5 63t40 67t58 69t80.5 61t106.5 51.5q117 42 191 120.5t87 182.5l2 15h121l-2 -15q-18 -141 -115.5 -245t-255.5 -168q-205 -81 -239 -289q-18 -118 77.5 -194.5t262.5 -63.5q168 11 272 86l-20 -137q-114 -57 -265 -70 q-112 -8 -204 18.5t-148.5 79t-82 126t-11.5 155.5zM717 940q11 76 90 76q74 0 63 -76q-5 -37 -24.5 -57.5t-63.5 -20.5q-45 0 -57.5 20t-7.5 58z" />
<glyph unicode="&#xc0;" horiz-adv-x="1298" d="M55 0q191 401 368 730.5t404 682.5h91q115 -346 186.5 -669t140.5 -744h-127q-16 82 -41.5 230.5t-36.5 205.5h-643q-165 -323 -217 -436h-125zM446 539h572q-86 412 -174 694q-173 -276 -398 -694zM727 1835h123l102 -258h-121z" />
<glyph unicode="&#xc1;" horiz-adv-x="1298" d="M55 0q191 401 368 730.5t404 682.5h91q115 -346 186.5 -669t140.5 -744h-127q-16 82 -41.5 230.5t-36.5 205.5h-643q-165 -323 -217 -436h-125zM446 539h572q-86 412 -174 694q-173 -276 -398 -694zM850 1577l188 258h123l-190 -258h-121z" />
<glyph unicode="&#xc2;" horiz-adv-x="1298" d="M55 0q191 401 368 730.5t404 682.5h91q115 -346 186.5 -669t140.5 -744h-127q-16 82 -41.5 230.5t-36.5 205.5h-643q-165 -323 -217 -436h-125zM446 539h572q-86 412 -174 694q-173 -276 -398 -694zM635 1577l258 258h100l172 -258h-121l-118 160l-170 -160h-121z" />
<glyph unicode="&#xc3;" horiz-adv-x="1298" d="M55 0q191 401 368 730.5t404 682.5h91q115 -346 186.5 -669t140.5 -744h-127q-16 82 -41.5 230.5t-36.5 205.5h-643q-165 -323 -217 -436h-125zM446 539h572q-86 412 -174 694q-173 -276 -398 -694zM666 1655q50 170 196 170q35 0 109 -41q37 -25 47 -25q16 0 35 20 t32 54h105q-34 -98 -77 -137t-95 -39q-40 0 -111 41q-43 24 -61 24q-22 0 -45.5 -19t-32.5 -48h-102z" />
<glyph unicode="&#xc4;" horiz-adv-x="1298" d="M55 0q191 401 368 730.5t404 682.5h91q115 -346 186.5 -669t140.5 -744h-127q-16 82 -41.5 230.5t-36.5 205.5h-643q-165 -323 -217 -436h-125zM446 539h572q-86 412 -174 694q-173 -276 -398 -694zM729 1720q7 36 25.5 55t58.5 19q80 0 66 -74q-11 -69 -88 -69 q-37 0 -52 19.5t-10 49.5zM971 1720q7 36 25.5 55t58.5 19q79 0 65 -74q-11 -69 -88 -69q-37 0 -51.5 19.5t-9.5 49.5z" />
<glyph unicode="&#xc5;" horiz-adv-x="1298" d="M55 0q191 401 368 730.5t404 682.5h91q115 -346 186.5 -669t140.5 -744h-127q-16 82 -41.5 230.5t-36.5 205.5h-643q-165 -323 -217 -436h-125zM446 539h572q-86 412 -174 694q-173 -276 -398 -694zM745 1757q14 95 73 137.5t140 42.5q82 0 126 -42t30 -138 q-14 -93 -74.5 -136.5t-140.5 -43.5q-79 0 -123.5 43.5t-30.5 136.5zM825 1757q-8 -53 16.5 -77.5t69.5 -24.5q46 0 80.5 24.5t42.5 77.5q16 103 -88 103q-105 0 -121 -103z" />
<glyph unicode="&#xc6;" horiz-adv-x="1818" d="M59 0q171 383 342 716t390 695h1134l-18 -121h-701l-78 -499h652l-21 -121h-651l-68 -410q-10 -77 22.5 -107t123.5 -32h532l-16 -121h-533q-156 3 -213.5 58.5t-37.5 197.5l30 180h-563q-131 -268 -203 -436h-123zM442 553h525l116 737h-235q-216 -353 -406 -737z" />
<glyph unicode="&#xc7;" horiz-adv-x="1284" d="M229 702q28 171 107.5 311.5t191.5 231t246.5 140t276.5 49.5q192 0 362 -37l-18 -121q-179 35 -363 35q-118 0 -229.5 -41t-204.5 -116.5t-159 -192.5t-89 -259q-19 -119 -1.5 -215t62.5 -168.5t113 -121t149.5 -73t172.5 -24.5q220 0 364 37l-20 -121 q-176 -36 -363 -36q77 -91 60 -201q-16 -96 -92.5 -156t-188.5 -51q-69 6 -145 45l18 115q50 -27 158 -41q53 -6 89 20.5t42 67.5q10 57 -2.5 104.5t-48.5 104.5q-120 16 -218.5 70t-169 141.5t-98 217.5t-2.5 285z" />
<glyph unicode="&#xc8;" horiz-adv-x="1136" d="M233 256l185 1157h823l-18 -121h-701l-82 -516h654l-19 -121h-653l-66 -397q-10 -76 23 -105.5t123 -31.5h532l-16 -121h-533q-156 3 -214 58.5t-38 197.5zM696 1835h123l103 -258h-121z" />
<glyph unicode="&#xc9;" horiz-adv-x="1136" d="M233 256l185 1157h823l-18 -121h-701l-82 -516h654l-19 -121h-653l-66 -397q-10 -76 23 -105.5t123 -31.5h532l-16 -121h-533q-156 3 -214 58.5t-38 197.5zM719 1577l188 258h123l-190 -258h-121z" />
<glyph unicode="&#xca;" horiz-adv-x="1136" d="M233 256l185 1157h823l-18 -121h-701l-82 -516h654l-19 -121h-653l-66 -397q-10 -76 23 -105.5t123 -31.5h532l-16 -121h-533q-156 3 -214 58.5t-38 197.5zM549 1577l258 258h100l172 -258h-121l-118 160l-170 -160h-121z" />
<glyph unicode="&#xcb;" horiz-adv-x="1136" d="M233 256l185 1157h823l-18 -121h-701l-82 -516h654l-19 -121h-653l-66 -397q-10 -76 23 -105.5t123 -31.5h532l-16 -121h-533q-156 3 -214 58.5t-38 197.5zM643 1720q7 36 25.5 55t58.5 19q80 0 66 -74q-11 -69 -88 -69q-37 0 -52 19.5t-10 49.5zM885 1720q7 36 25.5 55 t58.5 19q79 0 65 -74q-11 -69 -88 -69q-37 0 -51.5 19.5t-9.5 49.5z" />
<glyph unicode="&#xcc;" horiz-adv-x="522" d="M201 0l223 1413h121l-223 -1413h-121zM350 1835h123l102 -258h-120z" />
<glyph unicode="&#xcd;" horiz-adv-x="522" d="M201 0l223 1413h121l-223 -1413h-121zM446 1577l189 258h123l-191 -258h-121z" />
<glyph unicode="&#xce;" horiz-adv-x="522" d="M201 0l223 1413h121l-223 -1413h-121zM246 1577l258 258h100l172 -258h-121l-118 160l-170 -160h-121z" />
<glyph unicode="&#xcf;" horiz-adv-x="522" d="M201 0l223 1413h121l-223 -1413h-121zM340 1720q7 36 25.5 55t58.5 19q79 0 65 -74q-11 -69 -88 -69q-37 0 -51.5 19.5t-9.5 49.5zM582 1720q7 36 25.5 55t58.5 19q79 0 65 -74q-11 -69 -88 -69q-37 0 -51.5 19.5t-9.5 49.5z" />
<glyph unicode="&#xd0;" horiz-adv-x="1419" d="M166 684l16 104h152l100 625h451q100 0 188.5 -29t160 -86.5t118 -143.5t62.5 -199t-7 -253q-22 -138 -75 -254t-125 -198t-162 -139t-186.5 -84t-196.5 -27h-451l106 684h-151zM350 117h330q102 0 199 37t180.5 107.5t144 184.5t82.5 256q22 141 -2.5 256t-85 187.5 t-146 111.5t-186.5 39h-329l-82 -508h309l-16 -104h-310z" />
<glyph unicode="&#xd1;" horiz-adv-x="1437" d="M201 0l223 1413h102q180 -225 359.5 -552.5t263.5 -631.5l188 1184h123l-223 -1413h-127q-250 765 -596 1214l-192 -1214h-121zM733 1655q50 170 197 170q34 0 108 -41q38 -25 47 -25q16 0 35.5 20t32.5 54h104q-34 -98 -77 -137t-95 -39q-40 0 -103 37q-5 3 -7 4 q-43 24 -62 24q-22 0 -45 -19t-32 -48h-103z" />
<glyph unicode="&#xd2;" d="M231 700q25 154 86 279.5t142 208.5t181 139.5t201 81.5t203 25q85 0 164 -17.5t153.5 -55t130.5 -96t95 -140t48.5 -187t-9.5 -238.5q-54 -329 -276 -524.5t-539 -195.5q-316 0 -475 195.5t-105 524.5zM350 700q-43 -267 89 -435.5t390 -168.5q262 0 448.5 168 t229.5 436q22 129 3 229t-63.5 173t-113 120.5t-146 70t-161.5 22.5t-168.5 -22t-167.5 -71t-150.5 -119.5t-118.5 -174t-71 -228.5zM903 1835h123l104 -258h-120z" />
<glyph unicode="&#xd3;" d="M231 700q25 154 86 279.5t142 208.5t181 139.5t201 81.5t203 25q85 0 164 -17.5t153.5 -55t130.5 -96t95 -140t48.5 -187t-9.5 -238.5q-54 -329 -276 -524.5t-539 -195.5q-316 0 -475 195.5t-105 524.5zM350 700q-43 -267 89 -435.5t390 -168.5q262 0 448.5 168 t229.5 436q22 129 3 229t-63.5 173t-113 120.5t-146 70t-161.5 22.5t-168.5 -22t-167.5 -71t-150.5 -119.5t-118.5 -174t-71 -228.5zM991 1577l187 258h122l-188 -258h-121z" />
<glyph unicode="&#xd4;" d="M231 700q25 154 86 279.5t142 208.5t181 139.5t201 81.5t203 25q85 0 164 -17.5t153.5 -55t130.5 -96t95 -140t48.5 -187t-9.5 -238.5q-54 -329 -276 -524.5t-539 -195.5q-316 0 -475 195.5t-105 524.5zM350 700q-43 -267 89 -435.5t390 -168.5q262 0 448.5 168 t229.5 436q22 129 3 229t-63.5 173t-113 120.5t-146 70t-161.5 22.5t-168.5 -22t-167.5 -71t-150.5 -119.5t-118.5 -174t-71 -228.5zM805 1577l256 258h100l174 -258h-121l-118 160l-170 -160h-121z" />
<glyph unicode="&#xd5;" d="M231 700q25 154 86 279.5t142 208.5t181 139.5t201 81.5t203 25q85 0 164 -17.5t153.5 -55t130.5 -96t95 -140t48.5 -187t-9.5 -238.5q-54 -329 -276 -524.5t-539 -195.5q-316 0 -475 195.5t-105 524.5zM350 700q-43 -267 89 -435.5t390 -168.5q262 0 448.5 168 t229.5 436q22 129 3 229t-63.5 173t-113 120.5t-146 70t-161.5 22.5t-168.5 -22t-167.5 -71t-150.5 -119.5t-118.5 -174t-71 -228.5zM834 1655q50 170 196 170q37 0 111 -41q37 -25 45 -25q16 0 35 20t32 54h105q-33 -97 -76 -136.5t-96 -39.5q-10 0 -21 2t-19 4t-20 8 t-16.5 8t-18 10t-16.5 9q-43 24 -61 24q-21 0 -44.5 -19t-33.5 -48h-102z" />
<glyph unicode="&#xd6;" d="M231 700q25 154 86 279.5t142 208.5t181 139.5t201 81.5t203 25q85 0 164 -17.5t153.5 -55t130.5 -96t95 -140t48.5 -187t-9.5 -238.5q-54 -329 -276 -524.5t-539 -195.5q-316 0 -475 195.5t-105 524.5zM350 700q-43 -267 89 -435.5t390 -168.5q262 0 448.5 168 t229.5 436q22 129 3 229t-63.5 173t-113 120.5t-146 70t-161.5 22.5t-168.5 -22t-167.5 -71t-150.5 -119.5t-118.5 -174t-71 -228.5zM897 1720q14 74 86 74q78 0 64 -74q-5 -30 -27 -49.5t-62 -19.5q-37 0 -51.5 19.5t-9.5 49.5zM1139 1720q14 74 86 74q77 0 63 -74 q-11 -69 -88 -69q-37 0 -51.5 19.5t-9.5 49.5z" />
<glyph unicode="&#xd7;" horiz-adv-x="1024" d="M176 276l342 293l-248 291l99 86l245 -293l340 293l70 -86l-338 -291l244 -293l-99 -86l-245 293l-340 -293z" />
<glyph unicode="&#xd8;" d="M98 29l211 188q-125 188 -78 483q24 153 85.5 279t143 209t182 139.5t202 81.5t203.5 25q123 0 236.5 -37t195.5 -113l190 174l76 -76l-201 -180q135 -195 84 -502q-54 -329 -276 -524.5t-539 -195.5q-283 0 -438 155l-199 -182zM352 700q-37 -228 58 -389l962 881 q-68 59 -159 91t-185 32q-85 0 -169.5 -22t-167.5 -71t-150.5 -119.5t-118 -174t-70.5 -228.5zM475 225q63 -60 155.5 -94.5t200.5 -34.5q261 0 448 168.5t230 435.5q41 257 -61 410z" />
<glyph unicode="&#xd9;" horiz-adv-x="1466" d="M262 422q-1 -72 10.5 -126.5t29.5 -99.5t47 -76.5t57.5 -55.5t66 -38.5t68.5 -24.5t69 -14t63 -5.5t54 -1.5q547 0 643 598l133 835h-121l-133 -835q-77 -478 -501 -478q-26 0 -47.5 1.5t-56 6t-59.5 14.5t-59 26.5t-54 41.5t-44.5 60t-30.5 82.5t-11.5 108.5t11.5 137 l133 835h-120l-134 -835q-13 -84 -14 -156zM836 1835h122l103 -258h-121z" />
<glyph unicode="&#xda;" horiz-adv-x="1466" d="M262 422q1 72 14 156l134 835h120l-133 -835q-17 -76 -11.5 -137t11.5 -108.5t30.5 -82.5t44.5 -60t54 -41.5t59 -26.5t59.5 -14.5t56 -6t47.5 -1.5q424 0 501 478l133 835h121l-133 -835q-96 -598 -643 -598q-29 0 -54 1.5t-63 5.5t-69 14t-68.5 24.5t-66 38.5 t-57.5 55.5t-47 76.5t-29.5 99.5t-10.5 126.5zM848 1577l188 258h123l-190 -258h-121z" />
<glyph unicode="&#xdb;" horiz-adv-x="1466" d="M262 422q1 72 14 156l134 835h120l-133 -835q-17 -76 -11.5 -137t11.5 -108.5t30.5 -82.5t44.5 -60t54 -41.5t59 -26.5t59.5 -14.5t56 -6t47.5 -1.5q424 0 501 478l133 835h121l-133 -835q-96 -598 -643 -598q-29 0 -54 1.5t-63 5.5t-69 14t-68.5 24.5t-66 38.5 t-57.5 55.5t-47 76.5t-29.5 99.5t-10.5 126.5zM717 1577l258 258h100l172 -258h-121l-118 160l-170 -160h-121z" />
<glyph unicode="&#xdc;" horiz-adv-x="1466" d="M262 422q-1 -72 10.5 -126.5t29.5 -99.5t47 -76.5t57.5 -55.5t66 -38.5t68.5 -24.5t69 -14t63 -5.5t54 -1.5q547 0 643 598l133 835h-121l-133 -835q-77 -478 -501 -478q-26 0 -47.5 1.5t-56 6t-59.5 14.5t-59 26.5t-54 41.5t-44.5 60t-30.5 82.5t-11.5 108.5t11.5 137 l133 835h-120l-134 -835q-13 -84 -14 -156zM811 1720q7 36 25.5 55t58.5 19q80 0 66 -74q-5 -30 -27 -49.5t-62 -19.5q-37 0 -51.5 19.5t-9.5 49.5zM1053 1720q7 36 25.5 55t58.5 19q79 0 65 -74q-11 -69 -88 -69q-37 0 -51.5 19.5t-9.5 49.5z" />
<glyph unicode="&#xdd;" horiz-adv-x="1118" d="M258 1413h137l279 -684l489 684h140l-586 -803l-96 -610h-121l94 606zM672 1577l188 258h123l-190 -258h-121z" />
<glyph unicode="&#xde;" horiz-adv-x="1150" d="M201 0l223 1411h123l-45 -287h375q72 0 133.5 -27.5t105 -78.5t61 -132.5t1.5 -180.5q-16 -102 -59.5 -182.5t-104 -130t-129.5 -75.5t-142 -26h-374l-45 -291h-123zM387 412h377q104 0 187.5 76.5t107.5 216.5q24 141 -36 220t-163 79h-377z" />
<glyph unicode="&#xdf;" horiz-adv-x="1128" d="M168 0l145 907q8 57 18 104.5t29 103t43.5 98.5t63.5 85.5t87.5 70t116 44.5t148.5 17q70 0 129.5 -20.5t105.5 -60.5t66 -109.5t6 -158.5q-15 -100 -79.5 -184.5t-178.5 -120.5q125 -20 183 -134.5t34 -262.5q-19 -115 -89 -202.5t-168.5 -132t-209.5 -44.5h-210l16 119 h211q121 0 217.5 72t114.5 188q24 157 -51.5 245.5t-188.5 88.5h-68l21 125h57q107 0 182 73t91 170q10 59 -3.5 104.5t-45 72t-72 40t-88.5 13.5q-81 0 -144 -25.5t-101 -63.5t-64.5 -95.5t-38.5 -106.5t-21 -113l-145 -907h-119z" />
<glyph unicode="&#xe0;" horiz-adv-x="1083" d="M137 285q-22 -144 43 -224.5t244 -80.5q76 0 189.5 35.5t174.5 86.5q0 -24 5 -42.5t19 -38.5t45.5 -30.5t78.5 -10.5q69 0 145 36l17 109q-22 -13 -53.5 -23.5t-66 -14.5t-55 14.5t-14.5 60.5l70 430q18 97 8 169t-34 121t-67.5 78.5t-92.5 42.5t-109 13q-165 0 -371 -82 l-18 -111q200 78 371 78q50 0 89 -15.5t69.5 -51.5t38.5 -95.5t-3 -146.5l-4 -33q-35 16 -104 24.5t-129 8.5q-203 0 -333 -79.5t-153 -227.5zM256 285q15 94 107.5 147t238.5 53q152 0 238 -30l-43 -254q-71 -50 -172.5 -76.5t-180.5 -26.5q-115 0 -158 49.5t-30 137.5z M588 1413h123l104 -258h-121z" />
<glyph unicode="&#xe1;" horiz-adv-x="1083" d="M137 285q23 148 153 227.5t333 79.5q60 0 129 -8.5t104 -24.5l4 33q11 87 3 146.5t-38.5 95.5t-69.5 51.5t-89 15.5q-171 0 -371 -78l18 111q206 82 371 82q60 0 109 -13t92.5 -42.5t67.5 -78.5t34 -121t-8 -169l-70 -430q-6 -42 14.5 -60.5t55 -14.5t66 14.5t53.5 23.5 l-17 -109q-76 -36 -145 -36q-47 0 -78.5 10.5t-45.5 30.5t-19 38.5t-5 42.5q-61 -51 -174.5 -86.5t-189.5 -35.5q-179 0 -244 80.5t-43 224.5zM256 285q-13 -88 30 -137.5t158 -49.5q79 0 180.5 26.5t172.5 76.5l43 254q-86 30 -238 30q-146 0 -238.5 -53t-107.5 -147z M586 1155l186 258h123l-188 -258h-121z" />
<glyph unicode="&#xe2;" horiz-adv-x="1083" d="M137 285q23 148 153 227.5t333 79.5q60 0 129 -8.5t104 -24.5l4 33q11 87 3 146.5t-38.5 95.5t-69.5 51.5t-89 15.5q-171 0 -371 -78l18 111q206 82 371 82q60 0 109 -13t92.5 -42.5t67.5 -78.5t34 -121t-8 -169l-70 -430q-6 -42 14.5 -60.5t55 -14.5t66 14.5t53.5 23.5 l-17 -109q-76 -36 -145 -36q-47 0 -78.5 10.5t-45.5 30.5t-19 38.5t-5 42.5q-61 -51 -174.5 -86.5t-189.5 -35.5q-179 0 -244 80.5t-43 224.5zM256 285q-13 -88 30 -137.5t158 -49.5q79 0 180.5 26.5t172.5 76.5l43 254q-86 30 -238 30q-146 0 -238.5 -53t-107.5 -147z M414 1155l256 258h100l174 -258h-121l-121 160l-167 -160h-121z" />
<glyph unicode="&#xe3;" horiz-adv-x="1083" d="M137 285q-22 -144 43 -224.5t244 -80.5q76 0 189.5 35.5t174.5 86.5q0 -24 5 -42.5t19 -38.5t45.5 -30.5t78.5 -10.5q69 0 145 36l17 109q-22 -13 -53.5 -23.5t-66 -14.5t-55 14.5t-14.5 60.5l70 430q18 97 8 169t-34 121t-67.5 78.5t-92.5 42.5t-109 13q-165 0 -371 -82 l-18 -111q200 78 371 78q50 0 89 -15.5t69.5 -51.5t38.5 -95.5t-3 -146.5l-4 -33q-35 16 -104 24.5t-129 8.5q-203 0 -333 -79.5t-153 -227.5zM256 285q15 94 107.5 147t238.5 53q152 0 238 -30l-43 -254q-71 -50 -172.5 -76.5t-180.5 -26.5q-115 0 -158 49.5t-30 137.5z M451 1233q26 83 73 126.5t123 43.5q42 0 111 -41q7 -4 16.5 -11t15.5 -10.5t11 -3.5q16 0 36 20.5t31 53.5h105q-33 -98 -74.5 -137t-93.5 -39q-42 0 -113 41q-43 24 -63 24q-21 0 -43.5 -18.5t-32.5 -48.5h-102z" />
<glyph unicode="&#xe4;" horiz-adv-x="1083" d="M137 285q-22 -144 43 -224.5t244 -80.5q76 0 189.5 35.5t174.5 86.5q0 -24 5 -42.5t19 -38.5t45.5 -30.5t78.5 -10.5q69 0 145 36l17 109q-22 -13 -53.5 -23.5t-66 -14.5t-55 14.5t-14.5 60.5l70 430q18 97 8 169t-34 121t-67.5 78.5t-92.5 42.5t-109 13q-165 0 -371 -82 l-18 -111q200 78 371 78q50 0 89 -15.5t69.5 -51.5t38.5 -95.5t-3 -146.5l-4 -33q-35 16 -104 24.5t-129 8.5q-203 0 -333 -79.5t-153 -227.5zM256 285q15 94 107.5 147t238.5 53q152 0 238 -30l-43 -254q-71 -50 -172.5 -76.5t-180.5 -26.5q-115 0 -158 49.5t-30 137.5z M496 1298q14 74 86 74q77 0 63 -74q-11 -69 -86 -69q-37 0 -52.5 19.5t-10.5 49.5zM737 1298q14 74 86 74q78 0 64 -74q-11 -69 -86 -69q-38 0 -53.5 19.5t-10.5 49.5z" />
<glyph unicode="&#xe5;" horiz-adv-x="1083" d="M137 285q23 148 153 227.5t333 79.5q60 0 129 -8.5t104 -24.5l4 33q11 87 3 146.5t-38.5 95.5t-69.5 51.5t-89 15.5q-171 0 -371 -78l18 111q206 82 371 82q60 0 109 -13t92.5 -42.5t67.5 -78.5t34 -121t-8 -169l-70 -430q-6 -42 14.5 -60.5t55 -14.5t66 14.5t53.5 23.5 l-17 -109q-76 -36 -145 -36q-47 0 -78.5 10.5t-45.5 30.5t-19 38.5t-5 42.5q-61 -51 -174.5 -86.5t-189.5 -35.5q-179 0 -244 80.5t-43 224.5zM256 285q-13 -88 30 -137.5t158 -49.5q79 0 180.5 26.5t172.5 76.5l43 254q-86 30 -238 30q-146 0 -238.5 -53t-107.5 -147z M528 1335q16 96 75 138.5t140 42.5q82 0 126 -42.5t28 -138.5q-16 -93 -74.5 -136.5t-138.5 -43.5t-126 43.5t-30 136.5zM608 1335q-8 -53 17 -77.5t71 -24.5t79.5 24.5t41.5 77.5q16 103 -88 103q-105 0 -121 -103z" />
<glyph unicode="&#xe6;" horiz-adv-x="1775" d="M135 285q23 148 153 227.5t333 79.5q60 0 129 -8.5t104 -24.5l4 33q22 163 -33.5 236t-160.5 73q-171 0 -371 -78l18 111q206 82 371 82q112 0 190.5 -49t104.5 -158q78 98 187.5 151.5t224.5 53.5q214 0 310 -152t56 -416h-799q-17 -175 67 -263.5t234 -88.5 q194 3 363 45l-18 -112q-214 -47 -363 -47q-237 0 -338 145l-16 -125h-107l2 102q-61 -51 -172 -86.5t-186 -35.5q-179 0 -244 80.5t-43 224.5zM254 285q-13 -88 30 -137.5t158 -49.5q79 0 180.5 26.5t172.5 76.5l43 254q-86 30 -238 30q-146 0 -238.5 -53t-107.5 -147z M973 545h676q8 159 -67 254.5t-214 95.5q-131 0 -244 -95t-151 -255z" />
<glyph unicode="&#xe7;" horiz-adv-x="952" d="M184 496q21 121 78.5 221t135 164t166 98.5t175.5 34.5q124 0 277 -29l-21 -119q-132 27 -276 27q-137 0 -260 -107.5t-154 -289.5q-16 -93 3 -170.5t62 -126t101 -75t123 -26.5q170 0 283 25l-19 -119q-102 -21 -237 -27q74 -92 57 -198q-16 -96 -92.5 -156t-188.5 -51 q-69 6 -145 45l18 115q47 -26 158 -41q53 -6 89 20.5t42 67.5q10 55 -2 101.5t-45 101.5q-79 11 -145.5 50.5t-114.5 102.5t-67 156.5t-1 204.5z" />
<glyph unicode="&#xe8;" horiz-adv-x="1118" d="M187 266.5q-19 99.5 1 237.5q19 119 72.5 217.5t128.5 161.5t163 97t179 34q214 0 311.5 -152t57.5 -416h-799q-17 -175 67 -263.5t234 -88.5q190 3 363 45l-19 -112q-210 -45 -362 -47q-104 0 -184 30t-137 93.5t-76 163zM315 545h676q8 159 -66.5 254.5t-213.5 95.5 q-131 0 -244.5 -95t-151.5 -255zM602 1413h123l106 -258h-120z" />
<glyph unicode="&#xe9;" horiz-adv-x="1118" d="M187 266.5q-19 99.5 1 237.5q19 119 72.5 217.5t128.5 161.5t163 97t179 34q214 0 311.5 -152t57.5 -416h-799q-17 -175 67 -263.5t234 -88.5q190 3 363 45l-19 -112q-210 -45 -362 -47q-104 0 -184 30t-137 93.5t-76 163zM315 545h676q8 159 -66.5 254.5t-213.5 95.5 q-131 0 -244.5 -95t-151.5 -255zM670 1155l184 258h123l-186 -258h-121z" />
<glyph unicode="&#xea;" horiz-adv-x="1118" d="M187 266.5q-19 99.5 1 237.5q19 119 72.5 217.5t128.5 161.5t163 97t179 34q214 0 311.5 -152t57.5 -416h-799q-17 -175 67 -263.5t234 -88.5q190 3 363 45l-19 -112q-210 -45 -362 -47q-104 0 -184 30t-137 93.5t-76 163zM315 545h676q8 159 -66.5 254.5t-213.5 95.5 q-131 0 -244.5 -95t-151.5 -255zM487 1155l254 258h101l176 -258h-121l-121 160l-168 -160h-121z" />
<glyph unicode="&#xeb;" horiz-adv-x="1118" d="M187 266.5q-19 99.5 1 237.5q19 119 72.5 217.5t128.5 161.5t163 97t179 34q214 0 311.5 -152t57.5 -416h-799q-17 -175 67 -263.5t234 -88.5q190 3 363 45l-19 -112q-210 -45 -362 -47q-104 0 -184 30t-137 93.5t-76 163zM315 545h676q8 159 -66.5 254.5t-213.5 95.5 q-131 0 -244.5 -95t-151.5 -255zM578 1298q14 74 88 74q75 0 61 -74q-11 -69 -86 -69q-37 0 -52.5 19.5t-10.5 49.5zM819 1298q14 74 88 74q76 0 62 -74q-11 -69 -86 -69q-38 0 -53.5 19.5t-10.5 49.5z" />
<glyph unicode="&#xec;" horiz-adv-x="452" d="M166 0l156 991h120l-155 -991h-121zM242 1413h123l104 -258h-121z" />
<glyph unicode="&#xed;" horiz-adv-x="452" d="M166 0l156 991h120l-155 -991h-121zM348 1155l187 258h122l-188 -258h-121z" />
<glyph unicode="&#xee;" horiz-adv-x="452" d="M150 1155l256 258h100l174 -258h-121l-121 160l-168 -160h-120zM166 0l156 991h120l-155 -991h-121z" />
<glyph unicode="&#xef;" horiz-adv-x="452" d="M166 0l156 991h120l-155 -991h-121zM242 1298q14 74 88 74q75 0 61 -74q-11 -69 -86 -69q-37 0 -52.5 19.5t-10.5 49.5zM483 1298q14 74 88 74q76 0 62 -74q-11 -69 -86 -69q-38 0 -53.5 19.5t-10.5 49.5z" />
<glyph unicode="&#xf0;" horiz-adv-x="1222" d="M183 280.5q-18 84.5 1 196.5q17 108 61 195.5t102 143.5t130.5 93.5t144 53.5t144.5 16q41 0 114.5 -17.5t131.5 -58.5q-29 69 -84 148.5t-107 130.5l-301 -133l19 108l196 82q-73 54 -188 98l59 111q161 -57 264 -152l285 121l-18 -100l-191 -84q134 -148 202.5 -352 t37.5 -400q-18 -116 -61.5 -206.5t-100 -146t-128.5 -91t-142.5 -48.5t-147.5 -12q-73 -2 -139 13.5t-127 52t-100 95t-57 143zM300.5 326.5q13.5 -64.5 42.5 -109t75.5 -72.5t96.5 -40.5t106 -12.5q60 0 113.5 10.5t109.5 38t99.5 70t77 112t48.5 158.5q26 161 -12 281 q-129 96 -312 96q-71 2 -139 -17.5t-131 -62t-109 -120t-63 -181.5q-16 -86 -2.5 -150.5z" />
<glyph unicode="&#xf1;" horiz-adv-x="1144" d="M166 0l156 991h104v-94q56 48 158 82.5t174 34.5q392 0 327 -404l-96 -610h-119l97 610q44 287 -228 287q-64 0 -152.5 -27.5t-176.5 -76.5l-125 -793h-119zM520 1233q53 170 197 170q41 0 110 -41q7 -4 16.5 -11t15.5 -10.5t11 -3.5q16 0 36.5 20.5t31.5 53.5h104 q-33 -98 -74.5 -137t-93.5 -39q-9 0 -17.5 1t-18 4t-16 5t-16.5 7.5t-14.5 7.5t-15.5 8.5t-14 7.5q-43 24 -64 24t-43 -18.5t-32 -48.5h-103z" />
<glyph unicode="&#xf2;" horiz-adv-x="1226" d="M186 496q-21 -130 2.5 -231t83.5 -162t145.5 -92t192.5 -31q106 0 200.5 31t174 92t135 162t76.5 231t-2.5 231.5t-83 163.5t-144 93.5t-190.5 31.5q-107 0 -202.5 -31.5t-175.5 -93.5t-135.5 -163.5t-76.5 -231.5zM305 496q22 134 89.5 228t160.5 137.5t203 43.5 q169 0 260 -105.5t59 -303.5t-155.5 -302t-292.5 -104q-171 0 -263.5 104t-60.5 302zM633 1413h123l106 -258h-121z" />
<glyph unicode="&#xf3;" horiz-adv-x="1226" d="M186 496q21 130 76.5 231.5t135.5 163.5t175.5 93.5t202.5 31.5q106 0 190.5 -31.5t144 -93.5t83 -163.5t2.5 -231.5t-76.5 -231t-135 -162t-174 -92t-200.5 -31q-107 0 -192.5 31t-145.5 92t-83.5 162t-2.5 231zM305 496q-32 -198 60.5 -302t263.5 -104q169 0 292.5 104 t155.5 302t-59 303.5t-260 105.5q-110 0 -203 -43.5t-160.5 -137.5t-89.5 -228zM729 1155l184 258h123l-186 -258h-121z" />
<glyph unicode="&#xf4;" horiz-adv-x="1226" d="M186 496q21 130 76.5 231.5t135.5 163.5t175.5 93.5t202.5 31.5q106 0 190.5 -31.5t144 -93.5t83 -163.5t2.5 -231.5t-76.5 -231t-135 -162t-174 -92t-200.5 -31q-107 0 -192.5 31t-145.5 92t-83.5 162t-2.5 231zM305 496q-32 -198 60.5 -302t263.5 -104q169 0 292.5 104 t155.5 302t-59 303.5t-260 105.5q-110 0 -203 -43.5t-160.5 -137.5t-89.5 -228zM532 1155l254 258h101l176 -258h-121l-121 160l-168 -160h-121z" />
<glyph unicode="&#xf5;" horiz-adv-x="1226" d="M186 496q-21 -130 2.5 -231t83.5 -162t145.5 -92t192.5 -31q106 0 200.5 31t174 92t135 162t76.5 231t-2.5 231.5t-83 163.5t-144 93.5t-190.5 31.5q-107 0 -202.5 -31.5t-175.5 -93.5t-135.5 -163.5t-76.5 -231.5zM305 496q22 134 89.5 228t160.5 137.5t203 43.5 q169 0 260 -105.5t59 -303.5t-155.5 -302t-292.5 -104q-171 0 -263.5 104t-60.5 302zM561 1233q28 84 74.5 127t122.5 43q41 0 110 -41q6 -4 16.5 -11.5t17 -10.5t11.5 -3q16 0 35.5 20.5t30.5 53.5h104q-32 -97 -74 -136.5t-94 -39.5q-40 0 -103 37q-5 3 -7 4 q-48 24 -66 24q-21 0 -42 -18.5t-33 -48.5h-103z" />
<glyph unicode="&#xf6;" horiz-adv-x="1226" d="M186 496q-21 -130 2.5 -231t83.5 -162t145.5 -92t192.5 -31q106 0 200.5 31t174 92t135 162t76.5 231t-2.5 231.5t-83 163.5t-144 93.5t-190.5 31.5q-107 0 -202.5 -31.5t-175.5 -93.5t-135.5 -163.5t-76.5 -231.5zM305 496q22 134 89.5 228t160.5 137.5t203 43.5 q169 0 260 -105.5t59 -303.5t-155.5 -302t-292.5 -104q-171 0 -263.5 104t-60.5 302zM623 1298q14 74 88 74q75 0 61 -74q-11 -69 -86 -69q-37 0 -52.5 19.5t-10.5 49.5zM864 1298q14 74 88 74q76 0 62 -74q-11 -69 -86 -69q-38 0 -53.5 19.5t-10.5 49.5z" />
<glyph unicode="&#xf7;" horiz-adv-x="1103" d="M250 575l20 119h785l-21 -119h-784zM508 270q11 80 98 80q83 0 72 -80q-5 -35 -29.5 -57.5t-68.5 -22.5q-42 0 -59.5 22.5t-12.5 57.5zM625 995q14 80 94 80q45 0 63.5 -22t12.5 -58q-14 -77 -99 -77q-42 0 -59.5 21.5t-11.5 55.5z" />
<glyph unicode="&#xf8;" horiz-adv-x="1226" d="M109 -2l137 137q-96 142 -60 361q17 105 56.5 191t95.5 145.5t126.5 100.5t148.5 60t163 19q165 0 271 -70q73 70 133 133l75 -69l-135 -134q117 -136 76 -376q-17 -105 -56.5 -191t-95.5 -145.5t-126.5 -100.5t-148 -60t-161.5 -19q-185 0 -291 83l-44.5 -44.5 t-53.5 -54t-39 -38.5zM303 347q9 -69 33 -118l618 621q-77 51 -196 51q-170 0 -295.5 -103.5t-157.5 -301.5q-11 -80 -2 -149zM406 154q88 -64 221 -64q81 0 154 25t133.5 74t103.5 127.5t59 179.5q30 181 -47 284z" />
<glyph unicode="&#xf9;" horiz-adv-x="1198" d="M215 381l96 610h119l-96 -610q-47 -287 231 -287q61 0 149.5 28t176.5 77l125 792h119l-131 -829q-6 -42 14.5 -60.5t54.5 -14.5t65 14.5t52 23.5l-16 -109q-76 -36 -144 -36q-89 0 -119 34.5t-28 87.5q-58 -54 -160 -89.5t-176 -35.5q-397 0 -332 404zM635 1413h123 l106 -258h-121z" />
<glyph unicode="&#xfa;" horiz-adv-x="1198" d="M215 381l96 610h119l-96 -610q-47 -287 231 -287q61 0 149.5 28t176.5 77l125 792h119l-131 -829q-6 -42 14.5 -60.5t54.5 -14.5t65 14.5t52 23.5l-16 -109q-76 -36 -144 -36q-89 0 -119 34.5t-28 87.5q-58 -54 -160 -89.5t-176 -35.5q-397 0 -332 404zM649 1155l185 258 h122l-186 -258h-121z" />
<glyph unicode="&#xfb;" horiz-adv-x="1198" d="M215 381l96 610h119l-96 -610q-47 -287 231 -287q61 0 149.5 28t176.5 77l125 792h119l-131 -829q-6 -42 14.5 -60.5t54.5 -14.5t65 14.5t52 23.5l-16 -109q-76 -36 -144 -36q-89 0 -119 34.5t-28 87.5q-58 -54 -160 -89.5t-176 -35.5q-397 0 -332 404zM543 1155l254 258 h100l176 -258h-121l-121 160l-167 -160h-121z" />
<glyph unicode="&#xfc;" horiz-adv-x="1198" d="M215 381l96 610h119l-96 -610q-47 -287 231 -287q61 0 149.5 28t176.5 77l125 792h119l-131 -829q-6 -42 14.5 -60.5t54.5 -14.5t65 14.5t52 23.5l-16 -109q-76 -36 -144 -36q-89 0 -119 34.5t-28 87.5q-58 -54 -160 -89.5t-176 -35.5q-397 0 -332 404zM580 1298 q14 74 88 74q75 0 61 -74q-11 -69 -86 -69q-37 0 -52.5 19.5t-10.5 49.5zM821 1298q14 74 88 74q76 0 62 -74q-11 -69 -86 -69q-38 0 -53.5 19.5t-10.5 49.5z" />
<glyph unicode="&#xfd;" horiz-adv-x="1026" d="M76 -430l18 113h56q81 5 129 30t86 99l86 170l-252 1009h127l206 -862q76 137 237 428t241 434h129l-561 -1005l-117 -232q-58 -111 -132 -148.5t-198 -35.5h-55zM565 1155l187 258h122l-188 -258h-121z" />
<glyph unicode="&#xfe;" horiz-adv-x="1161" d="M104 -383l287 1806h121l-80 -510q146 101 293 101q88 0 168 -32.5t141.5 -93t89.5 -159t9 -219.5q-21 -127 -71 -225.5t-109.5 -154.5t-132.5 -91.5t-131.5 -47t-113.5 -11.5q-74 0 -147 31.5t-127 82.5l-76 -477h-121zM322 217q34 -46 122 -82.5t152 -36.5 q33 0 68.5 6.5t80 22.5t85 47t77.5 74t65.5 111t41.5 151q15 93 -6 168.5t-68 121.5t-107.5 70.5t-127.5 24.5q-60 0 -138 -21.5t-151 -64.5z" />
<glyph unicode="&#xff;" horiz-adv-x="1026" d="M76 -430l18 113h56q81 5 129 30t86 99l86 170l-252 1009h127l206 -862q76 137 237 428t241 434h129l-561 -1005l-117 -232q-58 -111 -132 -148.5t-198 -35.5h-55zM526 1298q14 74 86 74q78 0 64 -74q-11 -69 -86 -69q-38 0 -53.5 19.5t-10.5 49.5zM768 1298q14 74 86 74 q78 0 64 -74q-11 -69 -87 -69q-37 0 -52.5 19.5t-10.5 49.5z" />
<glyph unicode="&#x152;" horiz-adv-x="2336" d="M231 700q25 154 86 279.5t142 208.5t181 139.5t201 81.5t203 25q112 0 211.5 -28.5t187 -95.5t136.5 -167l41 270h821l-18 -121h-701l-82 -516h656l-19 -121h-655l-66 -397q-7 -76 25.5 -105.5t122.5 -31.5h530l-16 -121h-532q-155 3 -212.5 58.5t-37.5 197.5l2 10 q-112 -141 -272 -213.5t-355 -72.5q-316 0 -475 195.5t-105 524.5zM350 700q-28 -175 21.5 -312.5t168.5 -214.5t289 -77q246 0 432.5 164t241.5 414l4 26q22 129 3.5 229t-63 173t-113 120.5t-146 70t-162.5 22.5q-84 0 -168.5 -22t-167.5 -71t-150.5 -119.5t-118.5 -174 t-71 -228.5z" />
<glyph unicode="&#x153;" horiz-adv-x="2011" d="M186 496q17 105 56.5 191t95.5 145.5t126.5 100.5t148 60t161.5 19q330 0 406 -246q84 110 206 179t238 69q214 0 311.5 -152t57.5 -416h-799q-17 -175 67 -263.5t234 -88.5q172 3 363 49l-19 -116q-210 -45 -362 -47q-145 0 -246.5 59.5t-138.5 179.5 q-84 -119 -210 -179t-274 -60q-106 0 -190.5 31t-145 92t-84 162t-2.5 231zM305 496q-32 -198 60.5 -302t261.5 -104q110 0 202 43t159 136t89 227q32 198 -59.5 301.5t-261.5 103.5q-81 0 -154 -25t-134 -73.5t-104 -127t-59 -179.5zM1208 547h676q8 159 -66.5 253.5 t-213.5 94.5q-132 0 -245 -94t-151 -254z" />
<glyph unicode="&#x178;" horiz-adv-x="1118" d="M258 1413h137l279 -684l489 684h140l-586 -803l-96 -610h-121l94 606zM635 1720q14 74 86 74q77 0 63 -74q-11 -69 -88 -69q-37 0 -51.5 19.5t-9.5 49.5zM877 1720q14 74 86 74q77 0 63 -74q-11 -69 -88 -69q-37 0 -51.5 19.5t-9.5 49.5z" />
<glyph unicode="&#x2c6;" horiz-adv-x="960" d="M397 1155l256 258h101l174 -258h-121l-121 160l-168 -160h-121z" />
<glyph unicode="&#x2dc;" horiz-adv-x="821" d="M358 1233q53 170 197 170q42 0 111 -41q7 -4 16.5 -11t15.5 -10.5t11 -3.5q16 0 36 20.5t31 53.5h105q-33 -98 -74.5 -137t-93.5 -39q-9 0 -17.5 1t-18.5 4.5t-15.5 5t-17.5 7.5t-14.5 7t-15.5 8l-14 8q-43 24 -63 24q-21 0 -43.5 -18.5t-32.5 -48.5h-103z" />
<glyph unicode="&#x2000;" horiz-adv-x="968" />
<glyph unicode="&#x2001;" horiz-adv-x="1937" />
<glyph unicode="&#x2002;" horiz-adv-x="968" />
<glyph unicode="&#x2003;" horiz-adv-x="1937" />
<glyph unicode="&#x2004;" horiz-adv-x="645" />
<glyph unicode="&#x2005;" horiz-adv-x="484" />
<glyph unicode="&#x2006;" horiz-adv-x="322" />
<glyph unicode="&#x2007;" horiz-adv-x="322" />
<glyph unicode="&#x2008;" horiz-adv-x="242" />
<glyph unicode="&#x2009;" horiz-adv-x="387" />
<glyph unicode="&#x200a;" horiz-adv-x="107" />
<glyph unicode="&#x2010;" horiz-adv-x="929" d="M225 520l19 115h639l-19 -115h-639z" />
<glyph unicode="&#x2011;" horiz-adv-x="929" d="M225 520l19 115h639l-19 -115h-639z" />
<glyph unicode="&#x2012;" horiz-adv-x="929" d="M225 520l19 115h639l-19 -115h-639z" />
<glyph unicode="&#x2013;" horiz-adv-x="1224" d="M223 485l19 117h929l-18 -117h-930z" />
<glyph unicode="&#x2014;" horiz-adv-x="1685" d="M223 485l19 117h1390l-18 -117h-1391z" />
<glyph unicode="&#x2018;" horiz-adv-x="425" d="M276 1044l175 369h104l-162 -369h-117z" />
<glyph unicode="&#x2019;" horiz-adv-x="423" d="M279 1044l161 369h117l-174 -369h-104z" />
<glyph unicode="&#x201a;" horiz-adv-x="421" d="M45 -158l164 369h117l-176 -369h-105z" />
<glyph unicode="&#x201c;" horiz-adv-x="663" d="M276 1044l175 369h104l-162 -369h-117zM514 1044l174 369h105l-162 -369h-117z" />
<glyph unicode="&#x201d;" horiz-adv-x="661" d="M279 1044l161 369h117l-174 -369h-104zM516 1044l162 369h117l-174 -369h-105z" />
<glyph unicode="&#x201e;" horiz-adv-x="659" d="M45 -158l164 369h117l-176 -369h-105zM283 -158l163 369h117l-176 -369h-104z" />
<glyph unicode="&#x2022;" horiz-adv-x="774" d="M224 447q-6 46 5 98q9 58 26 100t48 79t83.5 56t125.5 19t120 -20t66.5 -54.5t24.5 -80.5t-6 -99q-9 -56 -27.5 -99t-51 -79t-84.5 -55t-122 -19t-116.5 20t-66 54t-25.5 80z" />
<glyph unicode="&#x2026;" horiz-adv-x="1144" d="M143 55q7 37 26 57.5t62 20.5q81 0 66 -78q-7 -35 -26.5 -55t-61.5 -20t-57.5 21t-8.5 54zM500 55q7 37 26.5 57.5t63.5 20.5q46 0 59 -20.5t6 -57.5q-7 -35 -26.5 -55t-61.5 -20t-58 21t-9 54zM858 55q7 37 26.5 57.5t63.5 20.5q81 0 66 -78q-15 -75 -88 -75 q-42 0 -58 21t-10 54z" />
<glyph unicode="&#x202f;" horiz-adv-x="387" />
<glyph unicode="&#x2039;" horiz-adv-x="602" d="M176 506l326 393h135l-326 -393l201 -393h-135z" />
<glyph unicode="&#x203a;" horiz-adv-x="602" d="M123 113l323 393l-196 393h135l197 -393l-324 -393h-135z" />
<glyph unicode="&#x205f;" horiz-adv-x="484" />
<glyph unicode="&#x20ac;" horiz-adv-x="1308" d="M182 549l17 104h172q6 23 8 43t4 31h-172l16 104h181q85 263 287.5 418.5t461.5 155.5q75 0 238 -25l-19 -116q-143 22 -237 22q-212 0 -374.5 -121t-234.5 -334h607l-17 -104h-618l-5 -35t-3.5 -19.5t-2.5 -10.5t-2 -9h619l-16 -104h-609q5 -211 120 -332t345 -121 q117 0 242 29l-19 -121q-159 -24 -241 -24q-142 0 -251 42.5t-176.5 120t-103 179.5t-37.5 227h-180z" />
<glyph unicode="&#x2122;" horiz-adv-x="1691" d="M317 1030l17 105h661l170 -564l348 564h105l-49 -756h-113l35 551l-305 -494h-88l-146 492l-141 -549h-113l166 651h-205l-104 -651h-111l105 651h-232z" />
<glyph unicode="&#xe000;" horiz-adv-x="993" d="M0 0v993h993v-993h-993z" />
</font>
</defs>
</svg>
