<?xml version="1.0" standalone="no"?>
<!DOCTYPE svg PUBLIC "-//W3C//DTD SVG 1.1//EN" "http://www.w3.org/Graphics/SVG/1.1/DTD/svg11.dtd" >
<svg xmlns="http://www.w3.org/2000/svg">
<metadata></metadata>
<defs>
<font id="kyrial_display_prolight" horiz-adv-x="1636" >
<font-face units-per-em="2048" ascent="1536" descent="-512" />
<missing-glyph horiz-adv-x="479" />
<glyph unicode="&#xfb01;" horiz-adv-x="1146" d="M59 893v98h181v172q0 47 8 86.5t20 67.5t33 50.5t39.5 36.5t48 24t49.5 15t52 7.5t49 3t47 0.5h102v-106h-129q-110 0 -155.5 -45.5t-45.5 -147.5v-164h627v-991h-121v893h-506v-893h-118v893h-181zM848 1313q0 71 76 71q75 0 75 -71q0 -72 -75 -72q-38 0 -57 20.5 t-19 51.5z" />
<glyph unicode="&#xfb02;" horiz-adv-x="1236" d="M59 893v98h181v172q0 47 8 86.5t20 67.5t33 50.5t39.5 36.5t48 24t49.5 15t52 7.5t49 3t47 0.5h102v-106h-129q-110 0 -155.5 -45.5t-45.5 -147.5v-164h285v-98h-285v-893h-118v893h-181zM848 268q0 -83 19.5 -136.5t65 -84.5t110 -43t163.5 -12v117q-130 0 -184.5 33.5 t-54.5 125.5v1186h-119v-1186z" />
<glyph unicode="&#xfb03;" horiz-adv-x="1843" d="M59 893v98h181v172q0 47 8 86.5t20 67.5t33 50.5t39.5 36.5t48 24t49.5 15t52 7.5t49 3t47 0.5h102v-106h-129q-110 0 -155.5 -45.5t-45.5 -147.5v-164h578v172q0 47 8 86.5t20 67.5t33 50.5t39.5 36.5t48 24t49.5 15t52 7.5t49 3t47 0.5h102v-106h-129 q-110 0 -155 -45.5t-45 -147.5v-164h626v-991h-120v893h-506v-893h-119v893h-578v-893h-118v893h-181zM1544 1313q0 71 76 71t76 -71q0 -72 -76 -72q-38 0 -57 20.5t-19 51.5z" />
<glyph unicode="&#xfb04;" horiz-adv-x="1933" d="M59 893v98h181v172q0 47 8 86.5t20 67.5t33 50.5t39.5 36.5t48 24t49.5 15t52 7.5t49 3t47 0.5h102v-106h-129q-110 0 -155.5 -45.5t-45.5 -147.5v-164h578v172q0 47 8 86.5t20 67.5t33 50.5t39.5 36.5t48 24t49.5 15t52 7.5t49 3t47 0.5h102v-106h-129 q-110 0 -155 -45.5t-45 -147.5v-164h284v-98h-284v-893h-119v893h-578v-893h-118v893h-181zM1544 268q0 -83 19.5 -136.5t65.5 -84.5t110.5 -43t163.5 -12v117q-130 0 -185 33.5t-55 125.5v1186h-119v-1186z" />
<glyph horiz-adv-x="2048" />
<glyph horiz-adv-x="2048" />
<glyph unicode="&#xd;" horiz-adv-x="2048" />
<glyph unicode=" "  horiz-adv-x="479" />
<glyph unicode="&#x09;" horiz-adv-x="479" />
<glyph unicode="&#xa0;" horiz-adv-x="479" />
<glyph unicode="!" horiz-adv-x="471" d="M158 55q0 37 15.5 57.5t59.5 20.5q46 0 62 -20.5t16 -57.5q0 -75 -78 -75q-75 0 -75 75zM180 1413h117l-14 -1085h-93z" />
<glyph unicode="&#x22;" horiz-adv-x="620" d="M141 1413h111l-12 -500h-86zM369 1413h110l-12 -500h-86z" />
<glyph unicode="#" horiz-adv-x="1439" d="M92 446l27 119h289l67 275h-289l29 118h289q16 62 53.5 222t56.5 233h123l-110 -455h299q20 80 59.5 245.5t50.5 209.5h123l-110 -455h299l-29 -118h-299l-68 -275h299l-26 -119h-301l-109 -446h-123l109 446h-299l-111 -446h-121l109 446h-287zM530 565h301l66 275h-299 z" />
<glyph unicode="$" horiz-adv-x="1161" d="M126 1036l1 15q5 157 108 255t302 121v168h112v-161h2q145 0 348 -70v-129q-79 30 -180.5 53t-167.5 23q-194 0 -293.5 -71t-105.5 -198q0 -7 0.5 -18t10.5 -42.5t28.5 -59.5t62 -59.5t103.5 -51.5l80 -25q61 -19 100 -32t91 -32.5t85 -35t72.5 -37.5t63.5 -43t48.5 -49 t37.5 -58.5t20.5 -67.5t5.5 -79q-10 -182 -117 -268.5t-295 -99.5v-197h-112v193q-88 4 -209 34t-197 66v135l47 -27q76 -33 191 -60.5t188 -27.5q167 0 269.5 65.5t109.5 196.5q-1 45 -24 83.5t-57 66.5t-95 57t-114.5 49t-139.5 48l-86 26q-64 21 -114.5 52.5t-80.5 64.5 t-51.5 68t-30 65.5t-13 55t-4.5 38.5z" />
<glyph unicode="%" horiz-adv-x="1441" d="M100 0l1129 1411h112l-1128 -1411h-113zM123 1120q0 81 26.5 144.5t71 99t95 53.5t104.5 17q58 0 108.5 -15.5t95.5 -49.5t71 -97.5t26 -149.5q0 -152 -82 -232.5t-219 -80.5q-54 -1 -104.5 16.5t-95 52.5t-71 98t-26.5 144zM242 1120q0 -99 53.5 -146.5t124.5 -45.5 q83 0 132.5 49.5t49.5 144.5q0 101 -53 147t-129 46q-70 2 -124 -47t-54 -148zM721 289q0 81 26.5 144t70.5 99t94.5 53.5t105.5 16.5q46 0 87 -9t80.5 -31t68 -56.5t46 -89.5t17.5 -125q0 -152 -81.5 -231.5t-217.5 -79.5q-55 -1 -105.5 16.5t-94.5 52.5t-70.5 97 t-26.5 143zM840 289q0 -98 53 -145.5t125 -45.5q83 0 131.5 49t48.5 144q0 54 -15.5 93t-42.5 59.5t-57 30t-65 9.5q-72 2 -125 -46.5t-53 -147.5z" />
<glyph unicode="&#x26;" horiz-adv-x="1349" d="M168 354q0 98 16 160q37 137 138 191q-38 22 -67.5 54t-44.5 64.5t-26 68t-12.5 64t-3.5 51.5t0 31v4q6 176 125.5 278.5t343.5 102.5q100 0 211 -19.5t153 -37.5v-123q-61 23 -167 42.5t-197 19.5q-167 0 -256 -71.5t-94 -195.5q0 -15 1.5 -33.5t12.5 -61t30.5 -76.5 t61.5 -65.5t99 -41.5h811v-117h-246v-528q-105 -68 -222.5 -103t-197.5 -35q-224 0 -343.5 101t-125.5 276zM287 358q5 -122 94 -192t256 -70q61 0 149.5 23t149.5 57v467h-444q-44 -6 -78.5 -25t-55.5 -40.5t-36 -54t-21.5 -54t-10 -53t-3.5 -37.5v-21z" />
<glyph unicode="'" horiz-adv-x="393" d="M141 1413h111l-12 -500h-86z" />
<glyph unicode="(" horiz-adv-x="735" d="M109 510q0 426 152 675t405 249v-115q-196 -5 -317.5 -223.5t-121.5 -585.5q0 -240 56 -425.5t156 -287.5t227 -106v-115h-33q-155 0 -274 115.5t-184.5 328t-65.5 490.5z" />
<glyph unicode=")" horiz-adv-x="735" d="M70 -309q127 4 226.5 106t155.5 287.5t56 425.5q0 367 -121 585.5t-317 223.5v115q253 0 405 -249t152 -675q0 -278 -65.5 -490.5t-185 -328t-274.5 -115.5h-32v115z" />
<glyph unicode="*" horiz-adv-x="964" d="M113 1028v115l272 -4l-139 237l104 56l133 -244l131 246l105 -58l-139 -237l272 4v-115l-272 4l139 -237l-105 -56l-131 238l-133 -240l-104 58l139 237z" />
<glyph unicode="+" horiz-adv-x="1110" d="M102 510v117h394v395h116v-395h396v-117h-396v-393h-116v393h-394z" />
<glyph unicode="," horiz-adv-x="434" d="M29 -236l153 418h117l-162 -418h-108z" />
<glyph unicode="-" horiz-adv-x="929" d="M145 520v115h639v-115h-639z" />
<glyph unicode="." horiz-adv-x="428" d="M137 55q0 37 16 57.5t60 20.5q46 0 62 -20.5t16 -57.5q0 -75 -78 -75q-76 0 -76 75z" />
<glyph unicode="/" horiz-adv-x="854" d="M82 0l571 1415h121l-571 -1415h-121z" />
<glyph unicode="0" horiz-adv-x="1286" d="M117 688q0 151 30.5 274t81.5 204t120 136t142.5 79t151.5 24t151 -24t142 -79t120 -136t82 -204t31 -274q0 -323 -144 -515.5t-382 -192.5q-240 0 -383 192t-143 516zM236 688q0 -270 110.5 -430t296.5 -160q185 0 297.5 160.5t112.5 429.5q0 126 -24 228.5t-64 170 t-93.5 113.5t-110.5 66t-118 20t-118 -20t-110 -66t-92.5 -113.5t-63 -170t-23.5 -228.5z" />
<glyph unicode="1" horiz-adv-x="845" d="M102 0v115h289v1120l-287 -180v135l304 194h104v-1269h287v-115h-697z" />
<glyph unicode="2" horiz-adv-x="1062" d="M80 0v104l647 705q104 132 104 227q0 118 -90 184t-260 66q-84 0 -183 -31.5t-175 -80.5v131q165 100 358 100q225 0 347 -98.5t122 -268.5q0 -24 -0.5 -36t-9 -48.5t-24 -69t-50.5 -84.5t-84 -108l-530 -573h700v-119h-872z" />
<glyph unicode="3" horiz-adv-x="1077" d="M115 41v111q73 -22 185.5 -39t178.5 -17q167 0 255.5 70t94.5 192v-2q0 172 -106 240q-42 27 -98 35h-293v114h293q43 7 77.5 25.5t55.5 40t36 52.5t21.5 52t10 50t3.5 35.5v19.5q-6 124 -94.5 195t-255.5 71q-97 0 -203 -15t-161 -36v113q42 18 153 37.5t211 19.5 q224 0 343.5 -102.5t125.5 -278.5q0 -14 -1 -27t-5.5 -50.5t-17.5 -70.5t-33 -70t-56.5 -66.5t-84.5 -45.5q42 -16 76 -44t54 -54.5t34.5 -64.5t21 -60.5t9.5 -57t3 -39v-20.5q-6 -175 -125.5 -276t-343.5 -101q-123 0 -364 64z" />
<glyph unicode="4" horiz-adv-x="1189" d="M51 330v90l735 964h119v-935h221v-119h-221v-330h-119v330h-735zM199 449h587v757z" />
<glyph unicode="5" horiz-adv-x="1144" d="M111 51v123q272 -76 446 -76q167 0 272 92t105 232q0 18 -1 33t-7.5 50t-18.5 62.5t-37.5 61t-60 56.5t-91 38.5t-126.5 15.5h-445l60 645h766v-116h-658l-39 -410h316q94 0 170 -21.5t123 -52.5t81.5 -77.5t50.5 -84.5t25 -86t10 -68.5t1 -45.5q0 -192 -137.5 -317 t-358.5 -125q-183 0 -446 71z" />
<glyph unicode="6" horiz-adv-x="1191" d="M117 520q0 428 162.5 656.5t453.5 228.5q127 0 250 -43v-117q-117 41 -250 41q-203 0 -335.5 -159t-159.5 -457q59 100 165.5 153.5t225.5 53.5q97 0 177.5 -26t135 -69.5t92.5 -102.5t55 -123t17 -132q0 -208 -126 -326t-353 -118q-111 0 -202 31t-161 94.5t-108.5 169 t-38.5 245.5zM236 514q0 -108 29.5 -189t83.5 -130t123.5 -73t154.5 -24q171 0 265.5 86.5t94.5 239.5q0 64 -21.5 122t-63.5 106t-112.5 77t-160.5 29q-121 0 -230 -65t-163 -179z" />
<glyph unicode="7" horiz-adv-x="1024" d="M76 1264v120h905v-110l-733 -1274h-135l735 1264h-772z" />
<glyph unicode="8" horiz-adv-x="1191" d="M113 389q0 6 0.5 16t5.5 40.5t13 59t26 64.5t42 64t63 51.5t87 32.5q-56 22 -97.5 62t-61 81t-31 79t-13.5 63l-2 24q0 69 26.5 134.5t76 120t130 88.5t179.5 36h78q99 -2 179.5 -36t130 -88.5t76 -120t26.5 -134.5q0 -9 -1.5 -25t-13.5 -60.5t-31.5 -82t-61 -78.5 t-97.5 -63q48 -9 87 -32t63 -52.5t42 -63t26 -65.5t13 -58t5 -42l1 -15q0 -76 -31 -147.5t-87.5 -129.5t-145 -94t-194.5 -38h-50q-106 2 -194.5 38t-145 94t-87.5 129.5t-31 147.5zM231 391q3 -113 95.5 -201.5t246.5 -91.5h45q154 3 247 91.5t96 201.5v15.5t-5 37.5 t-14.5 54t-32 57t-53.5 53.5t-82.5 38t-116.5 15.5h-122q-65 0 -116.5 -15t-82.5 -39t-53.5 -53t-32 -57.5t-14.5 -52.5t-5 -39v-15zM264 1026q0 -5 0.5 -14.5t6 -35.5t15 -50t29.5 -53.5t47 -50.5t71.5 -35.5t98.5 -14.5h127q54 0 98.5 14t71.5 36.5t47.5 49.5t30 54 t15 49.5t6.5 36.5v14q0 47 -18.5 91.5t-53.5 82t-92.5 61t-128.5 25.5h-78q-71 -2 -128.5 -25.5t-92.5 -61t-53.5 -82t-18.5 -91.5z" />
<glyph unicode="9" horiz-adv-x="1191" d="M86 961q0 208 126 326t353 118q111 0 202 -31.5t161 -95t108.5 -169t38.5 -245.5q0 -428 -162.5 -656t-453.5 -228q-127 0 -250 43v116q117 -41 250 -41q203 0 335.5 159.5t159.5 457.5q-59 -100 -165.5 -153.5t-225.5 -53.5q-97 0 -177.5 26t-135 69.5t-92.5 102.5 t-55 123t-17 132zM205 961q0 -64 21.5 -122t63.5 -106t112.5 -77t160.5 -29q121 0 230 64.5t163 178.5q0 108 -29.5 189t-83.5 130t-123.5 73t-154.5 24q-171 0 -265.5 -86t-94.5 -239z" />
<glyph unicode=":" horiz-adv-x="444" d="M145 55q0 37 16 57.5t60 20.5q46 0 62 -20.5t16 -57.5q0 -75 -78 -75q-76 0 -76 75zM145 926q0 37 16 57.5t60 20.5q46 0 62 -20.5t16 -57.5q0 -76 -78 -76q-76 0 -76 76z" />
<glyph unicode=";" horiz-adv-x="505" d="M59 -236h109l162 418h-117zM201 926q0 37 15.5 57.5t59.5 20.5q46 0 62 -20.5t16 -57.5q0 -76 -78 -76q-75 0 -75 76z" />
<glyph unicode="&#x3c;" horiz-adv-x="1232" d="M92 502v112l1004 430v-131l-830 -356l830 -354v-131z" />
<glyph unicode="=" horiz-adv-x="1204" d="M160 299v129h884v-129h-884zM160 721v129h884v-129h-884z" />
<glyph unicode="&#x3e;" horiz-adv-x="1232" d="M137 72v131l828 354q-121 53 -260.5 113t-307.5 131.5t-260 111.5v131l1004 -430v-112z" />
<glyph unicode="?" horiz-adv-x="962" d="M106 1225v137q110 61 252 70q221 18 364.5 -95t143.5 -284v-3q0 -17 -0.5 -31.5t-5.5 -50t-14 -65t-29 -69.5t-47 -72t-71 -64t-99 -53q-111 -43 -173 -121.5t-56 -181.5v-14h-121v14q-9 140 72.5 245.5t228.5 168.5q55 24 95 59t58.5 67t28.5 70t11.5 58.5t0.5 42.5 q0 117 -107 194t-271 64q-170 -11 -261 -86zM233 55q0 37 16 57.5t60 20.5q46 0 62 -20.5t16 -57.5q0 -75 -78 -75q-76 0 -76 75z" />
<glyph unicode="@" horiz-adv-x="2058" d="M113 557q0 176 75.5 338t202 279t300 186.5t362.5 69.5q131 0 247.5 -23.5t207 -64.5t165.5 -97t127.5 -120.5t89 -135.5t53.5 -141.5t17 -138.5q0 -139 -35 -249.5t-89.5 -179t-127 -113.5t-142.5 -63t-141 -18q-163 0 -219 129q-62 -46 -144 -73t-147 -27 q-42 0 -83 7.5t-88.5 30t-82 57t-58 95.5t-23.5 139q0 60 16 138q21 103 76.5 187.5t128 136t151.5 79t154 27.5q49 0 109.5 -22t113.5 -66l23 69h104l-145 -669v2q-6 -34 4.5 -59.5t31.5 -38t41 -18t37 -5.5q55 0 109.5 14.5t111 51t99 91.5t69.5 145t27 202 q0 82 -29 164.5t-92.5 161.5t-153 140t-223 98.5t-290.5 37.5q-165 0 -317 -60t-262.5 -160.5t-176.5 -240.5t-66 -293q0 -155 59.5 -294t167 -243.5t269 -165.5t354.5 -61q183 0 375.5 55t323.5 156v-133q-136 -91 -327.5 -144t-371.5 -53q-220 0 -404.5 71t-306.5 192 t-189.5 281t-67.5 339zM698 444q0 -62 21.5 -106.5t56.5 -65.5t69 -30t70 -9q52 0 132 30t151 89l98 473q-120 74 -190 74q-122 0 -240 -93t-153 -245q-15 -77 -15 -117z" />
<glyph unicode="A" horiz-adv-x="1298" d="M55 0q132 410 255.5 736.5t293.5 676.5h90q170 -350 295 -678t256 -735h-127q-115 345 -147 436h-643q-131 -382 -148 -436h-125zM362 539h572q-161 431 -285 694q-134 -283 -287 -694z" />
<glyph unicode="B" horiz-adv-x="1302" d="M201 0v1413h575q35 0 73.5 -8.5t84.5 -33.5t81.5 -63.5t60 -105t24.5 -151.5q0 -36 -9 -79t-27 -89t-52 -86t-78 -60q76 -18 131 -74.5t80.5 -130t25.5 -155.5q0 -191 -112 -284t-309 -93h-549zM322 117h452q121 0 200 65.5t79 194.5q0 68 -20.5 120.5t-51 83t-73 49.5 t-80.5 25.5t-78 6.5h-428v-545zM322 776h415q60 0 107 25t74.5 66t42 88t14.5 96q0 129 -65.5 187t-172.5 58h-415v-520z" />
<glyph unicode="C" horiz-adv-x="1284" d="M119 702q0 171 57.5 311.5t155 231t224.5 140t269 49.5q189 0 367 -37v-121q-183 35 -367 35q-118 0 -223 -41t-186 -116.5t-128.5 -192.5t-47.5 -259q0 -116 32.5 -215t89 -169t132 -120t161 -74t176.5 -24q219 0 361 37v-121q-176 -36 -361 -36q-110 0 -213 29t-194 89 t-158.5 144.5t-107 203t-39.5 256.5z" />
<glyph unicode="D" horiz-adv-x="1406" d="M201 0v1413h450q125 0 237.5 -46.5t201.5 -133t141.5 -224t52.5 -307.5q0 -172 -52.5 -308.5t-141.5 -221t-201 -128.5t-238 -44h-450zM322 117h329q101 0 191.5 37t163 107.5t115 184.5t42.5 256q0 141 -42.5 256t-114.5 187.5t-163.5 111.5t-191.5 39h-329v-1179z" />
<glyph unicode="E" horiz-adv-x="1136" d="M195 256v1157h823v-121h-701v-516h654v-121h-654v-397q1 -75 39 -105t129 -32h533v-121h-533q-155 3 -221 58.5t-69 197.5z" />
<glyph unicode="F" horiz-adv-x="1019" d="M201 0v1413h741v-121h-620v-501h571v-121h-571v-670h-121z" />
<glyph unicode="G" horiz-adv-x="1443" d="M119 702q0 171 60 311.5t162.5 231t235.5 140t281 49.5q183 0 383 -50v-124q-229 51 -383 51q-124 0 -235 -41t-196.5 -116.5t-136 -192.5t-50.5 -259q0 -144 48 -261t128 -190t179.5 -112t207.5 -39q223 0 387 52v376h-377v121h498v-581q-205 -88 -508 -88 q-132 0 -253 47t-218 135t-155 228t-58 312z" />
<glyph unicode="H" horiz-adv-x="1452" d="M201 0v1413h121v-614h806v614h123v-1413h-123v682h-806v-682h-121z" />
<glyph unicode="I" horiz-adv-x="522" d="M201 0v1413h121v-1413h-121z" />
<glyph unicode="J" horiz-adv-x="563" d="M-260 -297q44 -4 162 -4q58 0 104 9t92 35.5t76 70t49 116t19 170.5v1313h120v-1358q0 -117 -30.5 -205t-75.5 -137.5t-109.5 -79.5t-120 -39.5t-118.5 -9.5q-83 0 -168 10v109z" />
<glyph unicode="K" horiz-adv-x="1142" d="M201 0v1413h121v-665q352 344 600 665h151q-296 -384 -655 -737q353 -260 719 -676h-162q-325 362 -653 604v-604h-121z" />
<glyph unicode="L" horiz-adv-x="1079" d="M195 256v1157h120v-1155q3 -76 40.5 -105.5t127.5 -31.5h549v-121h-549q-155 3 -221 58.5t-67 197.5z" />
<glyph unicode="M" horiz-adv-x="1912" d="M145 0l138 1413h127q340 -567 546 -1157q204 586 547 1157h127l137 -1413h-122l-121 1210q-267 -434 -504 -1097h-127q-237 663 -504 1097l-121 -1210h-123z" />
<glyph unicode="N" horiz-adv-x="1437" d="M201 0v1413h102q214 -222 445 -550t366 -634v1184h123v-1413h-127q-178 366 -368.5 667.5t-419.5 546.5v-1214h-121z" />
<glyph unicode="O" d="M121 700q0 154 41 279.5t109 208.5t159 139.5t188 81.5t199 25q103 0 200.5 -25t189 -81.5t159.5 -139.5t109 -208.5t41 -279.5q0 -329 -191.5 -524.5t-509.5 -195.5q-316 0 -505 195.5t-189 524.5zM240 700q0 -267 158.5 -435.5t416.5 -168.5q262 0 422 168t160 436 q0 125 -34 229t-91 174t-132.5 119t-157 71t-165.5 22t-165 -22t-156 -71t-131.5 -119.5t-90.5 -174t-34 -228.5z" />
<glyph unicode="P" horiz-adv-x="1218" d="M201 0v1413h569q59 0 121.5 -26.5t117.5 -74t90.5 -126t35.5 -172.5q0 -101 -27 -179.5t-66.5 -122.5t-92.5 -72.5t-97.5 -38t-87.5 -9.5h-442v-592h-121zM322 713h442q29 0 58.5 6.5t65.5 26.5t62.5 52t45 88t18.5 128q0 66 -24 120.5t-61 88t-78.5 51.5t-80.5 18h-448 v-579z" />
<glyph unicode="Q" d="M121 700q0 154 41 279.5t109 208.5t159 139.5t188 81.5t199 25q103 0 200.5 -25t189 -81.5t159.5 -139.5t109 -208.5t41 -279.5q0 -312 -175 -505t-467 -213q18 -104 82 -147.5t170 -43.5q139 0 248 39v-123q-115 -37 -248 -37q-155 0 -252 76.5t-122 235.5 q-291 25 -461 215.5t-170 502.5zM240 700q0 -267 158.5 -435.5t416.5 -168.5q262 0 422 168t160 436q0 125 -34 229t-91 174t-132.5 119t-157 71t-165.5 22t-165 -22t-156 -71t-131.5 -119.5t-90.5 -174t-34 -228.5z" />
<glyph unicode="R" horiz-adv-x="1265" d="M201 0v1411h540q168 0 277.5 -104t109.5 -293q0 -172 -90.5 -278t-238.5 -120l-43 -2q181 -136 432 -614h-137q-30 59 -67 124.5t-95 154.5t-112 157t-114.5 116t-107.5 48h-231v-600h-123zM324 717h362q320 0 320 297q0 132 -75 207t-192 75h-415v-579z" />
<glyph unicode="S" horiz-adv-x="1163" d="M124 1036l1 15q6 180 138.5 281.5t385.5 101.5q145 0 348 -70v-129q-79 30 -180.5 53t-167.5 23q-194 0 -293.5 -71t-105.5 -198q0 -7 0.5 -18t10.5 -42.5t28.5 -59.5t62 -59.5t103.5 -51.5l80 -25q61 -19 100 -32t91 -32.5t85 -35t72.5 -37.5t63.5 -43t48.5 -49 t37.5 -58.5t21 -67.5q6 -29 5 -62v-17q-5 -84 -31.5 -148t-70 -106t-106.5 -69t-135 -38t-161 -11q-85 0 -214.5 31t-211.5 69v135l47 -27q76 -33 191 -60.5t188 -27.5q167 0 269.5 65.5t109.5 196.5q-1 45 -24 83.5t-57 66.5t-95 57t-114.5 49t-139.5 48l-86 26 q-64 21 -114.5 52.5t-80.5 64.5t-51.5 68t-30 65.5t-13 55t-4.5 38.5z" />
<glyph unicode="T" horiz-adv-x="1126" d="M47 1292v121h1032v-121h-452v-1292h-125v1292h-455z" />
<glyph unicode="U" horiz-adv-x="1466" d="M186 578v835h121v-835q0 -95 17.5 -171t44.5 -125t67 -85t76 -54t82.5 -28.5t75 -12.5t63.5 -2t64 2t75.5 12.5t82.5 29t76 54t66.5 84.5t44 125t17.5 171v835h121v-835q0 -118 -22.5 -213t-57 -156.5t-86 -106.5t-97.5 -67.5t-105.5 -36t-96.5 -16t-82 -2.5 q-44 0 -81.5 2.5t-96.5 16t-105.5 36t-98 67.5t-86 106.5t-57 156.5t-22.5 213z" />
<glyph unicode="V" horiz-adv-x="1210" d="M53 1413h131l422 -1243l424 1243h129l-489 -1413h-129z" />
<glyph unicode="W" horiz-adv-x="2048" d="M57 1413h129l383 -1245q68 291 168.5 550t237.5 533h98q137 -274 237.5 -533t168.5 -550l383 1245h129l-449 -1413h-123q-172 664 -395 1104q-223 -440 -395 -1104h-123z" />
<glyph unicode="X" horiz-adv-x="1126" d="M37 0l452 733l-417 680h139l352 -590l352 590h138l-416 -680l455 -733h-140l-389 645l-391 -645h-135z" />
<glyph unicode="Y" horiz-adv-x="1118" d="M35 1413h137l387 -684l381 684h139l-458 -803v-610h-121v606z" />
<glyph unicode="Z" horiz-adv-x="1243" d="M72 0v104l927 1192h-884v117h1040v-106l-932 -1190h924v-117h-1075z" />
<glyph unicode="[" horiz-adv-x="612" d="M170 -410v1823h367v-104h-246v-1614h246v-105h-367z" />
<glyph unicode="\" horiz-adv-x="854" d="M80 1415h121l571 -1415h-121z" />
<glyph unicode="]" horiz-adv-x="612" d="M76 -305h246v1614h-246v104h366v-1823h-366v105z" />
<glyph unicode="_" horiz-adv-x="1259" d="M129 -86h1001v-115h-1001v115z" />
<glyph unicode="`" horiz-adv-x="890" d="M254 1413h123l145 -258h-121z" />
<glyph unicode="a" horiz-adv-x="1083" d="M94 285q0 148 116.5 227.5t319.5 79.5q60 0 130 -8.5t108 -24.5v33q0 84 -20 146t-55 96.5t-77 50.5t-92 16q-172 0 -358 -78v111q193 82 358 82q76 0 138 -21t114 -68t81.5 -132t29.5 -203v-430q0 -42 23.5 -60.5t57 -14.5t63.5 14.5t50 23.5v-109q-71 -36 -139 -36 q-47 0 -80 10.5t-50.5 30.5t-25 38t-12.5 43q-52 -51 -160 -86.5t-184 -35.5q-336 0 -336 305zM213 285q0 -187 217 -187q79 0 176.5 26.5t161.5 76.5v254q-89 30 -242 30q-146 0 -229.5 -53t-83.5 -147z" />
<glyph unicode="b" horiz-adv-x="1161" d="M166 0v1454h121v-528q137 88 286 88q94 0 179 -32t153 -93t108 -159t40 -220q0 -127 -34.5 -225.5t-85 -154.5t-117.5 -91.5t-124 -47t-112 -11.5q-86 0 -152.5 31t-140.5 91l-13 -102h-108zM287 227q47 -61 134.5 -95t158.5 -34q28 0 57.5 4.5t65.5 16.5t67.5 31.5 t62 51.5t52.5 74t35.5 102t13.5 132q0 92 -31 167.5t-83 122t-115.5 71t-131.5 24.5q-60 0 -140.5 -22t-145.5 -64v-582z" />
<glyph unicode="c" horiz-adv-x="952" d="M106 496q1 121 43 221t109 164t150 98.5t170 34.5q125 0 282 -29v-119q-138 27 -282 27q-65 0 -126.5 -26.5t-112 -75.5t-81 -126.5t-31.5 -170.5v2q0 -93 31 -170.5t81 -126t112 -75t127 -26.5q170 0 282 25v-119q-128 -27 -282 -27q-87 0 -170.5 34.5t-151 98 t-109 164.5t-41.5 222z" />
<glyph unicode="d" horiz-adv-x="1214" d="M109 510q0 122 40 220t107.5 159t152.5 93t179 32q149 0 286 -88v528h121v-1292q0 -42 23.5 -60.5t57.5 -14.5t64 14.5t50 23.5v-109q-71 -36 -139 -36q-47 0 -80 10.5t-50.5 30.5t-25 38t-12.5 43q-72 -58 -143 -90t-158 -32q-55 0 -112 11.5t-124 47t-117.5 91.5 t-85 154.5t-34.5 225.5zM227 510q0 -99 26 -176t64 -120t88.5 -70.5t92.5 -36.5t84 -9q71 0 158 34t134 95v582q-65 42 -145.5 64t-140.5 22q-68 0 -131.5 -24.5t-115.5 -71t-83 -122t-31 -167.5z" />
<glyph unicode="e" horiz-adv-x="1118" d="M109 504q0 119 38 217.5t102 161.5t146.5 97t173.5 34q214 0 335.5 -152t123.5 -416h-799q6 -89 36 -157.5t78.5 -110.5t110 -63t134.5 -21q191 3 356 45v-112q-199 -45 -356 -47q-104 0 -189.5 30.5t-151 92.5t-102 164t-36.5 237zM229 545h676q-17 159 -107 254.5 t-229 95.5q-131 0 -229 -95t-111 -255z" />
<glyph unicode="f" horiz-adv-x="698" d="M59 893v98h181v172q0 47 8 86.5t20 67.5t33 50.5t39.5 36.5t48 24t49.5 15t52 7.5t49 3t47 0.5h102v-106h-129q-110 0 -155.5 -45.5t-45.5 -147.5v-164h285v-98h-285v-893h-118v893h-181z" />
<glyph unicode="g" horiz-adv-x="1163" d="M111 481q0 127 34.5 225.5t85 154.5t118 92t124.5 47.5t113 11.5q71 0 152.5 -29t140.5 -84l12 92h106v-1128q0 -79 -33.5 -137t-94.5 -91t-135 -48t-165 -15q-104 0 -272 41v121q172 -43 272 -43q89 0 155.5 16t110.5 56t44 102v186q-135 -74 -279 -74 q-88 0 -173.5 32.5t-156.5 93t-115 159t-44 219.5zM229 481q0 -93 33 -168.5t87.5 -121.5t119 -70.5t131.5 -24.5q60 0 136 21.5t143 64.5v592q-45 45 -138 82t-155 37q-42 0 -84.5 -9t-93 -36.5t-89 -70.5t-64.5 -120t-26 -176z" />
<glyph unicode="h" horiz-adv-x="1144" d="M166 0v1454h119v-555q72 56 156 85.5t155 29.5q393 0 393 -404v-610h-119v610q0 287 -274 287q-63 0 -146.5 -27t-164.5 -77v-793h-119z" />
<glyph unicode="i" horiz-adv-x="452" d="M150 1313q0 71 75 71q76 0 76 -71q0 -72 -76 -72q-38 0 -56.5 20t-18.5 52zM166 0v991h121v-991h-121z" />
<glyph unicode="j" horiz-adv-x="448" d="M-94 -317q48 2 86 7.5t64.5 16t46 20.5t31 26.5t18.5 28.5t10 33t3.5 33t0.5 35v1108h117v-1120q0 -159 -92 -226t-285 -67v105zM147 1313q0 71 76 71t76 -71q0 -72 -76 -72q-39 0 -57.5 20t-18.5 52z" />
<glyph unicode="k" horiz-adv-x="929" d="M166 0v1454h121v-831q73 75 338 368h157q-12 -14 -60.5 -68.5t-73 -81.5t-70.5 -78t-76 -83t-66 -69t-63 -62q337 -256 551 -549h-148q-172 221 -489 461v-461h-121z" />
<glyph unicode="l" horiz-adv-x="552" d="M164 268v1186h119v-1186q0 -92 54.5 -125.5t184.5 -33.5v-117q-99 0 -163.5 12t-110 43t-65 84.5t-19.5 136.5z" />
<glyph unicode="m" horiz-adv-x="1865" d="M166 0v991h106l13 -92q177 115 319 115q46 0 77 -2t72 -9.5t71 -21.5t62.5 -40.5t59.5 -63.5q66 59 137.5 91.5t119 39t110.5 6.5q56 0 100.5 -6t92.5 -22.5t82.5 -49.5t63.5 -82t43.5 -125.5t14.5 -175.5v-553h-121v553q0 88 -15.5 152.5t-40.5 101.5t-62.5 58.5 t-74 28.5t-83.5 7q-201 0 -320 -143v-758h-121v733q0 86 -73.5 126t-194.5 40q-72 0 -162.5 -32.5t-156.5 -92.5v-774h-119z" />
<glyph unicode="n" horiz-adv-x="1144" d="M166 0v991h104l13 -94q51 48 146 82.5t167 34.5q393 0 393 -404v-610h-119v610q0 287 -274 287q-63 0 -146.5 -27t-164.5 -77v-793h-119z" />
<glyph unicode="o" horiz-adv-x="1226" d="M109 496q0 131 39.5 232t109 163t159.5 93.5t197 31.5q106 0 195.5 -31.5t159.5 -93.5t109.5 -163.5t39.5 -231.5t-39.5 -231t-109.5 -162t-159.5 -92t-195.5 -31q-107 0 -197 31t-159.5 92t-109 162t-39.5 231zM227 496q0 -198 108.5 -302t278.5 -104q169 0 277 104 t108 302t-108 303.5t-277 105.5q-82 0 -151.5 -25.5t-122.5 -75t-83 -128.5t-30 -180z" />
<glyph unicode="p" horiz-adv-x="1161" d="M166 -410v1403h108l13 -102q74 60 140.5 91.5t152.5 31.5q55 0 112 -11.5t124 -47.5t117.5 -92t85 -154.5t34.5 -225.5q0 -98 -26.5 -181t-72 -141.5t-106.5 -100t-130.5 -61t-144.5 -19.5q-149 0 -286 88v-478h-121zM287 184q65 -42 145.5 -64t140.5 -22 q68 0 131.5 24.5t115.5 71t83 122t31 167.5q0 72 -13.5 132t-35.5 102t-52.5 74t-62 51.5t-67.5 31.5t-65.5 16.5t-57.5 4.5q-71 0 -158.5 -34t-134.5 -95v-582z" />
<glyph unicode="q" horiz-adv-x="1161" d="M109 483q0 127 34.5 225.5t85 154.5t117.5 92t124 47.5t112 11.5q86 0 151.5 -31.5t140.5 -91.5l13 102h108v-1403h-121v478q-137 -88 -286 -88q-94 0 -179 32t-152.5 92.5t-107.5 158.5t-40 220zM227 483q0 -92 31 -167.5t83 -122t115.5 -71t131.5 -24.5q60 0 140.5 22 t145.5 64v582q-47 61 -134 95t-158 34q-42 0 -84 -9t-92.5 -36.5t-88.5 -70.5t-64 -120t-26 -176z" />
<glyph unicode="r" horiz-adv-x="727" d="M166 0v991h108l5 -102q64 54 154.5 89.5t160.5 35.5q41 0 74 -4v-113q-24 2 -48 2q-70 0 -136 -18q-88 -24 -201 -88v-793h-117z" />
<glyph unicode="s" horiz-adv-x="911" d="M104 741q3 132 106 207q92 67 264 67q21 0 42 -1q43 -1 118 -17t126 -34v-121q-47 18 -127.5 33.5t-122.5 17.5q-16 1 -32 1q-118 0 -180 -40q-72 -46 -73 -127q0 -4 0.5 -10t7 -22t18 -30t36.5 -30.5t59 -28.5l100 -33q44 -13 68.5 -21t62.5 -21.5t59.5 -24t51 -26.5 t46 -32t35 -38.5t28 -46.5t15.5 -55q5 -27 5 -56v-10q-4 -46 -15 -83t-30 -64t-40.5 -47t-53 -32.5t-60 -20.5t-69.5 -12t-73.5 -5t-78.5 -1q-60 0 -136 17t-134 45v125q70 -36 143.5 -54t126.5 -18q52 0 89 2.5t77.5 12t66.5 25.5t44.5 45.5t21.5 70.5q0 30 -8.5 54.5 t-30 44.5t-42 34t-60.5 29.5t-66.5 24t-78.5 24.5l-103 33q-57 18 -98 48.5t-60.5 58t-30.5 62t-12.5 50t-1.5 30.5z" />
<glyph unicode="t" horiz-adv-x="655" d="M55 893v98h181v256l118 37v-293h238v-98h-238v-617q0 -34 2.5 -54.5t15.5 -47t38 -41.5t72 -25.5t114 -11.5v-108q-197 0 -278.5 59t-81.5 219v627h-181z" />
<glyph unicode="u" horiz-adv-x="1198" d="M156 381v610h118v-610q0 -287 277 -287q61 0 145.5 28t163.5 77v792h119v-829q0 -42 23.5 -60.5t57.5 -14.5t64 14.5t50 23.5v-109q-71 -36 -140 -36q-47 0 -80 10.5t-50.5 30.5t-25 38t-12.5 43q-48 -54 -144 -89.5t-171 -35.5q-395 0 -395 404z" />
<glyph unicode="v" horiz-adv-x="997" d="M43 991h131l326 -815l325 815h129l-405 -991h-100z" />
<glyph unicode="w" horiz-adv-x="1646" d="M45 991h127l305 -833l291 786h113l286 -786l308 833h127l-381 -991h-107l-291 780l-291 -780h-108z" />
<glyph unicode="x" horiz-adv-x="972" d="M53 0l361 494l-359 497h146l284 -422l287 422h146l-357 -495l359 -496h-150l-285 418l-282 -418h-150z" />
<glyph unicode="y" horiz-adv-x="1026" d="M43 991h127l346 -862q38 96 106.5 272t125.5 321t106 269h129l-401 -1005l-80 -232q-41 -111 -108 -148q-64 -36 -179 -36h-12h-56v113h56q80 5 123.5 30t70.5 99l58 170z" />
<glyph unicode="z" horiz-adv-x="1048" d="M80 0v106l700 771h-661v114h833v-104l-704 -772h704v-115h-872z" />
<glyph unicode="{" horiz-adv-x="620" d="M82 451v102q52 8 91.5 34.5t39.5 63.5v406q0 166 82.5 263t251.5 110v-109q-63 -6 -107.5 -27.5t-69.5 -58t-35.5 -79.5t-10.5 -99v-406q0 -40 -10.5 -68.5t-30.5 -45t-38 -25.5t-44 -16q26 -9 42 -17t37.5 -24t32.5 -42t11 -61v-407q0 -233 223 -254v-111 q-169 10 -251.5 104.5t-82.5 260.5v407q0 33 -41 62t-90 37z" />
<glyph unicode="|" horiz-adv-x="452" d="M170 -219v1814h113v-1814h-113z" />
<glyph unicode="}" horiz-adv-x="620" d="M74 -309q223 21 223 254v407q0 35 11 61t32.5 42t37.5 24t42 17q-26 7 -44 16t-38 25.5t-30.5 45t-10.5 68.5v406q0 56 -10.5 99t-35.5 79.5t-69.5 58t-107.5 27.5v109q169 -13 251.5 -110t82.5 -263v-406q0 -37 39.5 -63.5t91.5 -34.5v-102q-49 -8 -90 -37t-41 -62v-407 q0 -166 -82.5 -260.5t-251.5 -104.5v111z" />
<glyph unicode="&#xa1;" horiz-adv-x="428" d="M135 940q0 76 76 76q78 0 78 -76q0 -37 -16 -57.5t-62 -20.5q-44 0 -60 20.5t-16 57.5zM158 -418l10 1086h92l14 -1086h-116z" />
<glyph unicode="&#xa2;" horiz-adv-x="1003" d="M115 496q1 111 37.5 206t96.5 158.5t135 102.5t157 49v196h112v-194q63 -3 215 -29v-113q-112 23 -282 23q-138 0 -244 -108.5t-109 -290.5q0 -94 31 -171.5t81.5 -126t112.5 -74.5t128 -26q160 0 282 25v-119q-74 -13 -215 -24v-211h-112v213q-82 9 -157.5 46.5 t-136 100t-96.5 158t-36 209.5z" />
<glyph unicode="&#xa3;" horiz-adv-x="1155" d="M111 0v117h192v516h-180v106h180v228q0 206 139 333t394 127q58 0 149 -12v-119q-82 7 -154 7q-199 0 -301 -98.5t-102 -250.5v-215h264v-106h-264v-516h631v-117h-948z" />
<glyph unicode="&#xa4;" horiz-adv-x="1173" d="M123 1006l86 81l145 -145q97 72 234 72q134 0 233 -74l146 150l82 -84l-150 -152q66 -107 66 -227q0 -130 -68 -230l154 -149l-84 -84l-148 147q-94 -69 -231 -69t-232 69l-147 -149l-84 84l151 149q-67 103 -67 232q0 124 65 229zM328 627q0 -114 71 -190.5t189 -76.5 q117 0 187.5 76.5t70.5 190.5q0 115 -70.5 191.5t-187.5 76.5q-119 0 -189.5 -76t-70.5 -192z" />
<glyph unicode="&#xa5;" horiz-adv-x="1200" d="M88 1384h137l377 -651q217 375 375 651h135l-450 -786v-90h288v-100h-288v-129h288v-101h-288v-178h-117v178h-295v101h295v129h-295v100h295v88q-72 123 -229 394t-228 394z" />
<glyph unicode="&#xa6;" horiz-adv-x="501" />
<glyph unicode="&#xa7;" horiz-adv-x="1110" d="M116 673l1 27q16 115 78 185q-50 90 -42 210l1 9q21 157 135.5 243.5t316.5 86.5q65 0 96 -4q104 -12 240 -62l-6 -123q-154 56 -242 66q-62 4 -84 4q-153 0 -238 -60.5t-100 -169.5q-10 -85 27 -155q50 -75 154 -121l75 -29q216 -94 295 -143q144 -90 172 -206 q14 -55 4 -122q-17 -113 -71 -182q24 -40 33.5 -102t1.5 -121q-47 -322 -422 -322q-55 0 -105 6q-103 5 -295 78l11 131q196 -83 297 -92q58 -4 83 -4q278 0 314 219q6 38 -1.5 81t-25.5 69q-22 26 -52 50t-49.5 38t-71 40t-67.5 33.5t-87 40.5l-121 50q-78 34 -133 86 t-77.5 101t-34 93t-10.5 71zM234 662.5q-1 -11.5 5.5 -43t22.5 -61t56.5 -66t99.5 -62.5h-2l104 -41q234 -101 324 -172q28 51 39 113q4 32 -4.5 61.5t-24 53.5t-47.5 50t-60 44.5t-78 43t-85.5 41t-96.5 42.5l-79 34q-83 37 -136 84q-28 -48 -36 -104q-1 -6 -2 -17.5z" />
<glyph unicode="&#xa8;" horiz-adv-x="882" d="M246 1298q0 74 73 74q76 0 76 -74q0 -69 -76 -69q-37 0 -55 19.5t-18 49.5zM487 1298q0 74 74 74q76 0 76 -74q0 -69 -76 -69q-37 0 -55.5 19.5t-18.5 49.5z" />
<glyph unicode="&#xa9;" horiz-adv-x="1656" d="M125 700q0 154 41 280t109.5 209.5t160.5 140t190.5 81.5t202.5 25q103 0 201 -25t190.5 -81.5t161.5 -140t110.5 -209.5t41.5 -280q0 -327 -194 -523.5t-513 -196.5q-320 2 -511 197t-191 523zM219 700q0 -287 165.5 -456.5t442.5 -171.5q278 0 447.5 171.5t169.5 456.5 q0 135 -36.5 245t-97 182.5t-141 122.5t-166 71.5t-174.5 21.5q-90 0 -175 -21.5t-165 -71.5t-139.5 -122.5t-95 -182.5t-35.5 -245zM430 688q0 133 57.5 232t149 147.5t203.5 48.5q31 0 65 -3.5t54.5 -7t58 -11t49.5 -9.5v-92q-124 21 -227 21q-129 0 -220.5 -88.5 t-91.5 -237.5q0 -150 94.5 -236.5t221.5 -86.5q161 0 223 28v-102q-118 -25 -223 -25q-81 0 -154 27t-131.5 78t-93.5 133t-35 184z" />
<glyph unicode="&#xaa;" horiz-adv-x="817" d="M143 592v88h516v-88h-516zM143 965q0 96 77 147t208 51q74 0 133 -35q0 207 -145 207q-93 0 -226 -49v84q131 55 236 55q102 0 167.5 -65t65.5 -209v-377h-79l-19 57q-34 -34 -92.5 -51.5t-101.5 -17.5q-224 0 -224 203zM238 965q0 -46 32.5 -75.5t96.5 -29.5 q44 0 99.5 17t94.5 47v129l-37 8q-66 12 -96 12q-84 0 -137 -30.5t-53 -77.5z" />
<glyph unicode="&#xab;" horiz-adv-x="894" d="M98 506l262 393h136l-263 -393l263 -393h-136zM391 506l262 393h135l-262 -393l262 -393h-135z" />
<glyph unicode="&#xac;" horiz-adv-x="1292" d="M152 670v116h970v-548h-118v432h-852z" />
<glyph unicode="&#xad;" horiz-adv-x="929" d="M145 520v115h639v-115h-639z" />
<glyph unicode="&#xae;" horiz-adv-x="1656" d="M125 700q0 154 41 280t109.5 209.5t160.5 140t190.5 81.5t202.5 25q103 0 201 -25t190.5 -81.5t161.5 -140t110.5 -209.5t41.5 -280q0 -327 -194 -523.5t-513 -196.5q-320 2 -511 197t-191 523zM219 700q0 -287 165.5 -456.5t442.5 -171.5q278 0 447.5 171.5t169.5 456.5 q0 135 -36.5 245t-97 182.5t-141 122.5t-166 71.5t-174.5 21.5q-90 0 -175 -21.5t-165 -71.5t-139.5 -122.5t-95 -182.5t-35.5 -245zM559 299v827h318q103 0 170 -62t67 -179q0 -198 -172 -240q124 -132 203 -346h-111q-20 49 -44 99t-57.5 107.5t-70 93.5t-67.5 36h-138 v-336h-98zM657 733h195q79 0 120.5 39t41.5 113q0 67 -38 106t-95 39h-224v-297z" />
<glyph unicode="&#xaf;" horiz-adv-x="903" d="M246 1262v106h411v-106h-411z" />
<glyph unicode="&#xb0;" horiz-adv-x="749" d="M106 1165q0 111 77 190t190 79q116 0 193 -78.5t77 -190.5t-77 -190t-193 -78q-113 0 -190 78.5t-77 189.5zM225 1165q0 -63 42.5 -106t105.5 -43q65 0 108 43t43 106q0 64 -43 107t-108 43q-63 0 -105.5 -43.5t-42.5 -106.5z" />
<glyph unicode="&#xb1;" horiz-adv-x="1191" d="M143 0v111h906v-111h-906zM143 641v117h394v393h116v-393h396v-117h-396v-395h-116v395h-394z" />
<glyph unicode="&#xb2;" horiz-adv-x="708" d="M74 950v76l379 406q45 51 45 114q0 55 -44.5 87t-129.5 32q-117 0 -207 -53v106q40 24 97.5 39t109.5 15q138 0 212 -60.5t74 -165.5q0 -95 -71 -166l-306 -327h369v-103h-528z" />
<glyph unicode="&#xb3;" horiz-adv-x="696" d="M96 977v100q116 -41 205 -41q84 0 129 37t45 96q0 12 -3 28.5t-11 41t-28.5 43t-49.5 23.5h-152v92h148q31 9 52 29t29.5 44t11.5 39.5t3 26.5q0 59 -45.5 97t-128.5 38t-205 -43v103q97 41 205 41q137 0 210 -64t75 -172q0 -11 -2.5 -28t-11.5 -49.5t-33.5 -61.5 t-61.5 -45q34 -11 58 -37t34 -57t13.5 -52t3.5 -37q0 -107 -73.5 -170t-211.5 -63q-92 0 -205 41z" />
<glyph unicode="&#xb4;" horiz-adv-x="882" d="M246 1155l145 258h123l-147 -258h-121z" />
<glyph unicode="&#xb6;" horiz-adv-x="878" d="M94 1155q0 106 75 182t181 76h326v-1646h-109v1538h-141v-1538h-109v1134q-92 15 -157.5 88t-65.5 166z" />
<glyph unicode="&#xb7;" horiz-adv-x="446" d="M145 633q0 78 78 78t78 -78q0 -76 -78 -76t-78 76z" />
<glyph unicode="&#xb8;" horiz-adv-x="1056" d="M328 -268q55 -27 166 -41q53 -6 84.5 20.5t31.5 67.5q0 67 -27.5 121t-90.5 127h88q63 -40 106 -108t43 -140q0 -96 -67.5 -156t-180.5 -51q-66 5 -153 45v115z" />
<glyph unicode="&#xb9;" horiz-adv-x="583" d="M96 954v90h162v594l-160 -100v104l187 119h84v-717h161v-90h-434z" />
<glyph unicode="&#xba;" horiz-adv-x="892" d="M125 1092q0 164 89.5 248.5t231.5 84.5q141 0 231.5 -84.5t90.5 -248.5q0 -84 -25.5 -148.5t-70 -103.5t-101.5 -58.5t-125 -19.5q-142 0 -231.5 82.5t-89.5 247.5zM186 592v88h516v-88h-516zM221 1092q0 -113 63 -174.5t162 -61.5q97 0 160.5 62t63.5 174 q0 114 -63 173.5t-161 59.5q-100 0 -162.5 -59t-62.5 -174z" />
<glyph unicode="&#xbb;" horiz-adv-x="894" d="M106 113l263 393l-263 393h136l262 -393l-262 -393h-136zM399 113l263 393l-263 393h136l262 -393l-262 -393h-136z" />
<glyph unicode="&#xbc;" horiz-adv-x="1552" d="M119 606v90h162v594l-160 -100v104l186 119h84v-717h162v-90h-434zM438 0l572 1413h104l-571 -1413h-105zM819 184h412v-184h110v184h113v103h-113v520h-96l-426 -545v-78zM950 287l281 360v-360h-281z" />
<glyph unicode="&#xbd;" horiz-adv-x="1591" d="M115 606v90h161v594l-159 -100v104l186 119h84v-717h162v-90h-434zM434 0l572 1413h104l-571 -1413h-105zM952 0v76l379 405q45 51 45 115q0 55 -44.5 87t-129.5 32q-117 0 -207 -53v106q40 23 97.5 38t109.5 15q139 0 213 -60t74 -165q0 -15 -2.5 -34t-20.5 -60t-49 -72 l-305 -328h369v-102h-529z" />
<glyph unicode="&#xbe;" horiz-adv-x="1599" d="M117 629v100q116 -41 205 -41q84 0 129 37t45 96q0 18 -4.5 42t-27.5 55.5t-61 37.5h-151v93h147q31 9 52 29t30 44t12 39.5t3 26.5q0 59 -45.5 97t-128.5 38t-205 -43v102q97 41 205 41q137 0 209.5 -63.5t74.5 -171.5q0 -8 -1 -19t-7 -36.5t-16 -47.5t-32 -45t-52 -36 q34 -11 57.5 -37t33.5 -57t13.5 -52t3.5 -37q0 -107 -73 -170t-211 -63q-92 0 -205 41zM485 0l572 1413h104l-571 -1413h-105zM866 184v78l426 545h97v-520h112v-103h-112v-184h-111v184h-412zM997 287h281v360z" />
<glyph unicode="&#xbf;" horiz-adv-x="944" d="M88 -46q0 17 0.5 31t5.5 48.5t14 63.5t29 67.5t47 70t71 63t99 52.5q111 43 173.5 121.5t56.5 181.5v15h121v-15q9 -140 -73 -245t-229 -168q-55 -24 -95 -58.5t-58.5 -65t-28.5 -67.5t-11.5 -57t-0.5 -41q0 -117 107.5 -194t271.5 -64q169 11 260 86v-137 q-110 -61 -252 -70q-221 -18 -364.5 95t-143.5 284v3zM567 940q0 76 78 76q76 0 76 -76q0 -37 -16 -57.5t-60 -20.5q-46 0 -62 20.5t-16 57.5z" />
<glyph unicode="&#xc0;" horiz-adv-x="1298" d="M55 0q132 410 255.5 736.5t293.5 676.5h90q170 -350 295 -678t256 -735h-127q-115 345 -147 436h-643q-131 -382 -148 -436h-125zM362 539h572q-161 431 -285 694q-134 -283 -287 -694zM434 1835h123l145 -258h-120z" />
<glyph unicode="&#xc1;" horiz-adv-x="1298" d="M55 0q132 410 255.5 736.5t293.5 676.5h90q170 -350 295 -678t256 -735h-127q-115 345 -147 436h-643q-131 -382 -148 -436h-125zM362 539h572q-161 431 -285 694q-134 -283 -287 -694zM600 1577l145 258h123l-147 -258h-121z" />
<glyph unicode="&#xc2;" horiz-adv-x="1298" d="M55 0q132 410 255.5 736.5t293.5 676.5h90q170 -350 295 -678t256 -735h-127q-115 345 -147 436h-643q-131 -382 -148 -436h-125zM362 539h572q-161 431 -285 694q-134 -283 -287 -694zM385 1577l215 258h100l215 -258h-120l-146 160l-143 -160h-121z" />
<glyph unicode="&#xc3;" horiz-adv-x="1298" d="M55 0q132 410 255.5 736.5t293.5 676.5h90q170 -350 295 -678t256 -735h-127q-115 345 -147 436h-643q-131 -382 -148 -436h-125zM362 539h572q-161 431 -285 694q-134 -283 -287 -694zM403 1655q22 170 168 170q38 0 117 -41q8 -4 19 -11t18 -10.5t12 -3.5q16 0 32.5 20 t23.5 54h104q-18 -98 -53.5 -137t-87.5 -39q-39 0 -119 41q-48 24 -66 24q-21 0 -41 -19t-24 -48h-103z" />
<glyph unicode="&#xc4;" horiz-adv-x="1298" d="M55 0q132 410 255.5 736.5t293.5 676.5h90q170 -350 295 -678t256 -735h-127q-115 345 -147 436h-643q-131 -382 -148 -436h-125zM362 539h572q-161 431 -285 694q-134 -283 -287 -694zM455 1720q0 74 73 74q76 0 76 -74q0 -69 -76 -69q-37 0 -55 19.5t-18 49.5z M696 1720q0 74 74 74q76 0 76 -74q0 -69 -76 -69q-37 0 -55.5 19.5t-18.5 49.5z" />
<glyph unicode="&#xc5;" horiz-adv-x="1298" d="M55 0q132 410 255.5 736.5t293.5 676.5h90q170 -350 295 -678t256 -735h-127q-115 345 -147 436h-643q-131 -382 -148 -436h-125zM362 539h572q-161 431 -285 694q-134 -283 -287 -694zM465 1757q0 95 51.5 137.5t132.5 42.5q82 0 133.5 -42t51.5 -138 q0 -93 -52.5 -136.5t-132.5 -43.5t-132 43.5t-52 136.5zM545 1757q0 -53 29 -77.5t75 -24.5t75.5 24.5t29.5 77.5q0 103 -105 103q-46 0 -75 -24t-29 -79z" />
<glyph unicode="&#xc6;" horiz-adv-x="1818" d="M59 0q113 391 230 722t278 689h1135v-121h-701v-499h652v-121h-652v-410q1 -77 39 -107t129 -32h533v-121h-533q-155 3 -221 58.5t-69 197.5v180h-564q-65 -204 -133 -436h-123zM354 553h525v737h-236q-163 -364 -289 -737z" />
<glyph unicode="&#xc7;" horiz-adv-x="1284" d="M119 702q0 171 57.5 311.5t155 231t224.5 140t269 49.5q189 0 367 -37v-121q-183 35 -367 35q-118 0 -223 -41t-186 -116.5t-128.5 -192.5t-47.5 -259q0 -116 32.5 -215t89 -169t132 -120t161 -74t176.5 -24q219 0 361 37v-121q-176 -36 -358 -36q92 -92 92 -201 q0 -96 -67.5 -156t-180.5 -51q-67 5 -154 45v115q55 -27 166 -41q53 -6 85 20.5t32 67.5q0 57 -20.5 104.5t-65.5 104.5q-122 16 -229 70t-191 141.5t-133 217.5t-49 285z" />
<glyph unicode="&#xc8;" horiz-adv-x="1136" d="M195 256v1157h823v-121h-701v-516h654v-121h-654v-397q1 -75 39 -105t129 -32h533v-121h-533q-155 3 -221 58.5t-69 197.5zM403 1835h123l146 -258h-121z" />
<glyph unicode="&#xc9;" horiz-adv-x="1136" d="M195 256v1157h823v-121h-701v-516h654v-121h-654v-397q1 -75 39 -105t129 -32h533v-121h-533q-155 3 -221 58.5t-69 197.5zM469 1577l145 258h123l-147 -258h-121z" />
<glyph unicode="&#xca;" horiz-adv-x="1136" d="M195 256v1157h823v-121h-701v-516h654v-121h-654v-397q1 -75 39 -105t129 -32h533v-121h-533q-155 3 -221 58.5t-69 197.5zM299 1577l215 258h100l215 -258h-120l-146 160l-143 -160h-121z" />
<glyph unicode="&#xcb;" horiz-adv-x="1136" d="M195 256v1157h823v-121h-701v-516h654v-121h-654v-397q1 -75 39 -105t129 -32h533v-121h-533q-155 3 -221 58.5t-69 197.5zM369 1720q0 74 73 74q76 0 76 -74q0 -69 -76 -69q-37 0 -55 19.5t-18 49.5zM610 1720q0 74 74 74q76 0 76 -74q0 -69 -76 -69q-37 0 -55.5 19.5 t-18.5 49.5z" />
<glyph unicode="&#xcc;" horiz-adv-x="522" d="M57 1835h123l146 -258h-121zM201 0v1413h121v-1413h-121z" />
<glyph unicode="&#xcd;" horiz-adv-x="522" d="M197 1577l145 258h123l-148 -258h-120zM201 0v1413h121v-1413h-121z" />
<glyph unicode="&#xce;" horiz-adv-x="522" d="M-4 1577l215 258h100l215 -258h-120l-146 160l-143 -160h-121zM201 0v1413h121v-1413h-121z" />
<glyph unicode="&#xcf;" horiz-adv-x="522" d="M66 1720q0 74 73 74q76 0 76 -74q0 -69 -76 -69q-37 0 -55 19.5t-18 49.5zM201 0v1413h121v-1413h-121zM307 1720q0 74 74 74q76 0 76 -74q0 -69 -76 -69q-37 0 -55.5 19.5t-18.5 49.5z" />
<glyph unicode="&#xd0;" horiz-adv-x="1419" d="M59 684v104h152v625h451q126 0 239 -46.5t201.5 -133t141 -224t52.5 -307.5q0 -138 -34.5 -254t-94 -198t-140 -139t-173 -84t-192.5 -27h-451v684h-152zM332 117h330q102 0 193 37t163.5 107.5t115 184t42.5 256.5q0 141 -42.5 256t-115 187.5t-164 111.5t-192.5 39 h-330v-508h309v-104h-309v-567z" />
<glyph unicode="&#xd1;" horiz-adv-x="1437" d="M201 0v1413h102q214 -222 445 -550t366 -634v1184h123v-1413h-127q-178 366 -368.5 667.5t-419.5 546.5v-1214h-121zM471 1655q22 170 168 170q38 0 117 -41q8 -4 19 -11t18 -10.5t12 -3.5q16 0 32 20t23 54h105q-18 -98 -54 -137t-88 -39q-8 0 -16.5 1t-15 2.5t-16 5 t-14 5t-15.5 6.5t-13.5 6.5t-14.5 7.5t-13 7q-48 24 -66 24q-22 0 -42 -19t-24 -48h-102z" />
<glyph unicode="&#xd2;" d="M121 700q0 154 41 279.5t109 208.5t159 139.5t188 81.5t199 25q103 0 200.5 -25t189 -81.5t159.5 -139.5t109 -208.5t41 -279.5q0 -329 -191.5 -524.5t-509.5 -195.5q-316 0 -505 195.5t-189 524.5zM240 700q0 -267 158.5 -435.5t416.5 -168.5q262 0 422 168t160 436 q0 125 -34 229t-91 174t-132.5 119t-157 71t-165.5 22t-165 -22t-156 -71t-131.5 -119.5t-90.5 -174t-34 -228.5zM610 1835h123l146 -258h-121z" />
<glyph unicode="&#xd3;" d="M121 700q0 154 41 279.5t109 208.5t159 139.5t188 81.5t199 25q103 0 200.5 -25t189 -81.5t159.5 -139.5t109 -208.5t41 -279.5q0 -329 -191.5 -524.5t-509.5 -195.5q-316 0 -505 195.5t-189 524.5zM240 700q0 -267 158.5 -435.5t416.5 -168.5q262 0 422 168t160 436 q0 125 -34 229t-91 174t-132.5 119t-157 71t-165.5 22t-165 -22t-156 -71t-131.5 -119.5t-90.5 -174t-34 -228.5zM739 1577l146 258h123l-148 -258h-121z" />
<glyph unicode="&#xd4;" d="M121 700q0 154 41 279.5t109 208.5t159 139.5t188 81.5t199 25q103 0 200.5 -25t189 -81.5t159.5 -139.5t109 -208.5t41 -279.5q0 -329 -191.5 -524.5t-509.5 -195.5q-316 0 -505 195.5t-189 524.5zM240 700q0 -267 158.5 -435.5t416.5 -168.5q262 0 422 168t160 436 q0 125 -34 229t-91 174t-132.5 119t-157 71t-165.5 22t-165 -22t-156 -71t-131.5 -119.5t-90.5 -174t-34 -228.5zM553 1577l215 258h100l215 -258h-120l-146 160l-143 -160h-121z" />
<glyph unicode="&#xd5;" d="M121 700q0 154 41 279.5t109 208.5t159 139.5t188 81.5t199 25q103 0 200.5 -25t189 -81.5t159.5 -139.5t109 -208.5t41 -279.5q0 -329 -191.5 -524.5t-509.5 -195.5q-316 0 -505 195.5t-189 524.5zM240 700q0 -267 158.5 -435.5t416.5 -168.5q262 0 422 168t160 436 q0 125 -34 229t-91 174t-132.5 119t-157 71t-165.5 22t-165 -22t-156 -71t-131.5 -119.5t-90.5 -174t-34 -228.5zM571 1655q22 170 168 170q38 0 117 -41q8 -4 19 -11t18 -10.5t12 -3.5q16 0 32.5 20t23.5 54h104q-18 -98 -53.5 -137t-87.5 -39q-39 0 -119 41q-48 24 -66 24 q-21 0 -41 -19t-24 -48h-103z" />
<glyph unicode="&#xd6;" d="M121 700q0 154 41 279.5t109 208.5t159 139.5t188 81.5t199 25q103 0 200.5 -25t189 -81.5t159.5 -139.5t109 -208.5t41 -279.5q0 -329 -191.5 -524.5t-509.5 -195.5q-316 0 -505 195.5t-189 524.5zM240 700q0 -267 158.5 -435.5t416.5 -168.5q262 0 422 168t160 436 q0 125 -34 229t-91 174t-132.5 119t-157 71t-165.5 22t-165 -22t-156 -71t-131.5 -119.5t-90.5 -174t-34 -228.5zM623 1720q0 74 73 74q76 0 76 -74q0 -69 -76 -69q-37 0 -55 19.5t-18 49.5zM864 1720q0 74 74 74q76 0 76 -74q0 -69 -76 -69q-37 0 -55.5 19.5t-18.5 49.5z " />
<glyph unicode="&#xd7;" horiz-adv-x="1024" d="M135 276l293 293l-293 291l84 86l293 -293l293 293l84 -86l-293 -291l293 -293l-84 -86l-293 293l-293 -293z" />
<glyph unicode="&#xd8;" d="M96 29l178 188q-153 185 -153 483q0 153 41 279t109.5 209t159.5 139.5t188.5 81.5t199.5 25q122 0 240.5 -37t212.5 -113l164 174l88 -76l-170 -180q164 -192 164 -502q0 -329 -191.5 -524.5t-509.5 -195.5q-282 0 -463 155l-170 -182zM242 700q0 -230 118 -389l824 881 q-78 59 -174.5 91t-190.5 32q-85 0 -166 -22t-156 -71t-131.5 -119.5t-90 -174t-33.5 -228.5zM438 225q74 -60 172.5 -94.5t206.5 -34.5q261 0 421.5 168.5t160.5 435.5q0 258 -129 410z" />
<glyph unicode="&#xd9;" horiz-adv-x="1466" d="M186 578q0 -118 22.5 -213t57 -156.5t86 -106.5t98 -67.5t105.5 -36t96.5 -16t81.5 -2.5q45 0 82 2.5t96.5 16t105.5 36t97.5 67.5t86 106.5t57 156.5t22.5 213v835h-121v-835q0 -95 -17.5 -171t-44 -125t-66.5 -84.5t-76 -54t-82.5 -29t-75.5 -12.5t-64 -2t-63.5 2 t-75 12.5t-82.5 28.5t-76 54t-67 85t-44.5 125t-17.5 171v835h-121v-835zM543 1835h123l145 -258h-121z" />
<glyph unicode="&#xda;" horiz-adv-x="1466" d="M186 578v835h121v-835q0 -95 17.5 -171t44.5 -125t67 -85t76 -54t82.5 -28.5t75 -12.5t63.5 -2t64 2t75.5 12.5t82.5 29t76 54t66.5 84.5t44 125t17.5 171v835h121v-835q0 -118 -22.5 -213t-57 -156.5t-86 -106.5t-97.5 -67.5t-105.5 -36t-96.5 -16t-82 -2.5 q-44 0 -81.5 2.5t-96.5 16t-105.5 36t-98 67.5t-86 106.5t-57 156.5t-22.5 213zM598 1577l145 258h123l-147 -258h-121z" />
<glyph unicode="&#xdb;" horiz-adv-x="1466" d="M186 578v835h121v-835q0 -95 17.5 -171t44.5 -125t67 -85t76 -54t82.5 -28.5t75 -12.5t63.5 -2t64 2t75.5 12.5t82.5 29t76 54t66.5 84.5t44 125t17.5 171v835h121v-835q0 -118 -22.5 -213t-57 -156.5t-86 -106.5t-97.5 -67.5t-105.5 -36t-96.5 -16t-82 -2.5 q-44 0 -81.5 2.5t-96.5 16t-105.5 36t-98 67.5t-86 106.5t-57 156.5t-22.5 213zM467 1577l215 258h100l215 -258h-120l-146 160l-143 -160h-121z" />
<glyph unicode="&#xdc;" horiz-adv-x="1466" d="M186 578q0 -118 22.5 -213t57 -156.5t86 -106.5t98 -67.5t105.5 -36t96.5 -16t81.5 -2.5q45 0 82 2.5t96.5 16t105.5 36t97.5 67.5t86 106.5t57 156.5t22.5 213v835h-121v-835q0 -95 -17.5 -171t-44 -125t-66.5 -84.5t-76 -54t-82.5 -29t-75.5 -12.5t-64 -2t-63.5 2 t-75 12.5t-82.5 28.5t-76 54t-67 85t-44.5 125t-17.5 171v835h-121v-835zM537 1720q0 74 73 74q76 0 76 -74q0 -69 -76 -69q-37 0 -55 19.5t-18 49.5zM778 1720q0 74 74 74q76 0 76 -74q0 -69 -76 -69q-37 0 -55.5 19.5t-18.5 49.5z" />
<glyph unicode="&#xdd;" horiz-adv-x="1118" d="M35 1413h137l387 -684l381 684h139l-458 -803v-610h-121v606zM422 1577l145 258h123l-147 -258h-121z" />
<glyph unicode="&#xde;" horiz-adv-x="1150" d="M201 0v1411h123v-287h374q72 0 138 -27.5t117.5 -78.5t82.5 -132.5t31 -180.5q0 -102 -30.5 -182.5t-83 -130t-117.5 -75.5t-138 -26h-374v-291h-123zM324 412h376q104 0 176 76.5t72 216.5q0 141 -72.5 220t-175.5 79h-376v-592z" />
<glyph unicode="&#xdf;" horiz-adv-x="1128" d="M168 0v907q0 58 2.5 104.5t13 102.5t28 99t49.5 85.5t76 70t109 44.5t146 17q70 0 133 -20.5t116 -60.5t84 -109.5t31 -158.5q0 -64 -19 -121t-68 -108.5t-124 -75.5q129 -20 205 -134t76 -263q0 -87 -33 -159.5t-89 -120t-130 -73.5t-156 -26h-210v119h210 q121 0 205 71.5t84 188.5q0 81 -26 146.5t-69 105.5t-93.5 61t-102.5 21h-67v125h57q107 0 169.5 73t62.5 170q0 115 -72 172.5t-174 57.5q-59 0 -106 -13.5t-78.5 -34.5t-54.5 -54t-36 -66t-20 -76.5t-8.5 -79t-1.5 -80.5v-907h-119z" />
<glyph unicode="&#xe0;" horiz-adv-x="1083" d="M94 285q0 -305 336 -305q76 0 184 35.5t160 86.5q5 -25 12.5 -43t25 -38t50.5 -30.5t80 -10.5q68 0 139 36v109q-20 -13 -50 -23.5t-63.5 -14.5t-57 14.5t-23.5 60.5v430q0 118 -29.5 203t-81.5 132t-114 68t-138 21q-165 0 -358 -82v-111q186 78 358 78q50 0 92 -16 t77 -50.5t55 -96.5t20 -146v-33q-38 16 -108 24.5t-130 8.5q-203 0 -319.5 -79.5t-116.5 -227.5zM213 285q0 94 83.5 147t229.5 53q153 0 242 -30v-254q-64 -50 -161.5 -76.5t-176.5 -26.5q-217 0 -217 187zM365 1413h122l146 -258h-121z" />
<glyph unicode="&#xe1;" horiz-adv-x="1083" d="M94 285q0 148 116.5 227.5t319.5 79.5q60 0 130 -8.5t108 -24.5v33q0 84 -20 146t-55 96.5t-77 50.5t-92 16q-172 0 -358 -78v111q193 82 358 82q76 0 138 -21t114 -68t81.5 -132t29.5 -203v-430q0 -42 23.5 -60.5t57 -14.5t63.5 14.5t50 23.5v-109q-71 -36 -139 -36 q-47 0 -80 10.5t-50.5 30.5t-25 38t-12.5 43q-52 -51 -160 -86.5t-184 -35.5q-336 0 -336 305zM213 285q0 -187 217 -187q79 0 176.5 26.5t161.5 76.5v254q-89 30 -242 30q-146 0 -229.5 -53t-83.5 -147zM403 1155l146 258h123l-148 -258h-121z" />
<glyph unicode="&#xe2;" horiz-adv-x="1083" d="M94 285q0 148 116.5 227.5t319.5 79.5q60 0 130 -8.5t108 -24.5v33q0 84 -20 146t-55 96.5t-77 50.5t-92 16q-172 0 -358 -78v111q193 82 358 82q76 0 138 -21t114 -68t81.5 -132t29.5 -203v-430q0 -42 23.5 -60.5t57 -14.5t63.5 14.5t50 23.5v-109q-71 -36 -139 -36 q-47 0 -80 10.5t-50.5 30.5t-25 38t-12.5 43q-52 -51 -160 -86.5t-184 -35.5q-336 0 -336 305zM213 285q0 -187 217 -187q79 0 176.5 26.5t161.5 76.5v254q-89 30 -242 30q-146 0 -229.5 -53t-83.5 -147zM231 1155l215 258h101l215 -258h-121l-145 160l-144 -160h-121z" />
<glyph unicode="&#xe3;" horiz-adv-x="1083" d="M94 285q0 -305 336 -305q76 0 184 35.5t160 86.5q5 -25 12.5 -43t25 -38t50.5 -30.5t80 -10.5q68 0 139 36v109q-20 -13 -50 -23.5t-63.5 -14.5t-57 14.5t-23.5 60.5v430q0 118 -29.5 203t-81.5 132t-114 68t-138 21q-165 0 -358 -82v-111q186 78 358 78q50 0 92 -16 t77 -50.5t55 -96.5t20 -146v-33q-38 16 -108 24.5t-130 8.5q-203 0 -319.5 -79.5t-116.5 -227.5zM213 285q0 94 83.5 147t229.5 53q153 0 242 -30v-254q-64 -50 -161.5 -76.5t-176.5 -26.5q-217 0 -217 187zM256 1233q22 170 168 170q38 0 117 -41q8 -4 19 -11t18 -10.5 t12 -3.5q16 0 32 20t23 54h105q-18 -98 -54 -137t-88 -39q-39 0 -119 41q-48 24 -65 24q-22 0 -42 -19t-24 -48h-102z" />
<glyph unicode="&#xe4;" horiz-adv-x="1083" d="M94 285q0 -305 336 -305q76 0 184 35.5t160 86.5q5 -25 12.5 -43t25 -38t50.5 -30.5t80 -10.5q68 0 139 36v109q-20 -13 -50 -23.5t-63.5 -14.5t-57 14.5t-23.5 60.5v430q0 118 -29.5 203t-81.5 132t-114 68t-138 21q-165 0 -358 -82v-111q186 78 358 78q50 0 92 -16 t77 -50.5t55 -96.5t20 -146v-33q-38 16 -108 24.5t-130 8.5q-203 0 -319.5 -79.5t-116.5 -227.5zM213 285q0 94 83.5 147t229.5 53q153 0 242 -30v-254q-64 -50 -161.5 -76.5t-176.5 -26.5q-217 0 -217 187zM291 1298q0 74 74 74q75 0 75 -74q0 -69 -75 -69 q-37 0 -55.5 19.5t-18.5 49.5zM532 1298q0 74 74 74q76 0 76 -74q0 -69 -76 -69q-37 0 -55.5 19.5t-18.5 49.5z" />
<glyph unicode="&#xe5;" horiz-adv-x="1083" d="M94 285q0 148 116.5 227.5t319.5 79.5q60 0 130 -8.5t108 -24.5v33q0 84 -20 146t-55 96.5t-77 50.5t-92 16q-172 0 -358 -78v111q193 82 358 82q76 0 138 -21t114 -68t81.5 -132t29.5 -203v-430q0 -42 23.5 -60.5t57 -14.5t63.5 14.5t50 23.5v-109q-71 -36 -139 -36 q-47 0 -80 10.5t-50.5 30.5t-25 38t-12.5 43q-52 -51 -160 -86.5t-184 -35.5q-336 0 -336 305zM213 285q0 -187 217 -187q79 0 176.5 26.5t161.5 76.5v254q-89 30 -242 30q-146 0 -229.5 -53t-83.5 -147zM317 1335q0 95 52 138t133 43q82 0 133 -42.5t51 -138.5 q0 -93 -52 -136.5t-132 -43.5t-132.5 43.5t-52.5 136.5zM397 1335q0 -53 29.5 -77.5t75.5 -24.5t75 24.5t29 77.5q0 103 -104 103q-46 0 -75.5 -24.5t-29.5 -78.5z" />
<glyph unicode="&#xe6;" horiz-adv-x="1775" d="M92 285q0 148 116.5 227.5t319.5 79.5q60 0 130 -8.5t108 -24.5v33q0 84 -20 146t-55 96.5t-77 50.5t-92 16q-172 0 -358 -78v111q193 82 358 82q112 0 199 -49t129 -158q64 98 163.5 151.5t213.5 53.5q214 0 335.5 -152t123.5 -416h-799q11 -175 109 -263.5t249 -88.5 q192 3 357 45v-112q-199 -45 -357 -47q-235 0 -360 145v-125h-107l-12 102q-52 -51 -157.5 -86.5t-180.5 -35.5q-336 0 -336 305zM211 285q0 -187 217 -187q79 0 176.5 26.5t161.5 76.5v254q-89 30 -242 30q-146 0 -229.5 -53t-83.5 -147zM887 545h676q-17 159 -107 254.5 t-229 95.5q-131 0 -229 -95t-111 -255z" />
<glyph unicode="&#xe7;" horiz-adv-x="952" d="M106 496q1 121 43 221t109 164t150 98.5t170 34.5q125 0 282 -29v-119q-138 27 -282 27q-65 0 -126.5 -26.5t-111.5 -75.5t-81 -125.5t-32 -169.5q0 -93 31 -170.5t81 -126t112 -75t127 -26.5q170 0 282 25v-119q-98 -21 -235 -27q90 -94 90 -198q0 -96 -67.5 -156 t-180.5 -51q-67 5 -154 45v115q55 -27 166 -41q53 -6 85 20.5t32 67.5q0 56 -20 102.5t-62 100.5q-80 11 -152 50.5t-130 102.5t-92 156.5t-34 204.5z" />
<glyph unicode="&#xe8;" horiz-adv-x="1118" d="M109 504q0 119 38 217.5t102 161.5t146.5 97t173.5 34q214 0 335.5 -152t123.5 -416h-799q6 -89 36 -157.5t78.5 -110.5t110 -63t134.5 -21q191 3 356 45v-112q-199 -45 -356 -47q-104 0 -189.5 30.5t-151 92.5t-102 164t-36.5 237zM229 545h676q-17 159 -107 254.5 t-229 95.5q-131 0 -229 -95t-111 -255zM379 1413h123l145 -258h-121z" />
<glyph unicode="&#xe9;" horiz-adv-x="1118" d="M109 504q0 119 38 217.5t102 161.5t146.5 97t173.5 34q214 0 335.5 -152t123.5 -416h-799q6 -89 36 -157.5t78.5 -110.5t110 -63t134.5 -21q191 3 356 45v-112q-199 -45 -356 -47q-104 0 -189.5 30.5t-151 92.5t-102 164t-36.5 237zM229 545h676q-17 159 -107 254.5 t-229 95.5q-131 0 -229 -95t-111 -255zM485 1155l146 258h123l-148 -258h-121z" />
<glyph unicode="&#xea;" horiz-adv-x="1118" d="M109 504q0 119 38 217.5t102 161.5t146.5 97t173.5 34q214 0 335.5 -152t123.5 -416h-799q6 -89 36 -157.5t78.5 -110.5t110 -63t134.5 -21q191 3 356 45v-112q-199 -45 -356 -47q-104 0 -189.5 30.5t-151 92.5t-102 164t-36.5 237zM229 545h676q-17 159 -107 254.5 t-229 95.5q-131 0 -229 -95t-111 -255zM303 1155l215 258h100l216 -258h-121l-146 160l-143 -160h-121z" />
<glyph unicode="&#xeb;" horiz-adv-x="1118" d="M109 504q0 119 38 217.5t102 161.5t146.5 97t173.5 34q214 0 335.5 -152t123.5 -416h-799q6 -89 36 -157.5t78.5 -110.5t110 -63t134.5 -21q191 3 356 45v-112q-199 -45 -356 -47q-104 0 -189.5 30.5t-151 92.5t-102 164t-36.5 237zM229 545h676q-17 159 -107 254.5 t-229 95.5q-131 0 -229 -95t-111 -255zM373 1298q0 74 73 74q76 0 76 -74q0 -69 -76 -69q-37 0 -55 19.5t-18 49.5zM614 1298q0 74 74 74q76 0 76 -74q0 -69 -76 -69q-37 0 -55.5 19.5t-18.5 49.5z" />
<glyph unicode="&#xec;" horiz-adv-x="452" d="M18 1413h123l146 -258h-121zM166 0v991h121v-991h-121z" />
<glyph unicode="&#xed;" horiz-adv-x="452" d="M166 0v991h121v-991h-121zM166 1155l145 258h123l-147 -258h-121z" />
<glyph unicode="&#xee;" horiz-adv-x="452" d="M-33 1155l215 258h101l215 -258h-121l-146 160l-143 -160h-121zM166 0v991h121v-991h-121z" />
<glyph unicode="&#xef;" horiz-adv-x="452" d="M37 1298q0 74 74 74q75 0 75 -74q0 -69 -75 -69q-37 0 -55.5 19.5t-18.5 49.5zM166 0v991h121v-991h-121zM279 1298q0 74 73 74q76 0 76 -74q0 -69 -76 -69q-37 0 -55 19.5t-18 49.5z" />
<glyph unicode="&#xf0;" horiz-adv-x="1222" d="M111 477q0 108 30 195.5t79 144t115 94t135 52.5t142 14q43 0 118 -16.5t140 -57.5q-41 69 -108 149t-127 130l-281 -133v108l185 82q-81 53 -203 98l41 111q167 -56 289 -152l264 121v-100l-178 -84q157 -149 258.5 -352.5t101.5 -399.5q0 -97 -20 -176.5t-56 -133.5 t-82.5 -93.5t-104.5 -61t-116 -31t-121 -8.5q-73 -2 -142 13t-135 52.5t-115 94t-79 144.5t-30 196zM229 477q0 -83 22.5 -150t59.5 -110t87 -72t102 -41t108 -12q60 0 112.5 10.5t104 38t88 70t59.5 112t23 158.5q0 157 -59 281q-143 96 -326 96q-71 2 -136 -17.5 t-121.5 -62t-90 -120t-33.5 -181.5z" />
<glyph unicode="&#xf1;" horiz-adv-x="1144" d="M166 0v991h104l13 -94q51 48 146 82.5t167 34.5q393 0 393 -404v-610h-119v610q0 287 -274 287q-63 0 -146.5 -27t-164.5 -77v-793h-119zM326 1233q22 170 168 170q37 0 116 -41q8 -4 19 -11t18 -10.5t12 -3.5q16 0 32.5 20t23.5 54h104q-18 -98 -53.5 -137t-87.5 -39 q-39 0 -119 41q-48 24 -65 24q-22 0 -42 -19t-24 -48h-102z" />
<glyph unicode="&#xf2;" horiz-adv-x="1226" d="M109 496q0 -130 39.5 -231t109 -162t159.5 -92t197 -31q106 0 195.5 31t159.5 92t109.5 162t39.5 231t-39.5 231.5t-109.5 163.5t-159.5 93.5t-195.5 31.5q-107 0 -197 -31.5t-159.5 -93.5t-109 -163t-39.5 -232zM227 496q0 101 30 180t83 128.5t122.5 75t151.5 25.5 q169 0 277 -105.5t108 -303.5t-108 -302t-277 -104q-170 0 -278.5 104t-108.5 302zM410 1413h122l146 -258h-121z" />
<glyph unicode="&#xf3;" horiz-adv-x="1226" d="M109 496q0 131 39.5 232t109 163t159.5 93.5t197 31.5q106 0 195.5 -31.5t159.5 -93.5t109.5 -163.5t39.5 -231.5t-39.5 -231t-109.5 -162t-159.5 -92t-195.5 -31q-107 0 -197 31t-159.5 92t-109 162t-39.5 231zM227 496q0 -198 108.5 -302t278.5 -104q169 0 277 104 t108 302t-108 303.5t-277 105.5q-82 0 -151.5 -25.5t-122.5 -75t-83 -128.5t-30 -180zM545 1155l145 258h123l-147 -258h-121z" />
<glyph unicode="&#xf4;" horiz-adv-x="1226" d="M109 496q0 131 39.5 232t109 163t159.5 93.5t197 31.5q106 0 195.5 -31.5t159.5 -93.5t109.5 -163.5t39.5 -231.5t-39.5 -231t-109.5 -162t-159.5 -92t-195.5 -31q-107 0 -197 31t-159.5 92t-109 162t-39.5 231zM227 496q0 -198 108.5 -302t278.5 -104q169 0 277 104 t108 302t-108 303.5t-277 105.5q-82 0 -151.5 -25.5t-122.5 -75t-83 -128.5t-30 -180zM348 1155l215 258h101l215 -258h-121l-146 160l-143 -160h-121z" />
<glyph unicode="&#xf5;" horiz-adv-x="1226" d="M109 496q0 -130 39.5 -231t109 -162t159.5 -92t197 -31q106 0 195.5 31t159.5 92t109.5 162t39.5 231t-39.5 231.5t-109.5 163.5t-159.5 93.5t-195.5 31.5q-107 0 -197 -31.5t-159.5 -93.5t-109 -163t-39.5 -232zM227 496q0 101 30 180t83 128.5t122.5 75t151.5 25.5 q169 0 277 -105.5t108 -303.5t-108 -302t-277 -104q-170 0 -278.5 104t-108.5 302zM367 1233q22 170 168 170q37 0 116 -41q8 -4 19 -11t18 -10.5t12 -3.5q16 0 32.5 20t23.5 54h104q-18 -98 -53.5 -137t-87.5 -39q-39 0 -119 41q-48 24 -65 24q-22 0 -42 -19t-24 -48h-102z " />
<glyph unicode="&#xf6;" horiz-adv-x="1226" d="M109 496q0 -130 39.5 -231t109 -162t159.5 -92t197 -31q106 0 195.5 31t159.5 92t109.5 162t39.5 231t-39.5 231.5t-109.5 163.5t-159.5 93.5t-195.5 31.5q-107 0 -197 -31.5t-159.5 -93.5t-109 -163t-39.5 -232zM227 496q0 101 30 180t83 128.5t122.5 75t151.5 25.5 q169 0 277 -105.5t108 -303.5t-108 -302t-277 -104q-170 0 -278.5 104t-108.5 302zM418 1298q0 74 74 74q75 0 75 -74q0 -69 -75 -69q-37 0 -55.5 19.5t-18.5 49.5zM659 1298q0 74 74 74q76 0 76 -74q0 -69 -76 -69q-37 0 -55.5 19.5t-18.5 49.5z" />
<glyph unicode="&#xf7;" horiz-adv-x="1103" d="M160 575v119h784v-119h-784zM467 270q0 80 84 80q86 0 86 -80q0 -35 -21 -57.5t-65 -22.5q-42 0 -63 22.5t-21 57.5zM467 995q0 80 84 80q86 0 86 -80q0 -77 -86 -77q-42 0 -63 21.5t-21 55.5z" />
<glyph unicode="&#xf8;" horiz-adv-x="1226" d="M109 496q0 130 39.5 231t109 162t159.5 92t197 31q168 0 285 -70q83 97 111 133l86 -69l-113 -134q135 -135 135 -376q0 -130 -39.5 -231t-109.5 -162t-159.5 -92t-195.5 -31q-185 0 -305 83q-18 -21 -58.5 -70.5t-55.5 -66.5l-84 72l114 137q-116 139 -116 361zM227 496 q0 -75 21 -146t53 -121l520 621q-86 51 -207 51q-170 0 -278.5 -103.5t-108.5 -301.5zM385 154q94 -64 229 -64q169 0 277 104t108 302q0 182 -92 284z" />
<glyph unicode="&#xf9;" horiz-adv-x="1198" d="M156 381v610h118v-610q0 -287 277 -287q61 0 145.5 28t163.5 77v792h119v-829q0 -42 23.5 -60.5t57.5 -14.5t64 14.5t50 23.5v-109q-71 -36 -140 -36q-47 0 -80 10.5t-50.5 30.5t-25 38t-12.5 43q-48 -54 -144 -89.5t-171 -35.5q-395 0 -395 404zM412 1413h123l145 -258 h-121z" />
<glyph unicode="&#xfa;" horiz-adv-x="1198" d="M156 381v610h118v-610q0 -287 277 -287q61 0 145.5 28t163.5 77v792h119v-829q0 -42 23.5 -60.5t57.5 -14.5t64 14.5t50 23.5v-109q-71 -36 -140 -36q-47 0 -80 10.5t-50.5 30.5t-25 38t-12.5 43q-48 -54 -144 -89.5t-171 -35.5q-395 0 -395 404zM465 1155l145 258h123 l-147 -258h-121z" />
<glyph unicode="&#xfb;" horiz-adv-x="1198" d="M156 381v610h118v-610q0 -287 277 -287q61 0 145.5 28t163.5 77v792h119v-829q0 -42 23.5 -60.5t57.5 -14.5t64 14.5t50 23.5v-109q-71 -36 -140 -36q-47 0 -80 10.5t-50.5 30.5t-25 38t-12.5 43q-48 -54 -144 -89.5t-171 -35.5q-395 0 -395 404zM358 1155l215 258h101 l215 -258h-121l-145 160l-144 -160h-121z" />
<glyph unicode="&#xfc;" horiz-adv-x="1198" d="M156 381v610h118v-610q0 -287 277 -287q61 0 145.5 28t163.5 77v792h119v-829q0 -42 23.5 -60.5t57.5 -14.5t64 14.5t50 23.5v-109q-71 -36 -140 -36q-47 0 -80 10.5t-50.5 30.5t-25 38t-12.5 43q-48 -54 -144 -89.5t-171 -35.5q-395 0 -395 404zM375 1298q0 74 74 74 q75 0 75 -74q0 -69 -75 -69q-37 0 -55.5 19.5t-18.5 49.5zM616 1298q0 74 74 74q76 0 76 -74q0 -69 -76 -69q-37 0 -55.5 19.5t-18.5 49.5z" />
<glyph unicode="&#xfd;" horiz-adv-x="1026" d="M43 991h127l346 -862q38 96 106.5 272t125.5 321t106 269h129l-401 -1005l-80 -232q-41 -111 -108 -148.5t-191 -35.5h-56v113h56q80 5 123.5 30t70.5 99l58 170zM383 1155l145 258h123l-147 -258h-121z" />
<glyph unicode="&#xfe;" horiz-adv-x="1161" d="M166 -383v1806h121v-510q129 101 276 101q88 0 173.5 -32.5t157 -93t115.5 -159t44 -219.5q0 -127 -34.5 -225.5t-85 -154.5t-117.5 -91.5t-124 -47t-112 -11.5q-74 0 -151.5 31t-141.5 83v-477h-121zM287 217q43 -46 136 -82.5t157 -36.5q41 0 83 9t92.5 36.5t88.5 70.5 t64 120t26 176q0 93 -33 168.5t-87.5 121.5t-119 70.5t-131.5 24.5q-60 0 -135 -21.5t-141 -64.5v-592z" />
<glyph unicode="&#xff;" horiz-adv-x="1026" d="M43 991h127l346 -862q38 96 106.5 272t125.5 321t106 269h129l-401 -1005l-80 -232q-41 -111 -108 -148.5t-191 -35.5h-56v113h56q80 5 123.5 30t70.5 99l58 170zM322 1298q0 74 73 74q76 0 76 -74q0 -69 -76 -69q-37 0 -55 19.5t-18 49.5zM563 1298q0 74 74 74 q76 0 76 -74q0 -69 -76 -69q-37 0 -55.5 19.5t-18.5 49.5z" />
<glyph unicode="&#x152;" horiz-adv-x="2336" d="M121 700q0 154 41 279.5t109 208.5t159 139.5t188 81.5t199 25q173 0 328.5 -72t251.5 -219v270h821v-121h-700v-516h655v-121h-655v-397q3 -76 41.5 -105.5t128.5 -31.5h530v-121h-532q-153 3 -219.5 59t-69.5 197v10q-91 -141 -239 -213.5t-343 -72.5 q-316 0 -505 195.5t-189 524.5zM240 700q0 -267 159 -435.5t416 -168.5q123 0 228.5 44.5t180.5 121.5t120.5 183.5t52.5 228.5v26q0 125 -34 228.5t-90.5 174t-132 119.5t-157 71t-166.5 22q-84 0 -165 -22t-156 -71t-131.5 -119.5t-90.5 -174t-34 -228.5z" />
<glyph unicode="&#x153;" horiz-adv-x="2011" d="M109 496q0 130 39.5 231t109 162t159 92t195.5 31q334 0 447 -246q65 110 176 179t227 69q214 0 335.5 -152t123.5 -416h-799q6 -89 36 -157.5t78.5 -110.5t110 -63t134.5 -21q175 3 356 49v-116q-199 -45 -356 -47q-145 0 -255.5 59t-168.5 180q-62 -119 -179.5 -179 t-265.5 -60q-106 0 -195.5 31t-159 92t-109 162t-39.5 231zM227 496q0 -198 108 -302t277 -104q170 0 278.5 104t108.5 302t-108.5 301.5t-278.5 103.5q-169 0 -277 -103.5t-108 -301.5zM1122 547h676q-17 159 -107 253.5t-229 94.5q-131 0 -229 -94t-111 -254z" />
<glyph unicode="&#x178;" horiz-adv-x="1118" d="M35 1413h137l387 -684l381 684h139l-458 -803v-610h-121v606zM360 1720q0 74 74 74q76 0 76 -74q0 -69 -76 -69q-37 0 -55.5 19.5t-18.5 49.5zM602 1720q0 74 74 74q76 0 76 -74q0 -69 -76 -69q-37 0 -55.5 19.5t-18.5 49.5z" />
<glyph unicode="&#x2c6;" horiz-adv-x="960" d="M215 1155l215 258h100l215 -258h-120l-146 160l-143 -160h-121z" />
<glyph unicode="&#x2dc;" horiz-adv-x="821" d="M164 1233q22 170 168 170q38 0 117 -41q8 -4 19 -11t18 -10.5t12 -3.5q16 0 32 20t23 54h104q-18 -98 -53.5 -137t-87.5 -39q-39 0 -119 41q-48 24 -65 24q-22 0 -42 -19t-24 -48h-102z" />
<glyph unicode="&#x2000;" horiz-adv-x="968" />
<glyph unicode="&#x2001;" horiz-adv-x="1937" />
<glyph unicode="&#x2002;" horiz-adv-x="968" />
<glyph unicode="&#x2003;" horiz-adv-x="1937" />
<glyph unicode="&#x2004;" horiz-adv-x="645" />
<glyph unicode="&#x2005;" horiz-adv-x="484" />
<glyph unicode="&#x2006;" horiz-adv-x="322" />
<glyph unicode="&#x2007;" horiz-adv-x="322" />
<glyph unicode="&#x2008;" horiz-adv-x="242" />
<glyph unicode="&#x2009;" horiz-adv-x="387" />
<glyph unicode="&#x200a;" horiz-adv-x="107" />
<glyph unicode="&#x2010;" horiz-adv-x="929" d="M145 520v115h639v-115h-639z" />
<glyph unicode="&#x2011;" horiz-adv-x="929" d="M145 520v115h639v-115h-639z" />
<glyph unicode="&#x2012;" horiz-adv-x="929" d="M145 520v115h639v-115h-639z" />
<glyph unicode="&#x2013;" horiz-adv-x="1224" d="M147 485v117h930v-117h-930z" />
<glyph unicode="&#x2014;" horiz-adv-x="1685" d="M147 485v117h1391v-117h-1391z" />
<glyph unicode="&#x2018;" horiz-adv-x="425" d="M111 1044l116 369h105l-105 -369h-116z" />
<glyph unicode="&#x2019;" horiz-adv-x="423" d="M113 1044l104 369h117l-117 -369h-104z" />
<glyph unicode="&#x201a;" horiz-adv-x="421" d="M72 -158l104 369h117l-117 -369h-104z" />
<glyph unicode="&#x201c;" horiz-adv-x="663" d="M111 1044l116 369h105l-105 -369h-116zM348 1044l117 369h104l-104 -369h-117z" />
<glyph unicode="&#x201d;" horiz-adv-x="661" d="M113 1044l104 369h117l-117 -369h-104zM350 1044l105 369h116l-116 -369h-105z" />
<glyph unicode="&#x201e;" horiz-adv-x="659" d="M72 -158l104 369h117l-117 -369h-104zM309 -158l105 369h116l-116 -369h-105z" />
<glyph unicode="&#x2022;" horiz-adv-x="774" d="M143 545q0 57 10.5 99.5t36 79.5t75 56t122.5 19t122.5 -19t75 -56t36 -79.5t10.5 -99.5q0 -56 -11.5 -99t-38 -78.5t-75.5 -55t-119 -19.5t-119 19.5t-75.5 55t-38 78.5t-11.5 99z" />
<glyph unicode="&#x2026;" horiz-adv-x="1144" d="M137 55q0 37 16 57.5t60 20.5q46 0 62 -20.5t16 -57.5q0 -75 -78 -75q-76 0 -76 75zM494 55q0 37 16.5 57.5t60.5 20.5q46 0 62 -20.5t16 -57.5q0 -75 -78 -75q-77 0 -77 75zM852 55q0 78 78 78t78 -78q0 -75 -78 -75t-78 75z" />
<glyph unicode="&#x202f;" horiz-adv-x="387" />
<glyph unicode="&#x2039;" horiz-adv-x="602" d="M98 506l262 393h136l-263 -393l263 -393h-136z" />
<glyph unicode="&#x203a;" horiz-adv-x="602" d="M106 113l263 393l-263 393h136l262 -393l-262 -393h-136z" />
<glyph unicode="&#x205f;" horiz-adv-x="484" />
<glyph unicode="&#x20ac;" horiz-adv-x="1308" d="M96 549v104h172v74h-172v104h180q43 263 221 418.5t437 155.5q72 0 240 -25v-116q-147 22 -240 22q-211 0 -354 -121t-181 -334h607v-104h-619v-74h619v-104h-609q37 -210 171.5 -331.5t365.5 -121.5q115 0 240 29v-121q-159 -24 -240 -24q-142 0 -258 42.5t-196.5 120 t-131.5 180t-72 226.5h-180z" />
<glyph unicode="&#x2122;" horiz-adv-x="1691" d="M156 1030v105h661l258 -564l260 564h105l71 -756h-112l-56 551l-225 -494h-88l-225 492l-51 -549h-113l61 651h-204v-651h-111v651h-231z" />
<glyph unicode="&#xe000;" horiz-adv-x="993" d="M0 0v993h993v-993h-993z" />
</font>
</defs>
</svg>
