<?xml version="1.0" standalone="no"?>
<!DOCTYPE svg PUBLIC "-//W3C//DTD SVG 1.1//EN" "http://www.w3.org/Graphics/SVG/1.1/DTD/svg11.dtd" >
<svg xmlns="http://www.w3.org/2000/svg">
<metadata></metadata>
<defs>
<font id="kyrial_display_probold_italic" horiz-adv-x="1134" >
<font-face units-per-em="2048" ascent="1536" descent="-512" />
<missing-glyph horiz-adv-x="436" />
<glyph unicode="&#xfb01;" horiz-adv-x="1380" d="M-170 -410l55 240h193q46 0 76 23.5t39 64.5l194 848h-149l51 225h149l31 133q12 54 31.5 98.5t40 76.5t49.5 57t53.5 41.5t59.5 27.5t58.5 16.5t60.5 8.5t55.5 3.5t52.5 0.5h211l-54 -240h-196q-46 0 -77 -23.5t-40 -64.5l-31 -135h727l-225 -991h-305l174 766h-422 l-194 -846q-12 -54 -31.5 -98.5t-40 -76.5t-49.5 -57t-53.5 -41.5t-59.5 -27.5t-58.5 -16.5t-60.5 -8.5t-55.5 -3.5t-52.5 -0.5h-207zM1223 1276q17 75 60 116.5t134 41.5t117.5 -42t9.5 -116q-35 -156 -196 -156q-160 0 -125 156z" />
<glyph unicode="&#xfb02;" horiz-adv-x="1474" d="M-170 -410l55 240h193q46 0 76 23.5t39 64.5l194 848h-149l51 225h149l31 133q12 54 31.5 98.5t40 76.5t49.5 57t53.5 41.5t59.5 27.5t58.5 16.5t60.5 8.5t55.5 3.5t52.5 0.5h338h303l-256 -1116q-4 -16 -5 -28t3.5 -28t23.5 -25t52 -9h100l-55 -256h-131q-66 0 -115 6 t-88.5 20t-63.5 37.5t-36.5 58.5t-11 82.5t15.5 110.5l210 907h-323q-46 0 -77 -23.5t-40 -64.5l-31 -135h238l-51 -225h-238l-194 -846q-12 -54 -31.5 -98.5t-40 -76.5t-49.5 -57t-53.5 -41.5t-59.5 -27.5t-58.5 -16.5t-60.5 -8.5t-55.5 -3.5t-52.5 -0.5h-207z" />
<glyph unicode="&#xfb03;" horiz-adv-x="2185" d="M-170 -410l55 240h193q46 0 76 23.5t39 64.5l194 848h-149l51 225h149l31 133q12 54 31.5 98.5t40 76.5t49.5 57t53.5 41.5t59.5 27.5t58.5 16.5t60.5 8.5t55.5 3.5t52.5 0.5h211l-54 -240h-196q-46 0 -77 -23.5t-40 -64.5l-31 -135h500l31 133q12 54 31.5 98.5t40 76.5 t49.5 57t53.5 41.5t59.5 27.5t58.5 16.5t60.5 8.5t55.5 3.5t52.5 0.5h211l-54 -240h-196q-46 0 -77 -23.5t-40 -64.5l-31 -135h727l-225 -991h-305l174 766h-422l-194 -846q-12 -54 -31.5 -98.5t-40 -76.5t-49.5 -57t-53.5 -41.5t-59.5 -27.5t-58.5 -16.5t-60.5 -8.5 t-55.5 -3.5t-52.5 -0.5h-211l55 240h197q45 0 75 23t39 65l195 848h-500l-194 -846q-12 -54 -31.5 -98.5t-40 -76.5t-49.5 -57t-53.5 -41.5t-59.5 -27.5t-58.5 -16.5t-60.5 -8.5t-55.5 -3.5t-52.5 -0.5h-207zM2028 1276q17 75 60 116.5t134 41.5t117.5 -42t9.5 -116 q-35 -156 -197 -156q-88 0 -114.5 41.5t-9.5 114.5z" />
<glyph unicode="&#xfb04;" horiz-adv-x="2279" d="M-170 -410l55 240h193q46 0 76 23.5t39 64.5l194 848h-149l51 225h149l31 133q12 54 31.5 98.5t40 76.5t49.5 57t53.5 41.5t59.5 27.5t58.5 16.5t60.5 8.5t55.5 3.5t52.5 0.5h211l-54 -240h-196q-46 0 -77 -23.5t-40 -64.5l-31 -135h500l31 133q12 54 31.5 98.5t40 76.5 t49.5 57t53.5 41.5t59.5 27.5t58.5 16.5t60.5 8.5t55.5 3.5t52.5 0.5h338h303l-256 -1116q-4 -16 -5 -27.5t3 -28t23 -25.5t52 -9h101l-56 -256h-131q-66 0 -115 6t-88.5 20t-63.5 37.5t-36.5 58.5t-11 82.5t15.5 110.5l211 907h-323q-46 0 -77 -23.5t-40 -64.5l-31 -135 h238l-51 -225h-238l-194 -846q-12 -54 -31.5 -98.5t-40 -76.5t-49.5 -57t-53.5 -41.5t-59.5 -27.5t-58.5 -16.5t-60.5 -8.5t-55.5 -3.5t-52.5 -0.5h-211l55 240h197q45 0 75 23t39 65l195 848h-500l-194 -846q-12 -54 -31.5 -98.5t-40 -76.5t-49.5 -57t-53.5 -41.5 t-59.5 -27.5t-58.5 -16.5t-60.5 -8.5t-55.5 -3.5t-52.5 -0.5h-207z" />
<glyph horiz-adv-x="2048" />
<glyph horiz-adv-x="2048" />
<glyph unicode="&#xd;" horiz-adv-x="2048" />
<glyph unicode=" "  horiz-adv-x="436" />
<glyph unicode="&#x09;" horiz-adv-x="436" />
<glyph unicode="&#xa0;" horiz-adv-x="436" />
<glyph unicode="!" horiz-adv-x="577" d="M156 133q17 74 62 116t136 42t115.5 -41.5t7.5 -116.5q-35 -156 -194 -156q-162 0 -127 156zM260 395l117 658l80 358h309l-80 -358l-186 -658h-240z" />
<glyph unicode="&#x22;" horiz-adv-x="780" d="M332 854l69 420l29 137h229l-28 -137l-129 -420h-170zM666 854l69 420l29 137h229l-28 -137l-129 -420h-170z" />
<glyph unicode="#" horiz-adv-x="1583" d="M154 322l112 237h240l112 248h-239l113 237h239l168 367h264l-170 -367h232l170 367h264l-170 -367h250l-113 -237h-250l-112 -248h249l-112 -237h-250l-145 -322h-265l146 322h-232l-145 -322h-262l145 322h-239zM768 559h231l113 248h-231z" />
<glyph unicode="$" horiz-adv-x="1220" d="M139 92l64 283q71 -45 200.5 -81t235.5 -36q103 0 163.5 27.5t88.5 97.5q30 73 -63 123q-42 23 -160 61l-33 11l-72 28q-49 16 -88.5 39.5t-65.5 47t-44 54t-28 55t-14.5 56.5t-5.5 50.5t2 45t4.5 33t4.5 21.5q39 172 192 287t385 135l49 208h191l-51 -213 q84 -12 164 -37.5t122 -54.5l-61 -272q-242 94 -393 94q-119 0 -187 -39.5t-82 -103.5q-1 -3 -2 -8.5t0.5 -21t7.5 -28.5t24 -28.5t46 -24.5l66 -27q58 -20 94.5 -33.5t85.5 -33.5t78.5 -37t64.5 -41t54.5 -48t37 -56t22 -67t1 -78.5t-17.5 -92.5q-56 -177 -171 -271 t-282 -124l-55 -236h-191l53 226q-120 1 -238.5 32t-195.5 78z" />
<glyph unicode="%" horiz-adv-x="1642" d="M158 0l1450 1411h196l-1450 -1411h-196zM335 941.5q-13 63.5 5 154.5q20 88 66 156.5t104 107t118.5 57.5t119.5 17q51 0 94 -10t82.5 -33.5t61 -61.5t30 -95t-11.5 -134q-37 -164 -147 -250t-261 -86q-61 -2 -113.5 16t-93.5 58t-54 103.5zM557 1100q-14 -62 7.5 -97.5 t76.5 -35.5q53 0 92.5 35.5t52.5 97.5q13 60 -9 94.5t-75 34.5q-55 0 -93 -35t-52 -94zM953 154.5q-13 63.5 5 154.5q16 71 49 129.5t74.5 97t91.5 64.5t98.5 37t96.5 10q51 0 93.5 -10t82 -33.5t61 -61.5t29.5 -95t-12 -134q-37 -164 -147 -250t-261 -86q-60 -2 -112.5 16 t-94 58t-54.5 103.5zM1174 313q-14 -62 8.5 -97.5t77.5 -35.5q53 0 91.5 35t51.5 98q14 60 -8 94.5t-74 34.5q-55 0 -95 -35t-52 -94z" />
<glyph unicode="&#x26;" horiz-adv-x="1394" d="M213 371q2 10 8.5 31t28 66.5t50 86t80 83t112.5 64.5q-38 17 -65 45.5t-41 55.5t-20.5 64t-8 60t1.5 55.5t4 37t4 18.5q48 182 204.5 288t391.5 106q88 0 198 -25t158 -49l-57 -252q-140 61 -289 61q-146 0 -221.5 -43t-100.5 -143q-1 -5 -1.5 -13t3 -30t14 -40.5 t37.5 -39t68 -31.5h780l-53 -243h-262l-107 -455q-119 -77 -255 -114.5t-246 -37.5q-236 0 -344 106t-72 288zM508 420q-24 -105 34 -147t210 -42q81 0 145 39l74 314h-262q-44 -9 -81 -29t-58.5 -42.5t-36 -43.5t-19.5 -35z" />
<glyph unicode="'" horiz-adv-x="446" d="M332 854l69 420l29 137h229l-28 -137l-129 -420h-170z" />
<glyph unicode="(" horiz-adv-x="780" d="M172 3q-48 205 18 501l3 8q49 213 146 391.5t215 292t246.5 176t248.5 62.5l-48 -209q-65 -13 -122.5 -41t-118 -83t-111 -132.5t-97 -195t-81.5 -265.5q-145 -642 201 -719l-49 -207q-162 0 -282.5 108t-168.5 313z" />
<glyph unicode=")" horiz-adv-x="782" d="M-35 -418l45 207q381 77 529 719q147 639 -199 717l47 209q162 0 282.5 -108t169 -313t-17.5 -501l-2 -8q-42 -171 -114 -321t-159.5 -258.5t-186.5 -186.5t-199.5 -117t-194.5 -39z" />
<glyph unicode="*" horiz-adv-x="980" d="M307 909l49 217l228 -22l-84 199l209 110l51 -227l153 227l162 -108l-178 -201l244 22l-49 -217l-234 21l84 -199l-211 -108l-47 233l-158 -231l-159 106l178 199z" />
<glyph unicode="+" horiz-adv-x="1093" d="M190 438l58 254h323l76 328h262l-75 -328h323l-57 -254h-324l-76 -327h-262l76 327h-324z" />
<glyph unicode="," horiz-adv-x="538" d="M-63 -276l253 460h285l-307 -460h-231z" />
<glyph unicode="-" horiz-adv-x="923" d="M221 455l55 243h691l-56 -243h-690z" />
<glyph unicode="." horiz-adv-x="514" d="M125 133q17 74 62.5 116t136.5 42t115 -41.5t7 -116.5q-35 -156 -194 -156q-162 0 -127 156z" />
<glyph unicode="/" horiz-adv-x="942" d="M66 0l892 1411h240l-893 -1411h-239z" />
<glyph unicode="0" horiz-adv-x="1318" d="M262 705q36 154 97.5 279.5t134.5 208t158.5 139.5t168.5 81.5t164 24.5q82 0 154 -25.5t133.5 -80t95.5 -140.5t40 -207t-32 -280q-76 -331 -275 -529.5t-452 -198.5q-252 0 -357.5 198.5t-29.5 529.5zM557 705q-45 -200 1 -329.5t157 -129.5q108 0 214.5 130t151.5 329 q26 123 23.5 210.5t-30.5 143.5t-66.5 82t-83.5 26t-95 -27t-101.5 -80t-97.5 -145.5t-73 -209.5z" />
<glyph unicode="1" horiz-adv-x="944" d="M111 0l53 244h235l203 874l-258 -102l57 246l353 149h223l-268 -1167h235l-53 -244h-780z" />
<glyph unicode="2" horiz-adv-x="1181" d="M78 0l47 207l655 571q107 90 155 143t58 99q16 60 -23 102.5t-147 42.5q-100 0 -193 -19t-239 -73l62 258q191 103 440 103q252 0 355.5 -103t58.5 -299q-41 -185 -301 -399l-453 -375h571l-55 -258h-991z" />
<glyph unicode="3" horiz-adv-x="1132" d="M111 51l57 250q178 -70 334 -70q151 0 226 42t99 147q1 5 1.5 14.5t-3.5 34t-15 45t-38 41t-67 29.5h-297l53 243h1h1h1h1h1h1h1h1h1h1h1h1h1h1h1h1h1h1h1h1h1h1h1h1h1h1h1h1h1h1h1h1h1h1h1h1h1h1h1h1h1h1h1h1h1h1h1h1h1h1h1h1h1h2h1h1h1h1h1h1h1h1h1h2h1h1h1h1h1h2h1h1 h1h1h2h1h1h1h2h1h1h1h2h1h1h2h1h1h1h2h1h1h2h1h1h2h1h1h2h1h2h1h1h2h1h2h1h1h2h1h2h1h2h1h1h2h1h2h1h2h1h2h1h2h1h2h1h2h1h2h1h2h2h1h2h1h2h1h2h2h1h2h1h2h2h1h2h1h2h2h1h2h2h1h2h2h1h2h2h1h2h2h1h2h2h1h2h2h2h1h2h2h1h2h2h2h1h2h2h2h2h1h2h2h2h1h2h2h2h2h2h1h2h2h2h2h2h1h2 h2h2h2h9q46 11 83 31t56.5 40.5t32.5 39.5t16 31l4 12q23 101 -30 143.5t-199 42.5q-151 0 -322 -61l57 252q62 24 183 49t209 25q235 0 343 -106t72 -288q-2 -12 -8 -31.5t-27 -66t-49 -87.5t-79.5 -84t-114.5 -67q43 -19 72 -50.5t40.5 -70t17.5 -70t2 -69t-5 -47.5 t-4 -24q-48 -182 -203.5 -288t-390.5 -106q-91 0 -219 26t-174 48z" />
<glyph unicode="4" horiz-adv-x="1263" d="M123 322l43 198l862 891h281l-193 -833h195l-58 -256h-194l-72 -322h-309l72 322h-627zM485 578h322l102 434z" />
<glyph unicode="5" horiz-adv-x="1185" d="M113 70l94 264q213 -78 430 -78q94 0 164 55t88 133q4 19 4.5 40.5t-8 50t-28 50t-61 37t-100.5 15.5h-420l242 774h834l-62 -268h-577l-72 -225h190q106 0 183 -28t119.5 -74.5t62 -111.5t18 -134t-19.5 -146q-52 -189 -223 -318t-402 -129q-97 0 -228 25t-228 68z" />
<glyph unicode="6" horiz-adv-x="1284" d="M240 610q89 390 312 607t531 217q107 0 175.5 -14t156.5 -48l-57 -246q-143 50 -305 50q-145 0 -263 -95t-180 -256q119 127 359 127q85 0 151.5 -27t106.5 -73t64 -107.5t23.5 -131.5t-14.5 -144q-52 -227 -223.5 -359.5t-425.5 -132.5q-258 0 -368.5 166t-42.5 467z M539 473q-26 -111 27 -168t151 -59q96 2 175 59t105 168q21 91 -25 156t-151 65q-106 0 -183.5 -65t-98.5 -156z" />
<glyph unicode="7" horiz-adv-x="1073" d="M111 0l837 1145h-608l59 266h951l-52 -219l-833 -1192h-354z" />
<glyph unicode="8" horiz-adv-x="1275" d="M182 371q1 7 4.5 19.5t15 42.5t27 59.5t42.5 66.5t60 67t81 57.5t104 41.5q-44 10 -75.5 34t-48.5 51.5t-26.5 64t-11 64t0.5 59t3.5 42t3.5 19.5q44 171 194.5 272.5t381.5 102.5q105 -2 186.5 -22.5t142.5 -63t86 -116t7 -173.5l-5 -20t-13.5 -42t-24 -59t-38 -64.5 t-53 -63.5t-70 -51.5t-89.5 -33.5q50 -13 87 -40t56.5 -56.5t31 -68t14 -66.5t0.5 -60.5t-3.5 -42.5t-3.5 -20q-22 -89 -71.5 -158.5t-112 -113t-140.5 -72t-151.5 -39.5t-150.5 -11q-243 1 -357.5 107.5t-83.5 286.5zM520 403q-12 -59 30 -112t132 -53q89 0 153 52.5 t76 112.5q5 21 6.5 40.5t-5.5 44.5t-23 43t-51 30.5t-86 13.5q-49 0 -89.5 -13.5t-64 -32t-41.5 -44t-25 -44.5t-12 -38zM684 1028q-4 -22 0.5 -47t18.5 -50.5t45.5 -42t74.5 -16.5q85 0 137.5 50t63.5 106q3 14 4.5 24t2 27.5t-3 30t-12.5 28t-24.5 25t-41.5 16.5t-60 7 q-173 0 -205 -158z" />
<glyph unicode="9" horiz-adv-x="1284" d="M190 39l56 246q140 -49 305 -49q145 0 262.5 94.5t179.5 255.5q-119 -127 -358 -127q-85 0 -151.5 27t-107 73t-64.5 107.5t-23.5 131.5t14.5 144q52 227 223.5 359.5t425.5 132.5q259 0 371.5 -166t42.5 -467q-90 -390 -314 -607t-532 -217q-107 0 -175.5 14t-154.5 48z M608 938q-21 -91 25 -156t151 -65q106 0 184 65t99 156q26 111 -28 168t-152 59q-96 -2 -174.5 -59t-104.5 -168z" />
<glyph unicode=":" horiz-adv-x="555" d="M145 133q17 74 62.5 116t136.5 42t115.5 -41.5t7.5 -116.5q-35 -156 -195 -156q-162 0 -127 156zM313 858q17 74 62.5 116t136.5 42t115.5 -41.5t7.5 -116.5q-35 -156 -197 -156q-160 0 -125 156z" />
<glyph unicode=";" horiz-adv-x="598" d="M-53 -276h231l307 460h-284zM352 858q17 74 62.5 116t136.5 42t115.5 -41.5t7.5 -116.5q-35 -156 -195 -156q-162 0 -127 156z" />
<glyph unicode="&#x3c;" horiz-adv-x="1470" d="M197 489l45 189l1341 469l-65 -277l-900 -284l768 -291l-65 -277z" />
<glyph unicode="=" horiz-adv-x="1179" d="M182 207l56 239h909l-55 -239h-910zM281 643l57 242h909l-57 -242h-909z" />
<glyph unicode="&#x3e;" horiz-adv-x="1470" d="M150 18l65 277l903 291l-770 284l64 277l1124 -469l-45 -189z" />
<glyph unicode="?" horiz-adv-x="1034" d="M240 133q17 74 62 116t136 42t115.5 -41.5t7.5 -116.5q-35 -156 -194 -156q-162 0 -127 156zM328 395l4 15q89 341 420 477q43 19 73.5 50t39.5 50.5t12 34.5q15 68 -20.5 110t-125.5 42q-161 0 -364 -97l32 248q155 91 377 107q225 13 337.5 -104.5t70.5 -299.5 q-1 -2 -2 -8q-6 -23 -10 -38t-17.5 -49t-29.5 -60t-45 -62t-64 -65.5t-87 -61t-114 -55.5q-83 -32 -141 -84t-72 -121l-6 -29h-268z" />
<glyph unicode="@" horiz-adv-x="2179" d="M186.5 260q-7.5 119 24.5 246q34 150 118.5 291.5t205 255.5t264.5 199.5t308 132.5t325 47q124 0 232 -19.5t190.5 -54t149.5 -82t112.5 -104.5t76.5 -120t44 -130t12.5 -133t-15.5 -130q-25 -107 -66 -199t-91 -159.5t-110 -121.5t-121 -88.5t-126 -58t-123 -33 t-114 -9.5q-110 0 -173.5 53.5t-56.5 118.5q-37 -41 -125 -76t-165 -35q-40 0 -82 9t-88 28.5t-79 55.5t-52 85t-10 123.5t50 163.5q47 103 124 190t161.5 142t169.5 85t156 30q130 0 196 -74l47 74h232l-242 -547q-110 -246 4 -246q41 0 92 13t114.5 47t119 85t104.5 136 t74 190q28 123 3 222.5t-88 175t-155 126.5t-198.5 77t-218.5 26q-159 0 -323 -61t-298.5 -163.5t-234.5 -243.5t-135 -294q-51 -222 17.5 -396.5t242.5 -272t424 -97.5q449 0 841 258l-41 -178q-158 -117 -394 -183.5t-460 -66.5q-159 0 -294 34t-233.5 95.5t-171.5 147.5 t-108 190t-42.5 223zM926.5 377q8.5 -53 44 -79t86.5 -26q93 0 184 52l164 387q-49 39 -125 39q-95 0 -179 -69.5t-140 -170.5q-43 -80 -34.5 -133z" />
<glyph unicode="A" horiz-adv-x="1351" d="M29 0q216 419 398 735.5t429 675.5h283q58 -247 96 -505.5t53.5 -434t34.5 -471.5h-319q-5 64 -13.5 188.5t-13.5 182.5h-438q-133 -255 -191 -371h-319zM680 629h281q-2 16 -14.5 187.5t-28.5 248.5q-27 -45 -61.5 -107t-59 -107.5t-63.5 -119t-54 -102.5z" />
<glyph unicode="B" horiz-adv-x="1331" d="M170 0l322 1411h610q35 0 71.5 -7t79.5 -24.5t75 -47.5t57.5 -75t28.5 -107v-21q0 -55 -13 -125q-15 -72 -69 -147t-156 -122q102 -29 142 -114q23 -50 23 -111q0 -43 -12 -92q-51 -213 -200 -315.5t-371 -102.5h-588zM555 276h266q61 0 113.5 42.5t64.5 99.5q6 28 6 50 q1 45 -23 72q-36 40 -91 40h-264zM682 831h221q61 0 105.5 43.5t58.5 110.5q4 20 4 38q0 39 -20 69q-30 44 -78 43h-221z" />
<glyph unicode="C" horiz-adv-x="1345" d="M243 394q-11 56 -11 119q0 88 22 189q32 136 98 255t152.5 205t188.5 148t208 93t209 31q128 0 252.5 -19t196.5 -43l-60 -262q-218 33 -407 33q-118 0 -223.5 -53t-182.5 -154t-108 -234v7q-15 -68 -15 -127q0 -115 58 -194q88 -120 268 -120q190 0 424 33l-60 -262 q-87 -25 -218 -43.5t-259 -18.5q-129 0 -240 48.5t-188.5 141t-104.5 227.5z" />
<glyph unicode="D" horiz-adv-x="1447" d="M170 0l322 1411h520q130 0 237.5 -45t180.5 -134q74 -90 97 -222q9 -49 9 -104q0 -93 -25 -204q-32 -139 -94.5 -255t-143 -197.5t-178 -138.5t-199.5 -84t-206 -27h-520zM553 276h121q199 0 329.5 110.5t176.5 315.5q18 78 18 143q0 106 -48 177q-77 113 -280 113h-120z " />
<glyph unicode="E" horiz-adv-x="1249" d="M236 313l251 1098h971l-63 -276h-650l-63 -275h592l-62 -270h-591l-50 -209q-4 -19 -4 -35q0 -70 84 -70h545l-59 -276h-617q-189 6 -255 74q-42 44 -42 129q0 49 13 110z" />
<glyph unicode="F" horiz-adv-x="1112" d="M170 0l322 1411h862l-64 -276h-540l-62 -275h498l-64 -270h-497l-133 -590h-322z" />
<glyph unicode="G" horiz-adv-x="1470" d="M242 390q-11 55 -11 117q0 90 23 195q40 170 133.5 310.5t218 231.5t271 140.5t297.5 49.5q195 0 425 -70l-61 -268q-60 10 -107 17t-84 11.5t-58.5 7.5t-47 4t-32.5 1h-31.5h-28.5q-208 0 -364 -117.5t-201 -317.5q-13 -62 -13 -116q0 -35 5 -66q15 -80 59.5 -134.5 t110.5 -83t147 -28.5q86 0 211 25l51 229h-338l64 269h649l-162 -703q-160 -66 -299 -91.5t-289 -25.5q-130 0 -241 47t-190.5 138.5t-106.5 227.5z" />
<glyph unicode="H" horiz-adv-x="1472" d="M170 0l322 1411h323l-123 -541h486l122 541h324l-321 -1411h-324l135 600h-485l-135 -600h-324z" />
<glyph unicode="I" horiz-adv-x="661" d="M170 0l322 1411h321l-321 -1411h-322z" />
<glyph unicode="J" horiz-adv-x="704" d="M-313 -403l57 258q146 -15 246 -15q90 0 151 59.5t97 211.5l297 1300h321l-307 -1339q-114 -502 -615 -502q-110 0 -247 27z" />
<glyph unicode="K" horiz-adv-x="1306" d="M170 0l322 1411h321l-104 -457q241 204 467 457h364q-243 -310 -739 -713q269 -259 532 -698h-413q-139 229 -334 424l-94 -424h-322z" />
<glyph unicode="L" horiz-adv-x="1150" d="M233 313l252 1098h322l-236 -1024q-4 -21 -5 -38q0 -25 10 -43q16 -30 77 -30h516l-59 -276h-592q-189 6 -255 74q-43 44 -43 131q0 48 13 108z" />
<glyph unicode="M" horiz-adv-x="1884" d="M125 0l434 1411h305q78 -254 127.5 -454.5t73.5 -401.5q215 358 598 856h305l-209 -1411h-317l125 825q-241 -313 -480 -696h-239h2q-65 407 -160 696l-248 -825h-317z" />
<glyph unicode="N" horiz-adv-x="1456" d="M170 0l322 1411h317q221 -445 297 -790l180 790h322l-322 -1411h-309q-46 174 -79.5 289t-91.5 272.5t-122 284.5l-190 -846h-324z" />
<glyph unicode="O" horiz-adv-x="1650" d="M252 700q35 153 107.5 278.5t163.5 208.5t200 140t215.5 82t212.5 25q105 0 200 -25.5t179 -80.5t136 -142q50 -86 68 -207q6 -38 6 -80q0 -91 -26 -199q-49 -216 -179.5 -380.5t-316 -253t-399.5 -89.5q-215 0 -361 89q-146 90 -200 254q-29 87 -29 187q0 91 23 193z M575 700q-15 -65 -15 -123q0 -111 56 -193q85 -124 263 -124q180 0 326 124t190 316q15 71 15 131q0 37 -6 71q-16 86 -65.5 141t-114 81.5t-137.5 26.5q-74 0 -150.5 -27.5t-149 -80t-129.5 -142t-83 -201.5z" />
<glyph unicode="P" horiz-adv-x="1263" d="M170 0l322 1411h604q69 0 135 -27t119 -82q52 -55 72 -137q9 -38 9 -81q0 -51 -12 -111q-25 -109 -76 -194t-108 -133.5t-125.5 -79.5t-122.5 -41.5t-104 -10.5h-275l-116 -514h-322zM674 795h235q61 0 116.5 47.5t72.5 124.5q6 26 6 49q0 43 -22 73q-34 46 -97 46h-235z " />
<glyph unicode="Q" horiz-adv-x="1650" d="M254 700q35 153 107 278.5t163 208.5t199.5 140t215 82t212.5 25q87 0 167.5 -17.5t156 -55.5t131 -96t92.5 -140t42 -187v-30q0 -94 -24 -208q-65 -284 -264 -473t-469 -235v-5q0 -32 35 -61q37 -30 98 -30q148 0 285 36l-55 -241q-112 -45 -279 -45q-111 0 -198 37.5 t-135 116.5q-39 61 -39 140q0 22 3 44v2q-270 37 -390 228q-78 123 -78 288q0 93 24 198zM575 700q-15 -65 -15 -123q0 -111 56 -193q85 -124 263 -124q180 0 326 124t190 316q15 71 15 131q0 38 -6 71q-16 86 -65.5 141t-114 81.5t-137.5 26.5q-74 0 -150.5 -27.5t-149 -80 t-129.5 -142t-83 -201.5z" />
<glyph unicode="R" horiz-adv-x="1337" d="M170 0l322 1411h577q196 1 295 -113q66 -75 66 -194q0 -60 -17 -131q-24 -103 -70.5 -182.5t-103 -124t-111.5 -66.5t-106 -22q21 -8 41.5 -40t28.5 -51q127 -223 213 -487h-351q-70 205 -184 436q-28 56 -49 74t-66 18h-45l-118 -528h-322zM670 795h235q61 0 116 47.5 t73 124.5q6 26 6 49q0 43 -22 73q-34 46 -97 46h-236z" />
<glyph unicode="S" horiz-adv-x="1224" d="M143 92l64 283q71 -45 200.5 -81t235.5 -36q103 0 163.5 27.5t88.5 97.5q7 18 7 34q0 51 -70 89q-42 23 -160 61l-33 11l-72 28q-62 20 -109 52t-72.5 64.5t-41 72t-19.5 69.5q-3 20 -3 43q0 11 1 22q2 34 4.5 49.5t6.5 29.5q44 190 220 308t441 118q98 0 215 -30.5 t174 -70.5l-61 -272q-242 94 -393 94q-119 0 -186.5 -39.5t-81.5 -103.5q-1 -3 -2 -8.5t0.5 -21t7.5 -28.5t24 -28.5t45 -24.5q12 -4 33 -13.5t33 -13.5q75 -26 120 -43t104 -44.5t91.5 -52t66 -61t45.5 -76.5q12 -38 11 -89q0 -56 -18 -121q-29 -93 -76 -164t-105 -117.5 t-133 -75.5t-154.5 -41t-174.5 -12q-117 0 -236 33t-201 82z" />
<glyph unicode="T" horiz-adv-x="1206" d="M303 1135l64 276h1116l-64 -276h-395l-258 -1135h-324l258 1135h-397z" />
<glyph unicode="U" horiz-adv-x="1478" d="M264 418q4 80 25 176l188 817h320l-179 -780q-14 -59 -18 -107q-3 -34 -2 -60v-22q2 -34 13 -62t22.5 -45.5t31 -30t33.5 -18t36.5 -8.5t32.5 -3.5t28 -0.5h6q80 0 126 19q154 61 218 338l178 780h322l-189 -817q-28 -121 -74.5 -218.5t-97.5 -160.5t-116.5 -109.5 t-121 -70.5t-121 -38t-106.5 -17t-88 -3q-35 0 -65.5 1.5t-75 9t-81 19.5t-77.5 34.5t-71 53.5t-55 79q-26 48 -36 106q-8 44 -7 100q0 18 1 38z" />
<glyph unicode="V" horiz-adv-x="1308" d="M344 1411h346l74 -922l500 922h344l-809 -1411h-289z" />
<glyph unicode="W" horiz-adv-x="2023" d="M352 1411h338l35 -938q160 377 451 799h254q83 -347 83 -687q0 -56 -2 -112l465 938h338l-733 -1411h-342q6 83 6 207q0 90 -3 201q-8 264 -40 438q-110 -173 -223.5 -409.5t-194.5 -436.5h-342z" />
<glyph unicode="X" horiz-adv-x="1306" d="M16 0l613 729l-262 682h374l138 -424l325 424h375l-575 -680l288 -731h-379l-157 471l-367 -471h-373z" />
<glyph unicode="Y" horiz-adv-x="1265" d="M326 1411h368l142 -520l376 520h369l-651 -809l-135 -602h-322l135 602z" />
<glyph unicode="Z" horiz-adv-x="1337" d="M82 0l51 229l916 906h-672l63 276h1123l-54 -233l-919 -902h704l-61 -276h-1151z" />
<glyph unicode="[" horiz-adv-x="735" d="M43 -410l418 1821h528l-53 -227h-234l-311 -1366h234l-54 -228h-528z" />
<glyph unicode="\" horiz-adv-x="942" d="M387 1411h240l250 -1411h-240z" />
<glyph unicode="]" horiz-adv-x="735" d="M-25 -410l50 228h233l311 1366h-233l53 227h529l-418 -1821h-525z" />
<glyph unicode="_" horiz-adv-x="1503" d="M135 -287l49 215h1098l-49 -215h-1098z" />
<glyph unicode="`" horiz-adv-x="1038" d="M604 1487h275l57 -342h-227z" />
<glyph unicode="a" d="M139 291q18 81 67.5 147.5t114.5 106.5t134.5 61t134.5 21q109 0 198 -29q1 5 4.5 20.5t4.5 20.5q2 12 2 23q0 41 -32 70q-41 36 -142 36q-99 0 -306 -63l54 235q114 39 205.5 57.5t203.5 18.5q54 0 100.5 -9.5t89.5 -30.5t72.5 -55.5t49.5 -83.5q19 -48 18 -111 q0 -66 -18 -153l-64 -268q-5 -21 -5 -37q1 -32 23 -39q8 -2 18 -2q32 0 85 23l-47 -209q-36 -17 -79 -31.5t-96 -22.5q-31 -5 -59 -5q-20 0 -38 2q-44 6 -76.5 35t-40.5 81q-48 -60 -148.5 -88t-181.5 -28q-86 0 -149 35t-91 106q-16 40 -16 87q0 37 10 79zM446 311 q-2 -10 -2 -20q0 -26 16 -46q22 -28 89 -28q32 0 84 18t80 39l32 142q-53 20 -124 20q-72 0 -118.5 -38.5t-56.5 -86.5z" />
<glyph unicode="b" horiz-adv-x="1226" d="M135 0l332 1454h307l-112 -489q111 51 245 51q82 0 156 -33.5t129 -98.5q56 -64 76 -159q9 -42 8 -89q0 -60 -14 -128q-28 -125 -86.5 -223.5t-123.5 -154.5t-140 -92t-132 -48.5t-104 -12.5q-84 0 -149 34t-91 77q-3 -3 -22.5 -45t-18.5 -43h-260zM506 287 q58 -58 168 -58q92 0 177.5 78.5t111.5 192.5q9 40 9 75q0 65 -30 117q-47 80 -160 80q-84 0 -176 -43z" />
<glyph unicode="c" horiz-adv-x="1021" d="M185 272q-11 45 -11 96q0 58 14 124q21 97 72 182.5t117.5 147t144.5 106t157 66.5t152 22q161 0 320 -47l-55 -238q-56 15 -130 23q-60 7 -100 6h-18q-141 0 -230.5 -78.5t-115.5 -187.5q-8 -31 -7 -60q0 -32 9 -64q18 -58 76.5 -97.5t148.5 -39.5h24q103 0 236 29 l-55 -239q-201 -46 -342 -46q-92 0 -175 34t-145.5 99.5t-86.5 161.5z" />
<glyph unicode="d" horiz-adv-x="1282" d="M176 359q2 69 19 149q21 94 68.5 177.5t109 142.5t132 102.5t141.5 64.5t136 21q133 0 222 -51l112 489h307l-264 -1149q-5 -22 -5 -37q0 -32 22 -39q8 -2 18 -3q32 0 84 24l-45 -209q-36 -17 -79 -31.5t-96 -22.5q-31 -5 -60 -5q-19 0 -37 2q-44 6 -77 35t-40 81 q-40 -48 -130 -85.5t-177 -37.5q-28 0 -58.5 5t-67 16t-69.5 31t-64.5 48t-53.5 70q-22 43 -36 93q-12 45 -13 105q1 7 1 14zM489 500q-9 -39 -9 -74q0 -66 33 -118q50 -78 142 -79q103 0 193 58l100 442q-67 43 -151 43q-113 0 -197.5 -80.5t-110.5 -191.5z" />
<glyph unicode="e" horiz-adv-x="1105" d="M190 205q-20 57 -19 128q0 76 22 169q28 119 90 218t143.5 162.5t175.5 98.5t189 35q223 0 316 -142q58 -88 57 -215q0 -78 -21 -172l-25 -90h-629q-4 -32 3 -61.5t28.5 -58.5t70 -46.5t118.5 -17.5q112 0 319 49l-51 -217q-127 -33 -218.5 -50t-191.5 -18 q-144 0 -240.5 55.5t-136.5 172.5zM530 590h324q7 23 7 49v11q-2 32 -10.5 61t-38.5 48t-77 19t-85.5 -20t-62 -52t-37 -60t-20.5 -56z" />
<glyph unicode="f" horiz-adv-x="804" d="M-170 -410l55 240h193q46 0 76 23.5t39 64.5l194 848h-149l51 225h149l31 133q12 54 31.5 98.5t40 76.5t49.5 57t53.5 41.5t59.5 27.5t58.5 16.5t60.5 8.5t55.5 3.5t52.5 0.5h211l-54 -240h-196q-46 0 -77 -23.5t-40 -64.5l-31 -135h238l-51 -225h-238l-194 -846 q-12 -54 -31.5 -98.5t-40 -76.5t-49.5 -57t-53.5 -41.5t-59.5 -27.5t-58.5 -16.5t-60.5 -8.5t-55.5 -3.5t-52.5 -0.5h-207z" />
<glyph unicode="g" horiz-adv-x="1220" d="M102 -356l54 233q157 -70 327 -70q132 0 200 38.5t87 121.5l18 86q-26 -37 -98.5 -56.5t-150.5 -19.5q-77 0 -149.5 32t-129 95t-76.5 158q-9 41 -9 88q0 61 15 133q24 105 67.5 191.5t97 142t111 96.5t116 61.5t104.5 30t84 9.5q84 0 148 -33.5t92 -77.5q3 3 22 44.5 t19 43.5h260l-244 -1067q-38 -170 -193.5 -262t-408.5 -92q-232 0 -363 74zM489 492q-9 -40 -9 -75q0 -68 36 -117q56 -73 180 -73q58 0 138 29l104 449q-57 57 -166 57q-83 0 -168.5 -73t-114.5 -197z" />
<glyph unicode="h" horiz-adv-x="1204" d="M135 0l332 1454h297l-119 -514q50 28 139.5 52t155.5 24q65 0 115.5 -14t91 -45t61 -81t24.5 -121v-19q0 -64 -20 -146l-133 -590h-313l121 532q11 48 15 81q3 20 2 40q0 14 -1 28q-3 35 -16.5 55.5t-43.5 34t-75 13.5q-27 0 -81 -13t-75 -23l-170 -748h-307z" />
<glyph unicode="i" horiz-adv-x="575" d="M135 0l225 991h306l-226 -991h-305zM418 1276q17 75 60 116.5t134 41.5q92 0 118 -42q16 -26 16 -63q0 -24 -7 -53q-35 -156 -196 -156q-131 0 -131 105q0 23 6 51z" />
<glyph unicode="j" horiz-adv-x="575" d="M-170 -422l55 248h101q30 0 53.5 8.5t35.5 17.5t23 30t13.5 29t9.5 32l239 1048h306l-248 -1081q-43 -181 -153 -256.5t-304 -75.5h-131zM420 1276q17 75 61 116.5t135 41.5t116 -42q16 -24 16 -61q0 -25 -7 -55q-35 -156 -196 -156q-131 0 -131 105q0 23 6 51z" />
<glyph unicode="k" horiz-adv-x="1112" d="M135 0l332 1454h305l-170 -739q65 41 157 126t146 150h340q-216 -267 -463 -432q91 -103 183.5 -258.5t150.5 -300.5h-352q-35 81 -109 197.5t-131 181.5l-84 -379h-305z" />
<glyph unicode="l" horiz-adv-x="669" d="M184 196q2 48 15 111l264 1147h303l-254 -1116q-6 -20 -6 -36q0 -54 78 -54h100l-55 -256h-131q-66 0 -115 6t-88.5 20t-63.5 38q-25 23 -37 58q-11 31 -11 72q1 5 1 10z" />
<glyph unicode="m" horiz-adv-x="1732" d="M135 0l225 991h285l6 -82q62 48 128.5 77.5t113.5 29.5q154 0 237 -103q66 48 147.5 75.5t152.5 27.5q47 0 85.5 -4.5t78.5 -17.5t69.5 -34.5t53 -57.5t33.5 -84q7 -37 7 -87q0 -16 -1 -32q-3 -70 -23 -156l-123 -543h-316l119 532q17 77 17 128q0 37 -9 62 q-21 58 -98 58q-31 0 -149 -49q0 -4 1 -9q0 -46 -18 -122l-135 -600h-309l121 532q17 76 17 126q1 37 -9 61q-22 55 -99 55q-33 0 -137 -43l-164 -731h-307z" />
<glyph unicode="n" horiz-adv-x="1202" d="M135 0l225 991h285l4 -84q172 109 291 109q33 0 63 -4.5t65 -17.5t62.5 -34t50.5 -58t35 -85q9 -38 9 -90q0 -15 -1 -29q-3 -70 -22 -155l-123 -543h-319l121 532q17 74 17 122.5t-16 74t-41.5 35.5t-66.5 10q-53 0 -168 -51l-164 -723h-307z" />
<glyph unicode="o" horiz-adv-x="1236" d="M176 296q-5 30 -5 62q0 61 17 134q25 109 79 199.5t122 150.5t148 101q81 41 159 58q70 15 136 15h16q78 0 147.5 -16t134 -53t102.5 -97t52 -148q5 -29 5 -61q0 -65 -19 -143q-39 -168 -139 -287.5t-232.5 -176.5t-286.5 -57h-16q-67 0 -130 15q-71 17 -133.5 56 t-102.5 100.5t-54 147.5zM494 500q-9 -41 -9 -78q-1 -68 33 -120q52 -78 152 -78.5t184 76t113 200.5q9 41 9 77q0 67 -32 117q-50 76 -151 76q-99 0 -186 -78t-113 -192z" />
<glyph unicode="p" horiz-adv-x="1218" d="M39 -410l321 1401h261v-88q49 44 128.5 77.5t163.5 33.5q28 0 58 -5t66 -16t68.5 -31t63.5 -48t52.5 -70t34.5 -92q11 -44 11 -102v-18q-2 -69 -20 -149q-23 -97 -71 -181.5t-108.5 -143t-130.5 -101t-138 -62.5t-129 -20q-128 0 -226 52l-98 -437h-307zM498 256 q70 -29 129 -29q123 0 210 72.5t115 192.5q11 46 11 84q0 67 -33 114q-50 72 -133 72q-110 0 -195 -57z" />
<glyph unicode="q" horiz-adv-x="1218" d="M183 262q-9 40 -9 86q0 63 16 135q24 105 67.5 191.5t97 142t111 96.5t116 61.5t104.5 30t84 9.5q84 0 148 -33.5t92 -77.5q2 5 20.5 46t18.5 42h260l-320 -1401h-307l98 437q-110 -52 -243 -52q-77 0 -149 32t-128.5 96t-76.5 159zM489 492q-9 -40 -9 -76q0 -68 36 -116 q55 -73 178 -73q60 0 140 29l102 449q-57 57 -166 57q-83 0 -167.5 -72.5t-113.5 -197.5z" />
<glyph unicode="r" horiz-adv-x="841" d="M135 0l225 991h271l2 -114q86 63 171 96t144 33q36 0 70 -5l-57 -251q-27 4 -89 4q-57 0 -134.5 -22.5t-141.5 -59.5l-152 -672h-309z" />
<glyph unicode="s" horiz-adv-x="954" d="M115 49l53 232q53 -28 148.5 -50t166.5 -22q70 0 112 22t50 58q3 12 0.5 21.5t-12.5 17.5t-19.5 14t-30 13t-33.5 11.5t-40.5 12.5t-42.5 12l-47 15q-54 19 -92.5 53t-56 72.5t-24.5 68.5t-7 55q0 68 32 132t91.5 115.5t153.5 82.5t208 31q86 0 170 -21t139 -51l-53 -235 q-51 27 -141 48t-162 21q-112 0 -123 -65q1 -4 -0.5 -9t3 -13t12.5 -16t27.5 -18t47.5 -20q151 -51 200 -80q102 -58 108 -157v-15q0 -45 -15 -100q-29 -93 -80 -156t-121 -95t-143 -44.5t-168 -12.5q-86 0 -171 21t-140 51z" />
<glyph unicode="t" horiz-adv-x="784" d="M227 766l52 225h147l51 219l324 88l-70 -307h197l-51 -225h-197l-98 -426q-4 -17 -5 -30t3 -30.5t23 -27.5t52 -10h103l-56 -250h-133q-80 0 -135.5 9t-98 30t-60.5 57q-19 36 -23 90q-1 10 0 21q0 47 16 108l107 459h-148z" />
<glyph unicode="u" horiz-adv-x="1257" d="M203 294q3 70 22 155l125 542h320l-123 -532q-17 -75 -18 -123v-5q-1 -45 15 -69q16 -26 42 -35.5t67 -9.5q60 0 166 51l166 723h307l-155 -686q-5 -22 -5 -38q0 -32 21 -38q8 -2 18 -2q31 0 84 23l-47 -209q-36 -17 -79 -31.5t-96 -22.5q-31 -5 -59 -5q-20 0 -38 2 q-44 6 -76.5 35t-40.5 81q-68 -62 -159.5 -92.5t-172.5 -30.5q-33 0 -63 4.5t-65 17.5t-62.5 34t-50.5 57q-22 37 -34 85q-9 38 -10 90q0 14 1 29z" />
<glyph unicode="v" horiz-adv-x="1085" d="M244 991h327l58 -612l334 612h329l-612 -991h-272z" />
<glyph unicode="w" horiz-adv-x="1593" d="M250 991h334l22 -563l279 524h254l43 -524l280 563h332l-551 -991h-305l-12 559l-269 -559h-305z" />
<glyph unicode="x" d="M25 0l467 500l-236 491h362l113 -260l238 260h360l-461 -491l240 -500h-363l-116 270l-242 -270h-362z" />
<glyph unicode="y" horiz-adv-x="1097" d="M33 -418l57 246h119q65 0 96 63l101 175l-164 925h338l57 -588l332 588h336l-740 -1196q-41 -70 -81 -113t-88.5 -65.5t-98.5 -29.5q-39 -5 -93 -5h-32h-139z" />
<glyph unicode="z" horiz-adv-x="1095" d="M78 0l45 205l610 540h-452l55 246h891l-47 -205l-611 -540h486l-54 -246h-923z" />
<glyph unicode="{" horiz-adv-x="786" d="M156 442q21 84 28 119q60 9 107 39t59 84l86 369q81 358 424 358h182l-49 -213h-121q-105 0 -131 -96l-69 -309q-31 -132 -84 -198.5t-135 -92.5q142 -41 84 -291l-64 -283q-13 -54 6.5 -88.5t71.5 -34.5h121l-47 -213h-183q-341 0 -260 359l86 368q11 48 -23.5 81.5 t-88.5 41.5z" />
<glyph unicode="|" horiz-adv-x="468" d="M82 -233l434 1871h191l-435 -1871h-190z" />
<glyph unicode="}" horiz-adv-x="786" d="M-27 -408l45 213h121q52 0 88 34.5t49 88.5l66 283q59 252 219 291q-47 17 -72 49t-31 92t17 150l72 309q20 96 -88 96h-121l49 213h182q175 0 239 -92.5t23 -265.5l-88 -369q-12 -54 22.5 -84t92.5 -39q-7 -25 -31 -119q-57 -8 -105.5 -41.5t-59.5 -81.5l-87 -368 q-81 -359 -423 -359h-179z" />
<glyph unicode="&#xa1;" horiz-adv-x="538" d="M18 -410l82 359l185 657h239l-114 -657l-82 -359h-310zM305 868q35 156 197 156q160 0 125 -156q-17 -74 -62.5 -115.5t-136.5 -41.5t-115.5 41t-7.5 116z" />
<glyph unicode="&#xa2;" horiz-adv-x="1079" d="M201.5 291q-16.5 89 7.5 201q25 108 85.5 201.5t139 157.5t166.5 105t176 54l45 202h191l-45 -204q98 -9 204 -39l-55 -238q-54 14 -128 22.5t-118 6.5q-141 0 -231.5 -78.5t-116.5 -187.5q-16 -66 3 -124.5t78 -97.5t149 -39q42 -2 118.5 6.5t139.5 22.5l-56 -239 q-101 -26 -223 -39l-43 -185h-190l43 185q-83 12 -152.5 50.5t-120 103t-67 153.5z" />
<glyph unicode="&#xa3;" horiz-adv-x="1200" d="M115 0l53 246h160l90 383h-158l43 194h158l33 144q49 211 218 339t429 128q86 0 223 -31l-57 -252q-123 25 -228 25q-110 0 -182.5 -65.5t-93.5 -154.5l-31 -133h258l-43 -194h-258l-90 -383h518l-53 -246h-989z" />
<glyph unicode="&#xa4;" horiz-adv-x="1277" d="M174 264l211 170q-28 90 -6.5 182.5t88.5 176.5l-133 170l219 176l127 -168q99 47 192 48.5t172 -46.5l207 166l133 -176l-202 -168q29 -91 6 -184.5t-92 -178.5l127 -166l-215 -176l-131 166q-94 -45 -185.5 -45.5t-171.5 47.5l-209 -170zM611 619.5 q-17 -64.5 24 -123.5q46 -56 112.5 -54t129.5 54t79.5 117t-24.5 122q-45 56 -111 54t-131 -54q-62 -51 -79 -115.5z" />
<glyph unicode="&#xa5;" horiz-adv-x="1402" d="M279 154l47 194h297l32 152h-297l48 196h241l-252 715h369l143 -520l375 520h369l-574 -715h238l-47 -196h-291l-33 -152h291l-47 -194h-291l-33 -154h-321l32 154h-296z" />
<glyph unicode="&#xa6;" horiz-adv-x="440" />
<glyph unicode="&#xa7;" d="M35 -319l129 233q140 -70 264 -82q93 -10 147.5 9t83.5 81q37 66 -48 123q-33 23 -156 80l-60 33q-53 25 -90.5 58.5t-57 65.5t-28.5 71.5t-10 66t4.5 60.5t9 45t8.5 28q59 169 211 254q-85 123 -28 289q57 170 224 261.5t400 67.5q131 -16 256 -82l-131 -235 q-115 57 -213 66q-201 22 -252 -107q-1 -3 -2 -7.5t-0.5 -18.5t5 -27t19 -29t38.5 -27q9 -4 27.5 -15t27.5 -15q63 -30 102 -50.5t87 -51t74.5 -56.5t51.5 -63t31.5 -75t1 -87.5t-27.5 -106.5q-69 -165 -203 -252q87 -114 20 -290q-44 -103 -108.5 -173t-141 -103 t-168 -43.5t-190.5 3.5q-152 16 -307 101zM506.5 468q24.5 -51 87 -93.5t151.5 -63.5q74 45 106.5 92t25 87.5t-42.5 77t-90.5 64t-125.5 46.5q-82 -46 -109 -102.5t-2.5 -107.5z" />
<glyph unicode="&#xa8;" horiz-adv-x="1163" d="M541 1286q15 70 54.5 109t121.5 39q83 0 105 -39t7 -109q-32 -145 -178 -145q-79 0 -102 38.5t-8 106.5zM924 1286q15 70 54.5 109t121.5 39q83 0 105 -39t7 -109q-32 -145 -178 -145q-79 0 -102 38.5t-8 106.5z" />
<glyph unicode="&#xa9;" horiz-adv-x="1622" d="M260 700q36 154 106.5 279.5t158.5 208.5t193.5 139.5t210 81.5t208.5 25q86 0 165 -17.5t151.5 -55t125.5 -96t87.5 -140t36.5 -187t-26 -238.5q-76 -329 -315 -526t-561 -197h4q-322 0 -471.5 197t-73.5 526zM420 700q-58 -255 57.5 -407t364.5 -152h-4 q250 0 436 152.5t244 406.5q30 123 18 217.5t-49.5 161t-100 109.5t-134 62.5t-152.5 19.5t-161.5 -19t-163 -63t-150.5 -108.5t-123 -162.5t-82 -217zM625 698q-37 -159 42.5 -251.5t211.5 -92.5q121 0 225 29l26 115q-40 -7 -70 -11t-51 -5l-31.5 -1.5t-26 0t-21.5 0.5 q-83 0 -128.5 59t-23.5 158q23 99 94.5 158t159.5 59q103 0 193 -18l26 119q-101 26 -213 26q-83 0 -167 -39t-153 -119.5t-93 -185.5z" />
<glyph unicode="&#xaa;" horiz-adv-x="798" d="M262 545l31 139h528l-30 -139h-529zM322 973q13 52 45 94t73 67t85 38.5t85 13.5q98 0 129 -10q0 1 2 10.5t2 23.5q0 66 -110 66q-62 0 -193 -39l33 149q136 48 258 48q52 0 93.5 -14t74.5 -46.5t40.5 -86.5t-7.5 -134l-84 -367h-176l-4 58q-24 -30 -84.5 -49t-104.5 -19 q-86 0 -132.5 53.5t-24.5 143.5zM518 985q-6 -23 8.5 -41t59.5 -18q20 0 51.5 11.5t50.5 25.5l23 94q-24 4 -82 4q-47 0 -75.5 -23t-35.5 -53z" />
<glyph unicode="&#xab;" horiz-adv-x="1150" d="M180 506l381 424h281l-381 -424l186 -424h-280zM631 506l381 424h280l-381 -424l187 -424h-281z" />
<glyph unicode="&#xac;" horiz-adv-x="1255" d="M242 539l59 256h991l-133 -580h-268l74 324h-723z" />
<glyph unicode="&#xad;" horiz-adv-x="923" d="M221 455l55 243h691l-56 -243h-690z" />
<glyph unicode="&#xae;" horiz-adv-x="1622" d="M260 700q36 154 106.5 279.5t158.5 208.5t193.5 139.5t210 81.5t208.5 25q86 0 165 -17.5t151.5 -55t125.5 -96t87.5 -140t36.5 -187t-26 -238.5q-76 -329 -315 -526t-561 -197h4q-322 0 -471.5 197t-73.5 526zM420 700q-58 -255 57.5 -407t364.5 -152h-4 q250 0 436 152.5t244 406.5q30 123 18 217.5t-49.5 161t-100 109.5t-134 62.5t-152.5 19.5t-161.5 -19t-163 -63t-150.5 -108.5t-123 -162.5t-82 -217zM655 365l156 667h276q93 0 140.5 -53.5t25.5 -149.5q-20 -88 -69 -139t-117 -59q37 -60 71.5 -135t49.5 -131h-166 q-31 101 -82 204q-23 47 -37 47h-41l-57 -251h-150zM891 735h129q62 0 84 86q9 35 -8.5 59.5t-51.5 24.5h-114z" />
<glyph unicode="&#xaf;" horiz-adv-x="1026" d="M514 1180l51 209h535l-51 -209h-535z" />
<glyph unicode="&#xb0;" horiz-adv-x="731" d="M339.5 1027.5q-8.5 52.5 6.5 129.5q23 100 78 164t120 88.5t144 24.5q127 0 193 -65.5t32 -211.5q-33 -143 -129 -209.5t-221 -66.5q-57 0 -101.5 14.5t-79 47t-43 85zM518 1157q-13 -56 12.5 -82t71.5 -26q49 0 86.5 26t50.5 82q13 58 -12.5 83.5t-75.5 25.5 q-48 0 -84 -26t-49 -83z" />
<glyph unicode="&#xb1;" horiz-adv-x="1167" d="M129 0l53 244h910l-54 -244h-909zM276 649l58 254h323l66 285h262l-65 -285h323l-57 -254h-324l-67 -284h-263l68 284h-324z" />
<glyph unicode="&#xb2;" horiz-adv-x="780" d="M276 901l35 158l373 305q110 88 125 147q8 39 -16.5 58.5t-65.5 19.5q-103 0 -287 -78l41 179q75 40 161 63t149 23q309 0 256 -258q-3 -13 -12 -36t-42.5 -70.5t-79.5 -82.5l-284 -239h315l-43 -189h-625z" />
<glyph unicode="&#xb3;" horiz-adv-x="747" d="M291 932l39 168q104 -45 219 -45q70 0 107 23.5t49 74.5q1 3 1.5 9t0 20.5t-4 26t-15.5 22.5t-30 14h-161l34 148h156q31 6 52 27t26 39l6 18q11 50 -14.5 75t-91.5 25q-102 0 -215 -41l38 168q43 17 124 35t134 18q131 0 201 -55t70 -148q0 -51 -37.5 -124t-114.5 -113 q24 -18 39 -44t19 -50t4 -47.5t-2.5 -36.5t-3.5 -15q-30 -113 -129 -179t-248 -66q-54 0 -136 18.5t-116 34.5z" />
<glyph unicode="&#xb4;" horiz-adv-x="1038" d="M526 1145l217 342h275l-264 -342h-228z" />
<glyph unicode="&#xb6;" horiz-adv-x="1261" d="M315 1047q35 151 166.5 257.5t282.5 106.5h635l-383 -1663h-232l330 1432h-172l-330 -1432h-231l215 934q-151 0 -233.5 106.5t-47.5 258.5z" />
<glyph unicode="&#xb7;" horiz-adv-x="526" d="M248 645q17 74 63.5 116t137.5 42q62 0 93.5 -21.5t33.5 -56.5t-7 -80q-35 -156 -196 -156q-160 0 -125 156z" />
<glyph unicode="&#xb8;" horiz-adv-x="1140" d="M242 -373l37 168q213 -57 272 -10q29 23 41 55t0 83.5t-55 111.5h161q101 -106 66 -244q-26 -108 -115.5 -170t-216.5 -49q-111 12 -190 55z" />
<glyph unicode="&#xb9;" horiz-adv-x="638" d="M287 901l37 166h135l112 485l-145 -57l37 164l227 94h166l-160 -686h138l-37 -166h-510z" />
<glyph unicode="&#xba;" horiz-adv-x="892" d="M274 545l31 139h596l-31 -139h-596zM347.5 949q-15.5 63 2.5 151q20 87 67 154.5t107 106t123.5 57t122.5 16.5q50 0 94 -10t85.5 -33.5t65.5 -61.5t34 -94t-9 -131q-37 -160 -151.5 -246t-265.5 -86q-61 -2 -116 16t-99.5 58t-60 103zM547 1106q-18 -77 15 -126.5 t97 -49.5t117.5 48t71.5 128q17 76 -14 124t-95 48q-63 0 -119 -50t-73 -122z" />
<glyph unicode="&#xbb;" horiz-adv-x="1150" d="M88 82l379 424l-184 424h280l185 -424l-379 -424h-281zM539 82l379 424l-185 424h281l184 -424l-379 -424h-280z" />
<glyph unicode="&#xbc;" horiz-adv-x="1789" d="M236 559l36 166h136l110 485l-145 -57l37 164l227 94h166l-158 -686h137l-37 -166h-509zM512 0l895 1411h168l-895 -1411h-168zM1049 184h362l-43 -184h236l43 184h94l39 176h-94l112 492h-209l-510 -530zM1282 360l221 234l-53 -234h-168z" />
<glyph unicode="&#xbd;" horiz-adv-x="1820" d="M233 559l37 166h136l110 485l-145 -57l37 164l227 94h166l-158 -686h137l-37 -166h-510zM510 0l895 1411h168l-895 -1411h-168zM1098 0l35 158l372 305q110 88 125 147q8 39 -16.5 58.5t-65.5 19.5q-102 0 -286 -78l41 178q74 40 159 63t148 23q264 0 264 -200 q0 -55 -35 -123t-102 -123l-287 -240h315l-43 -188h-624z" />
<glyph unicode="&#xbe;" horiz-adv-x="1843" d="M236 598l38 168q106 -45 218 -45q71 0 109 23.5t50 74.5q1 3 1.5 9t0 20.5t-4.5 26t-16 22.5t-30 14h-162l33 148h156q31 6 52.5 27t27.5 39l6 18q11 51 -14 75.5t-91 24.5q-102 0 -217 -41l41 168q44 17 122.5 35t131.5 18q131 0 202 -54.5t71 -147.5q0 -30 -12.5 -70 t-48.5 -90t-89 -78q15 -11 26.5 -26t17.5 -30t10 -31.5t5 -30.5t0.5 -28t-1.5 -23t-2 -16l-1 -7q-30 -112 -130 -179t-249 -67q-53 0 -134 18.5t-117 34.5zM565 0l893 1411h168l-893 -1411h-168zM1100 184h362l-41 -184h236l41 184h94l39 176h-94l112 492h-209l-510 -530z M1333 360l221 234l-53 -234h-168z" />
<glyph unicode="&#xbf;" horiz-adv-x="1015" d="M66 -35q5 23 8.5 36t16.5 48.5t28 61.5t44 64t64 68.5t88 63.5t117 58q82 32 140.5 83.5t74.5 120.5l6 29h267l-5 -14q-94 -345 -417 -478q-43 -19 -73.5 -50t-39.5 -50.5t-12 -34.5q-16 -67 18.5 -109t124.5 -42q78 0 177 26.5t188 69.5l-33 -248q-91 -54 -182.5 -76 t-194.5 -30q-225 -13 -336 104t-69 299zM686 860q35 156 197 156q160 0 125 -156q-17 -75 -61.5 -116.5t-135.5 -41.5t-116.5 41.5t-8.5 116.5z" />
<glyph unicode="&#xc0;" horiz-adv-x="1351" d="M29 0q216 419 398 735.5t429 675.5h283q58 -247 96 -505.5t53.5 -434t34.5 -471.5h-319q-5 64 -13.5 188.5t-13.5 182.5h-438q-133 -255 -191 -371h-319zM680 629h281q-2 16 -14.5 187.5t-28.5 248.5q-27 -45 -61.5 -107t-59 -107.5t-63.5 -119t-54 -102.5zM819 1907h275 l59 -342h-227z" />
<glyph unicode="&#xc1;" horiz-adv-x="1351" d="M29 0q216 419 398 735.5t429 675.5h283q58 -247 96 -505.5t53.5 -434t34.5 -471.5h-319q-5 64 -13.5 188.5t-13.5 182.5h-438q-133 -255 -191 -371h-319zM680 629h281q-2 16 -14.5 187.5t-28.5 248.5q-27 -45 -61.5 -107t-59 -107.5t-63.5 -119t-54 -102.5zM915 1565 l215 342h275l-262 -342h-228z" />
<glyph unicode="&#xc2;" horiz-adv-x="1351" d="M29 0q216 419 398 735.5t429 675.5h283q58 -247 96 -505.5t53.5 -434t34.5 -471.5h-319q-5 64 -13.5 188.5t-13.5 182.5h-438q-133 -255 -191 -371h-319zM672 1565l311 342h256l156 -342h-221l-103 168l-178 -168h-221zM680 629h281q-2 16 -14.5 187.5t-28.5 248.5 q-27 -45 -61.5 -107t-59 -107.5t-63.5 -119t-54 -102.5z" />
<glyph unicode="&#xc3;" horiz-adv-x="1351" d="M29 0q216 419 398 735.5t429 675.5h283q58 -247 96 -505.5t53.5 -434t34.5 -471.5h-319q-5 64 -13.5 188.5t-13.5 182.5h-438q-133 -255 -191 -371h-319zM680 629h281q-2 16 -14.5 187.5t-28.5 248.5q-27 -45 -61.5 -107t-59 -107.5t-63.5 -119t-54 -102.5zM686 1608 q29 124 114 199t191 75q31 0 69.5 -19t68 -37.5t60 -28.5t57 9.5t46.5 75.5h170q-9 -41 -24 -77.5t-41.5 -73.5t-61.5 -63.5t-86 -43t-112 -16.5q-29 0 -65.5 18t-65 35.5t-58.5 27t-56.5 -9t-47.5 -71.5h-158z" />
<glyph unicode="&#xc4;" horiz-adv-x="1351" d="M29 0q216 419 398 735.5t429 675.5h283q58 -247 96 -505.5t53.5 -434t34.5 -471.5h-319q-5 64 -13.5 188.5t-13.5 182.5h-438q-133 -255 -191 -371h-319zM680 629h281q-2 16 -14.5 187.5t-28.5 248.5q-27 -45 -61.5 -107t-59 -107.5t-63.5 -119t-54 -102.5zM731 1706 q15 69 56 108t124 39q82 0 103 -38t6 -109q-32 -145 -178 -145q-79 0 -102.5 38.5t-8.5 106.5zM1114 1706q15 69 56 108t124 39q82 0 103 -38t6 -109q-32 -145 -178 -145q-79 0 -102.5 38.5t-8.5 106.5z" />
<glyph unicode="&#xc5;" horiz-adv-x="1351" d="M29 0q216 419 398 735.5t429 675.5h283q58 -247 96 -505.5t53.5 -434t34.5 -471.5h-319q-5 64 -13.5 188.5t-13.5 182.5h-438q-133 -255 -191 -371h-319zM680 629h281q-2 16 -14.5 187.5t-28.5 248.5q-27 -45 -61.5 -107t-59 -107.5t-63.5 -119t-54 -102.5zM870 1751 q25 108 92.5 155.5t159.5 47.5q93 0 139.5 -47.5t22.5 -155.5q-23 -105 -94 -154t-162 -49q-90 0 -135.5 48.5t-22.5 154.5zM1004 1751q-9 -35 8.5 -53.5t48.5 -18.5t56 18.5t34 53.5q16 72 -57 72q-74 0 -90 -72z" />
<glyph unicode="&#xc6;" horiz-adv-x="1900" d="M29 0q216 419 398 735.5t429 675.5h1253l-63 -276h-649l-62 -275h592l-63 -270h-592l-47 -209q-23 -105 80 -105h544l-61 -276h-617q-189 6 -254.5 74t-29.5 239l12 58h-360q-133 -255 -191 -371h-319zM680 629h281l114 506h-117q-30 -44 -59.5 -93t-48 -80t-49.5 -91 t-39 -76t-43.5 -88t-38.5 -78z" />
<glyph unicode="&#xc7;" horiz-adv-x="1343" d="M237.5 418.5q-19.5 125.5 14.5 283.5q32 136 98.5 255t153 205t188.5 148t208.5 93t209.5 31q128 0 251 -18.5t198 -43.5l-62 -262q-216 33 -405 33q-178 0 -323 -118.5t-194 -315.5q-44 -201 45 -321t269 -120q190 0 422 33l-60 -262q-167 -48 -393 -59q50 -83 25 -189 q-27 -108 -116 -170t-216 -49q-116 12 -191 55l37 168q214 -58 273 -10q84 69 18 199q-115 16 -209 70.5t-158 146.5t-83.5 217.5z" />
<glyph unicode="&#xc8;" horiz-adv-x="1249" d="M236 313l251 1098h971l-63 -276h-650l-63 -275h592l-62 -270h-591l-50 -209q-23 -105 80 -105h545l-59 -276h-617q-189 6 -255 74t-29 239zM786 1907h275l59 -342h-227z" />
<glyph unicode="&#xc9;" horiz-adv-x="1249" d="M236 313l251 1098h971l-63 -276h-650l-63 -275h592l-62 -270h-591l-50 -209q-23 -105 80 -105h545l-59 -276h-617q-189 6 -255 74t-29 239zM831 1565l216 342h274l-262 -342h-228z" />
<glyph unicode="&#xca;" horiz-adv-x="1249" d="M236 313l251 1098h971l-63 -276h-650l-63 -275h592l-62 -270h-591l-50 -209q-23 -105 80 -105h545l-59 -276h-617q-189 6 -255 74t-29 239zM604 1565l311 342h256l156 -342h-221l-102 168l-179 -168h-221z" />
<glyph unicode="&#xcb;" horiz-adv-x="1249" d="M236 313l251 1098h971l-63 -276h-650l-63 -275h592l-62 -270h-591l-50 -209q-23 -105 80 -105h545l-59 -276h-617q-189 6 -255 74t-29 239zM666 1706q15 70 55 108.5t123 38.5q57 0 85.5 -20t30.5 -52.5t-6 -74.5q-32 -145 -180 -145q-79 0 -101 38t-7 107zM1049 1706 q15 70 55 108.5t123 38.5q57 0 85.5 -20t30.5 -52.5t-6 -74.5q-32 -145 -180 -145q-79 0 -101 38t-7 107z" />
<glyph unicode="&#xcc;" horiz-adv-x="661" d="M170 0l322 1411h321l-321 -1411h-322zM516 1907h275l59 -342h-227z" />
<glyph unicode="&#xcd;" horiz-adv-x="661" d="M170 0l322 1411h321l-321 -1411h-322zM528 1565l215 342h275l-262 -342h-228z" />
<glyph unicode="&#xce;" horiz-adv-x="661" d="M170 0l322 1411h321l-321 -1411h-322zM328 1565l311 342h256l156 -342h-222l-102 168l-178 -168h-221z" />
<glyph unicode="&#xcf;" horiz-adv-x="661" d="M170 0l322 1411h321l-321 -1411h-322zM387 1706q15 69 56 108t124 39q82 0 103 -38t6 -109q-32 -145 -178 -145q-79 0 -102.5 38.5t-8.5 106.5zM770 1706q15 69 56 108t124 39q82 0 103 -38t6 -109q-32 -145 -178 -145q-79 0 -102.5 38.5t-8.5 106.5z" />
<glyph unicode="&#xd0;" horiz-adv-x="1458" d="M184 580l56 239h151l133 592h500q130 0 237 -45t181 -134t96.5 -221.5t-16.5 -308.5q-32 -139 -94.5 -255t-143 -197.5t-177.5 -138.5t-199 -84t-206 -27h-499l133 580h-152zM588 289h98q202 0 330 105t174 308q95 420 -311 420h-99l-67 -303h262l-55 -239h-263z" />
<glyph unicode="&#xd1;" horiz-adv-x="1456" d="M170 0l322 1411h317q221 -445 297 -790l180 790h322l-322 -1411h-309q-46 174 -79.5 289t-91.5 272.5t-122 284.5l-190 -846h-324zM737 1608q29 124 114 199t191 75q31 0 69.5 -19t68 -37.5t60 -28.5t57 9.5t46.5 75.5h170q-9 -41 -24 -77.5t-41.5 -73.5t-61.5 -63.5 t-86 -43t-112 -16.5q-29 0 -65.5 18t-65 35.5t-58.5 27t-56.5 -9t-47.5 -71.5h-158z" />
<glyph unicode="&#xd2;" horiz-adv-x="1650" d="M252 700q35 153 107.5 278.5t163.5 208.5t200 140t215.5 82t212.5 25q105 0 200 -25.5t179 -80.5t135.5 -141.5t69 -207.5t-20.5 -279q-49 -216 -179.5 -380.5t-316 -253t-399.5 -89.5q-215 0 -361 89t-200.5 253.5t-5.5 380.5zM575 700q-44 -192 41 -316t263 -124 q180 0 326 124t190 316q24 117 8.5 202.5t-65 140.5t-114 81.5t-137.5 26.5q-74 0 -150.5 -27.5t-149 -80t-129.5 -142t-83 -201.5zM958 1907h275l59 -342h-227z" />
<glyph unicode="&#xd3;" horiz-adv-x="1650" d="M252 700q35 153 107.5 278.5t163.5 208.5t200 140t215.5 82t212.5 25q105 0 200 -25.5t179 -80.5t135.5 -141.5t69 -207.5t-20.5 -279q-49 -216 -179.5 -380.5t-316 -253t-399.5 -89.5q-215 0 -361 89t-200.5 253.5t-5.5 380.5zM575 700q-44 -192 41 -316t263 -124 q180 0 326 124t190 316q24 117 8.5 202.5t-65 140.5t-114 81.5t-137.5 26.5q-74 0 -150.5 -27.5t-149 -80t-129.5 -142t-83 -201.5zM1047 1565l215 342h274l-262 -342h-227z" />
<glyph unicode="&#xd4;" horiz-adv-x="1650" d="M252 700q35 153 107.5 278.5t163.5 208.5t200 140t215.5 82t212.5 25q105 0 200 -25.5t179 -80.5t135.5 -141.5t69 -207.5t-20.5 -279q-49 -216 -179.5 -380.5t-316 -253t-399.5 -89.5q-215 0 -361 89t-200.5 253.5t-5.5 380.5zM575 700q-44 -192 41 -316t263 -124 q180 0 326 124t190 316q24 117 8.5 202.5t-65 140.5t-114 81.5t-137.5 26.5q-74 0 -150.5 -27.5t-149 -80t-129.5 -142t-83 -201.5zM819 1565l311 342h256l156 -342h-221l-102 168l-179 -168h-221z" />
<glyph unicode="&#xd5;" horiz-adv-x="1650" d="M252 700q35 153 107.5 278.5t163.5 208.5t200 140t215.5 82t212.5 25q105 0 200 -25.5t179 -80.5t135.5 -141.5t69 -207.5t-20.5 -279q-49 -216 -179.5 -380.5t-316 -253t-399.5 -89.5q-215 0 -361 89t-200.5 253.5t-5.5 380.5zM575 700q-44 -192 41 -316t263 -124 q180 0 326 124t190 316q24 117 8.5 202.5t-65 140.5t-114 81.5t-137.5 26.5q-74 0 -150.5 -27.5t-149 -80t-129.5 -142t-83 -201.5zM836 1608q29 124 114 199t191 75q31 0 69 -19t67.5 -37.5t60 -28.5t57 9.5t47.5 75.5h170q-12 -52 -34.5 -97t-59.5 -87t-97 -66t-135 -24 q-29 0 -65.5 18t-65.5 35.5t-59 27t-56.5 -9t-46.5 -71.5h-157z" />
<glyph unicode="&#xd6;" horiz-adv-x="1650" d="M252 700q35 153 107.5 278.5t163.5 208.5t200 140t215.5 82t212.5 25q105 0 200 -25.5t179 -80.5t135.5 -141.5t69 -207.5t-20.5 -279q-49 -216 -179.5 -380.5t-316 -253t-399.5 -89.5q-215 0 -361 89t-200.5 253.5t-5.5 380.5zM575 700q-44 -192 41 -316t263 -124 q180 0 326 124t190 316q24 117 8.5 202.5t-65 140.5t-114 81.5t-137.5 26.5q-74 0 -150.5 -27.5t-149 -80t-129.5 -142t-83 -201.5zM879 1706q15 69 56 108t124 39q82 0 103 -38t5 -109q-32 -145 -178 -145q-79 0 -102 38.5t-8 106.5zM1262 1706q15 69 56 108t124 39 q82 0 103 -38t5 -109q-32 -145 -178 -145q-79 0 -102 38.5t-8 106.5z" />
<glyph unicode="&#xd7;" horiz-adv-x="1040" d="M186 342l283 229l-178 232l225 184l178 -231l283 229l139 -180l-282 -230l178 -231l-228 -184l-178 231l-282 -229z" />
<glyph unicode="&#xd8;" horiz-adv-x="1650" d="M125 8l197 185q-139 193 -68 507q35 153 107 278.5t163 208.5t199.5 140t215 82t212.5 25q225 0 377 -105l201 187l116 -121l-194 -183q138 -198 65 -512q-76 -326 -324 -524.5t-573 -198.5q-224 0 -375 97l-198 -189zM575 700q-33 -143 11 -260l694 654q-83 57 -193 57 q-74 0 -150.5 -27.5t-148.5 -80t-129 -142t-84 -201.5zM694 309q73 -49 185 -49q181 0 327 124.5t189 315.5q35 148 -11 263z" />
<glyph unicode="&#xd9;" horiz-adv-x="1478" d="M263.5 418.5q-3.5 -80.5 7 -139t35.5 -106t55 -78.5t71 -53.5t77.5 -34.5t81 -19.5t75 -9t65.5 -1.5q47 0 88 3t106.5 17t121 38t121 70.5t116.5 109.5t97.5 160.5t74.5 218.5l189 817h-322l-178 -780q-17 -74 -41.5 -132.5t-48 -95t-54.5 -63t-53.5 -39t-54 -19.5 t-46.5 -7.5t-39 -0.5h-7h-6q-17 0 -28 0.5t-32.5 3.5t-36 8.5t-34 18t-31 30t-22 45t-13 62t2 83t17.5 106.5l179 780h-320l-188 -817q-22 -95 -25.5 -175.5zM889 1907h274l62 -342h-228z" />
<glyph unicode="&#xda;" horiz-adv-x="1478" d="M263.5 418.5q3.5 80.5 25.5 175.5l188 817h320l-179 -780q-13 -58 -17.5 -106.5t-2.5 -83t13 -62t22.5 -45t31 -30t33.5 -18t36.5 -8.5t32.5 -3.5t28 -0.5h6q80 0 126 19q154 61 218 338l178 780h322l-189 -817q-28 -121 -74.5 -218.5t-97.5 -160.5t-116.5 -109.5 t-121 -70.5t-121 -38t-106.5 -17t-88 -3q-35 0 -65.5 1.5t-75 9t-81 19.5t-77.5 34.5t-71 53.5t-55 78.5t-35.5 106t-7 139zM924 1565l213 342h274l-260 -342h-227z" />
<glyph unicode="&#xdb;" horiz-adv-x="1478" d="M263.5 418.5q-3.5 -80.5 7 -139t35.5 -106t55 -78.5t71 -53.5t77.5 -34.5t81 -19.5t75 -9t65.5 -1.5q47 0 88 3t106.5 17t121 38t121 70.5t116.5 109.5t97.5 160.5t74.5 218.5l189 817h-322l-178 -780q-17 -74 -41.5 -132.5t-48 -95t-54.5 -63t-53.5 -39t-54 -19.5 t-46.5 -7.5t-39 -0.5h-7h-6q-17 0 -28 0.5t-32.5 3.5t-36 8.5t-34 18t-31 30t-22 45t-13 62t2 83t17.5 106.5l179 780h-320l-188 -817q-22 -95 -25.5 -175.5zM735 1565l309 342h256l158 -342h-221l-104 168l-177 -168h-221z" />
<glyph unicode="&#xdc;" horiz-adv-x="1478" d="M263.5 418.5q-3.5 -80.5 7 -139t35.5 -106t55 -78.5t71 -53.5t77.5 -34.5t81 -19.5t75 -9t65.5 -1.5q47 0 88 3t106.5 17t121 38t121 70.5t116.5 109.5t97.5 160.5t74.5 218.5l189 817h-322l-178 -780q-17 -74 -41.5 -132.5t-48 -95t-54.5 -63t-53.5 -39t-54 -19.5 t-46.5 -7.5t-39 -0.5h-7h-6q-17 0 -28 0.5t-32.5 3.5t-36 8.5t-34 18t-31 30t-22 45t-13 62t2 83t17.5 106.5l179 780h-320l-188 -817q-22 -95 -25.5 -175.5zM795 1706q15 70 55 108.5t123 38.5q57 0 85.5 -20t30.5 -52.5t-6 -74.5q-32 -145 -180 -145q-79 0 -101 38t-7 107 zM1178 1706q15 70 55 108.5t123 38.5q57 0 85.5 -20t30.5 -52.5t-6 -74.5q-32 -145 -180 -145q-79 0 -101 38t-7 107z" />
<glyph unicode="&#xdd;" horiz-adv-x="1265" d="M326 1411h368l142 -520l376 520h369l-651 -809l-135 -602h-322l135 602zM850 1565l213 342h274l-260 -342h-227z" />
<glyph unicode="&#xde;" horiz-adv-x="1271" d="M170 0l322 1411h321l-57 -262h286q86 0 155 -27t118 -81.5t63 -138t-10 -197.5q-25 -111 -80.5 -197t-128 -138.5t-154 -79t-167.5 -26.5h-287l-59 -264h-322zM612 532h248q152 0 195 173q21 86 -8 132t-107 46h-248z" />
<glyph unicode="&#xdf;" horiz-adv-x="1218" d="M133 0l197 864q32 136 78 235t120 177t183.5 118t255.5 40h34q35 0 72 -7.5t80 -25.5t76 -48.5t59 -76.5t29.5 -109t-12.5 -147q-16 -72 -68.5 -140.5t-132.5 -111.5q75 -38 114.5 -137t14.5 -209q-26 -109 -80 -190t-131 -130t-168.5 -74t-200.5 -28h-118l57 262h121 q69 0 140.5 53.5t88.5 122.5q11 43 2 75t-26.5 53t-42 33.5t-44.5 18t-36 5.5h-78l55 243h70q54 0 104.5 49.5t63.5 104.5q16 67 -20 109t-91 42q-49 0 -90 -20t-67 -49.5t-47 -73.5t-32.5 -81t-21.5 -83l-197 -864h-311z" />
<glyph unicode="&#xe0;" d="M139 291q-22 -95 6 -166t91 -106t149 -35q81 0 181.5 28t148.5 88q8 -52 41 -81t76.5 -34.5t96.5 2.5t96 22.5t79 31.5l47 209q-70 -31 -103.5 -21t-17.5 76l64 268q18 84 18.5 149.5t-19 114.5t-49 83.5t-72.5 55.5t-89.5 30.5t-100.5 9.5q-112 0 -203.5 -18.5 t-205.5 -57.5l-54 -235q207 63 306 63q101 0 142 -36t30 -93q-1 -5 -4.5 -20.5t-4.5 -20.5q-89 29 -198 29q-65 0 -134.5 -21t-134.5 -61t-114.5 -106.5t-67.5 -147.5zM446 311q10 48 56.5 86.5t118.5 38.5q71 0 124 -20l-32 -142q-28 -21 -80 -39t-84 -18q-68 0 -89.5 28 t-13.5 66zM594 1487h274l58 -342h-228z" />
<glyph unicode="&#xe1;" d="M139 291q18 81 67.5 147.5t114.5 106.5t134.5 61t134.5 21q109 0 198 -29q1 5 4.5 20.5t4.5 20.5q11 57 -30 93t-142 36q-99 0 -306 -63l54 235q114 39 205.5 57.5t203.5 18.5q54 0 100.5 -9.5t89.5 -30.5t72.5 -55.5t49 -83.5t19 -114.5t-18.5 -149.5l-64 -268 q-16 -66 17.5 -76t103.5 21l-47 -209q-36 -17 -79 -31.5t-96 -22.5t-96.5 -2.5t-76.5 34.5t-41 81q-48 -60 -148.5 -88t-181.5 -28q-86 0 -149 35t-91 106t-6 166zM446 311q-8 -38 13.5 -66t89.5 -28q32 0 84 18t80 39l32 142q-53 20 -124 20q-72 0 -118.5 -38.5 t-56.5 -86.5zM639 1145l217 342h274l-264 -342h-227z" />
<glyph unicode="&#xe2;" d="M139 291q-22 -95 6 -166t91 -106t149 -35q81 0 181.5 28t148.5 88q8 -52 41 -81t76.5 -34.5t96.5 2.5t96 22.5t79 31.5l47 209q-70 -31 -103.5 -21t-17.5 76l64 268q18 84 18.5 149.5t-19 114.5t-49 83.5t-72.5 55.5t-89.5 30.5t-100.5 9.5q-112 0 -203.5 -18.5 t-205.5 -57.5l-54 -235q207 63 306 63q101 0 142 -36t30 -93q-1 -5 -4.5 -20.5t-4.5 -20.5q-89 29 -198 29q-65 0 -134.5 -21t-134.5 -61t-114.5 -106.5t-67.5 -147.5zM442 1145l314 342h256l153 -342h-221l-102 168l-178 -168h-222zM446 311q10 48 56.5 86.5t118.5 38.5 q71 0 124 -20l-32 -142q-28 -21 -80 -39t-84 -18q-68 0 -89.5 28t-13.5 66z" />
<glyph unicode="&#xe3;" d="M139 291q-22 -95 6 -166t91 -106t149 -35q81 0 181.5 28t148.5 88q8 -52 41 -81t76.5 -34.5t96.5 2.5t96 22.5t79 31.5l47 209q-70 -31 -103.5 -21t-17.5 76l64 268q18 84 18.5 149.5t-19 114.5t-49 83.5t-72.5 55.5t-89.5 30.5t-100.5 9.5q-112 0 -203.5 -18.5 t-205.5 -57.5l-54 -235q207 63 306 63q101 0 142 -36t30 -93q-1 -5 -4.5 -20.5t-4.5 -20.5q-89 29 -198 29q-65 0 -134.5 -21t-134.5 -61t-114.5 -106.5t-67.5 -147.5zM446 311q10 48 56.5 86.5t118.5 38.5q71 0 124 -20l-32 -142q-28 -21 -80 -39t-84 -18q-68 0 -89.5 28 t-13.5 66zM500 1188q29 124 113 199t190 75q31 0 69.5 -19t68.5 -37.5t60.5 -28.5t56.5 9.5t46 75.5h170q-12 -52 -34 -97t-59 -87t-96.5 -66t-134.5 -24q-29 0 -65.5 18t-65.5 35.5t-59 27t-56.5 -9t-46.5 -71.5h-157z" />
<glyph unicode="&#xe4;" d="M139 291q-22 -95 6 -166t91 -106t149 -35q81 0 181.5 28t148.5 88q8 -52 41 -81t76.5 -34.5t96.5 2.5t96 22.5t79 31.5l47 209q-70 -31 -103.5 -21t-17.5 76l64 268q18 84 18.5 149.5t-19 114.5t-49 83.5t-72.5 55.5t-89.5 30.5t-100.5 9.5q-112 0 -203.5 -18.5 t-205.5 -57.5l-54 -235q207 63 306 63q101 0 142 -36t30 -93q-1 -5 -4.5 -20.5t-4.5 -20.5q-89 29 -198 29q-65 0 -134.5 -21t-134.5 -61t-114.5 -106.5t-67.5 -147.5zM446 311q10 48 56.5 86.5t118.5 38.5q71 0 124 -20l-32 -142q-28 -21 -80 -39t-84 -18q-68 0 -89.5 28 t-13.5 66zM543 1286q15 70 55 109t123 39q57 0 85.5 -20t30.5 -53t-6 -75q-32 -145 -176 -145q-79 0 -103 38.5t-9 106.5zM926 1286q15 70 55 109t123 39q57 0 85.5 -20t30.5 -53t-6 -75q-32 -145 -176 -145q-79 0 -103 38.5t-9 106.5z" />
<glyph unicode="&#xe5;" d="M139 291q18 81 67.5 147.5t114.5 106.5t134.5 61t134.5 21q109 0 198 -29q1 5 4.5 20.5t4.5 20.5q11 57 -30 93t-142 36q-99 0 -306 -63l54 235q114 39 205.5 57.5t203.5 18.5q54 0 100.5 -9.5t89.5 -30.5t72.5 -55.5t49 -83.5t19 -114.5t-18.5 -149.5l-64 -268 q-16 -66 17.5 -76t103.5 21l-47 -209q-36 -17 -79 -31.5t-96 -22.5t-96.5 -2.5t-76.5 34.5t-41 81q-48 -60 -148.5 -88t-181.5 -28q-86 0 -149 35t-91 106t-6 166zM446 311q-8 -38 13.5 -66t89.5 -28q32 0 84 18t80 39l32 142q-53 20 -124 20q-72 0 -118.5 -38.5 t-56.5 -86.5zM624.5 1236q-6.5 39 4.5 95q49 203 254 203q93 0 139 -47.5t20 -155.5q-25 -105 -93 -154t-158 -49q-43 0 -76.5 10.5t-58.5 34.5t-31.5 63zM762 1331q-7 -35 9.5 -53t47.5 -18q32 0 57.5 18t32.5 53q16 72 -57 72q-74 0 -90 -72z" />
<glyph unicode="&#xe6;" horiz-adv-x="1677" d="M139 291q18 81 67.5 147.5t114.5 106.5t134.5 61t134.5 21q115 0 198 -27l9 39q11 57 -30 93t-142 36q-99 0 -306 -63l54 235q114 39 205.5 57.5t203.5 18.5q84 0 154 -28.5t106 -86.5q151 115 320 115q223 0 316 -141.5t36 -387.5l-24 -90h-629q-4 -32 3 -61.5 t28.5 -58.5t69.5 -46.5t118 -17.5q112 0 319 49l-51 -217q-127 -33 -218 -50t-191 -18q-123 0 -215 33.5t-119 106.5q-146 -140 -422 -140q-133 0 -205 85.5t-39 228.5zM446 311q-8 -38 13.5 -66t89.5 -28q32 0 84 18t80 39l30 138q-42 18 -125 18q-72 0 -117 -36t-55 -83z M1100 590h323q8 32 8 61.5t-9 59.5t-38.5 48.5t-76.5 18.5t-85.5 -20t-62.5 -52t-38 -60.5t-21 -55.5z" />
<glyph unicode="&#xe7;" horiz-adv-x="1021" d="M172 -373l37 168q213 -57 272 -10q24 20 36.5 46.5t9 67.5t-28.5 89q-79 15 -144.5 54.5t-112 103.5t-62 150.5t6.5 195.5q22 97 73 182.5t117.5 147t144.5 106t156.5 66.5t151.5 22q161 0 320 -47l-55 -238q-56 14 -129.5 22.5t-118.5 6.5q-141 0 -230.5 -78.5 t-115.5 -187.5q-16 -66 2.5 -124.5t77.5 -97.5t149 -39q41 -2 118 6.5t140 22.5l-55 -239q-117 -30 -260 -41q46 -90 22 -191q-27 -108 -116 -170t-216 -49q-111 12 -190 55z" />
<glyph unicode="&#xe8;" horiz-adv-x="1105" d="M190.5 205q-40.5 117 2.5 297q28 119 90 218t143.5 162.5t175.5 98.5t189 35q223 0 316 -141.5t36 -387.5l-25 -90h-629q-4 -32 3 -61.5t28.5 -58.5t70 -46.5t118.5 -17.5q112 0 319 49l-51 -217q-127 -33 -218.5 -50t-191.5 -18q-144 0 -240 55.5t-136.5 172.5zM530 590 h324q9 28 7 60.5t-10.5 61t-38.5 47.5t-77 19t-85.5 -20t-62 -52t-37 -60t-20.5 -56zM631 1487h274l58 -342h-228z" />
<glyph unicode="&#xe9;" horiz-adv-x="1105" d="M190.5 205q-40.5 117 2.5 297q28 119 90 218t143.5 162.5t175.5 98.5t189 35q223 0 316 -141.5t36 -387.5l-25 -90h-629q-4 -32 3 -61.5t28.5 -58.5t70 -46.5t118.5 -17.5q112 0 319 49l-51 -217q-127 -33 -218.5 -50t-191.5 -18q-144 0 -240 55.5t-136.5 172.5zM530 590 h324q9 28 7 60.5t-10.5 61t-38.5 47.5t-77 19t-85.5 -20t-62 -52t-37 -60t-20.5 -56zM678 1145l217 342h274l-264 -342h-227z" />
<glyph unicode="&#xea;" horiz-adv-x="1105" d="M190.5 205q-40.5 117 2.5 297q28 119 90 218t143.5 162.5t175.5 98.5t189 35q223 0 316 -141.5t36 -387.5l-25 -90h-629q-4 -32 3 -61.5t28.5 -58.5t70 -46.5t118.5 -17.5q112 0 319 49l-51 -217q-127 -33 -218.5 -50t-191.5 -18q-144 0 -240 55.5t-136.5 172.5z M457 1145l313 342h256l154 -342h-222l-102 168l-178 -168h-221zM530 590h324q9 28 7 60.5t-10.5 61t-38.5 47.5t-77 19t-85.5 -20t-62 -52t-37 -60t-20.5 -56z" />
<glyph unicode="&#xeb;" horiz-adv-x="1105" d="M190.5 205q-40.5 117 2.5 297q28 119 90 218t143.5 162.5t175.5 98.5t189 35q223 0 316 -141.5t36 -387.5l-25 -90h-629q-4 -32 3 -61.5t28.5 -58.5t70 -46.5t118.5 -17.5q112 0 319 49l-51 -217q-127 -33 -218.5 -50t-191.5 -18q-144 0 -240 55.5t-136.5 172.5z M514 1286q15 70 55 109t123 39q82 0 104 -39t7 -109q-32 -145 -176 -145q-145 0 -113 145zM530 590h324q9 28 7 60.5t-10.5 61t-38.5 47.5t-77 19t-85.5 -20t-62 -52t-37 -60t-20.5 -56zM897 1286q15 70 55 109t123 39q82 0 104 -39t7 -109q-32 -145 -176 -145 q-145 0 -113 145z" />
<glyph unicode="&#xec;" horiz-adv-x="575" d="M135 0l225 991h306l-226 -991h-305zM367 1487h274l59 -342h-227z" />
<glyph unicode="&#xed;" horiz-adv-x="575" d="M135 0l225 991h306l-226 -991h-305zM399 1145l215 342h275l-262 -342h-228z" />
<glyph unicode="&#xee;" horiz-adv-x="575" d="M135 0l225 991h306l-226 -991h-305zM188 1145l312 342h256l155 -342h-221l-104 168l-176 -168h-222z" />
<glyph unicode="&#xef;" horiz-adv-x="575" d="M135 0l225 991h306l-226 -991h-305zM246 1286q15 70 54.5 109t121.5 39q83 0 105.5 -39t7.5 -109q-32 -145 -179 -145q-79 0 -102 38.5t-8 106.5zM629 1286q15 70 54.5 109t121.5 39q83 0 105.5 -39t7.5 -109q-32 -145 -179 -145q-79 0 -102 38.5t-8 106.5z" />
<glyph unicode="&#xf0;" horiz-adv-x="1243" d="M177 282q-17 82 5 189q27 104 81 190t119 142t141 94.5t146.5 55t135.5 16.5q66 0 107.5 -10.5t78.5 -36.5q-12 55 -46 107.5t-71 88.5l-253 -127l28 125l150 74q-76 55 -242 86l170 178q190 -11 334 -133l233 125l-28 -125l-136 -74q129 -160 162.5 -330t-18.5 -397 q-38 -168 -138.5 -293t-236 -187.5t-287.5 -62.5q-73 -2 -142.5 14.5t-131.5 53.5t-103 96t-58 141zM485 461q-27 -116 27 -177t158 -61q96 0 180.5 71.5t110.5 184.5q26 108 -26.5 181t-148.5 73q-99 0 -187 -79t-114 -193z" />
<glyph unicode="&#xf1;" horiz-adv-x="1202" d="M135 0l225 991h285l4 -84q63 51 149.5 80t141.5 29q33 0 63 -4.5t65 -17.5t62.5 -34t50.5 -58t34.5 -85t8.5 -118.5t-22 -155.5l-123 -543h-319l121 532q29 132 8 187t-98 55q-36 0 -94 -18t-91 -33l-164 -723h-307zM516 1188q29 124 114 199t191 75q31 0 69.5 -19 t68.5 -37.5t60.5 -28.5t56.5 9.5t46 75.5h170q-12 -52 -34 -97t-59.5 -87t-97 -66t-134.5 -24q-29 0 -65.5 18t-65.5 35.5t-59 27t-56.5 -9t-46.5 -71.5h-158z" />
<glyph unicode="&#xf2;" horiz-adv-x="1236" d="M176 295.5q14 -85.5 54 -147t102.5 -100.5t133.5 -56t146 -15q154 0 286.5 57t232.5 176.5t139 287.5q29 117 14.5 204.5t-52.5 147.5t-102.5 97t-134 53t-147.5 16q-74 2 -152.5 -15t-158.5 -58t-148 -101t-122 -150.5t-79 -199.5q-26 -111 -12 -196.5zM494 500 q26 114 113 192t186 78q100 0 150.5 -76t23.5 -194q-29 -124 -113 -200.5t-184 -76.5t-151.5 78.5t-24.5 198.5zM668 1487h274l57 -342h-227z" />
<glyph unicode="&#xf3;" horiz-adv-x="1236" d="M176 295.5q-14 85.5 12 196.5q25 109 79 199.5t122 150.5t148 101t158.5 58t152.5 15q78 0 147.5 -16t134 -53t102.5 -97t52.5 -147.5t-14.5 -204.5q-39 -168 -139 -287.5t-232.5 -176.5t-286.5 -57q-75 -2 -146 15t-133.5 56t-102.5 100.5t-54 147zM494 500 q-27 -120 24.5 -198.5t151.5 -78.5t184 76.5t113 200.5q27 118 -23.5 194t-150.5 76q-99 0 -186 -78t-113 -192zM748 1145l217 342h274l-264 -342h-227z" />
<glyph unicode="&#xf4;" horiz-adv-x="1236" d="M176 295.5q14 -85.5 54 -147t102.5 -100.5t133.5 -56t146 -15q154 0 286.5 57t232.5 176.5t139 287.5q29 117 14.5 204.5t-52.5 147.5t-102.5 97t-134 53t-147.5 16q-74 2 -152.5 -15t-158.5 -58t-148 -101t-122 -150.5t-79 -199.5q-26 -111 -12 -196.5zM494 500 q26 114 113 192t186 78q100 0 150.5 -76t23.5 -194q-29 -124 -113 -200.5t-184 -76.5t-151.5 78.5t-24.5 198.5zM516 1145l313 342h256l154 -342h-221l-103 168l-178 -168h-221z" />
<glyph unicode="&#xf5;" horiz-adv-x="1236" d="M176 295.5q14 -85.5 54 -147t102.5 -100.5t133.5 -56t146 -15q154 0 286.5 57t232.5 176.5t139 287.5q29 117 14.5 204.5t-52.5 147.5t-102.5 97t-134 53t-147.5 16q-74 2 -152.5 -15t-158.5 -58t-148 -101t-122 -150.5t-79 -199.5q-26 -111 -12 -196.5zM494 500 q26 114 113 192t186 78q100 0 150.5 -76t23.5 -194q-29 -124 -113 -200.5t-184 -76.5t-151.5 78.5t-24.5 198.5zM530 1188q29 124 114.5 199t191.5 75q31 0 69.5 -19t68.5 -37.5t60.5 -28.5t56.5 9.5t46 75.5h170q-12 -52 -34.5 -97t-59.5 -87t-97 -66t-135 -24 q-29 0 -65.5 18t-65.5 35.5t-59 27t-56.5 -9t-46.5 -71.5h-158z" />
<glyph unicode="&#xf6;" horiz-adv-x="1236" d="M176 295.5q14 -85.5 54 -147t102.5 -100.5t133.5 -56t146 -15q154 0 286.5 57t232.5 176.5t139 287.5q29 117 14.5 204.5t-52.5 147.5t-102.5 97t-134 53t-147.5 16q-74 2 -152.5 -15t-158.5 -58t-148 -101t-122 -150.5t-79 -199.5q-26 -111 -12 -196.5zM494 500 q26 114 113 192t186 78q100 0 150.5 -76t23.5 -194q-29 -124 -113 -200.5t-184 -76.5t-151.5 78.5t-24.5 198.5zM573 1286q15 70 55.5 109t123.5 39q57 0 85.5 -20t30.5 -53t-6 -75q-32 -145 -176 -145q-145 0 -113 145zM956 1286q15 70 55.5 109t123.5 39q57 0 85.5 -20 t30.5 -53t-6 -75q-32 -145 -176 -145q-145 0 -113 145z" />
<glyph unicode="&#xf7;" horiz-adv-x="1110" d="M221 532l58 254h909l-58 -254h-909zM469 258q15 69 56 108.5t124 39.5q82 0 103.5 -38.5t5.5 -109.5q-32 -145 -176 -145q-145 0 -113 145zM657 1077q32 148 181 148q82 0 103 -38.5t5 -109.5q-32 -145 -176 -145q-145 0 -113 145z" />
<glyph unicode="&#xf8;" horiz-adv-x="1236" d="M88 -14l152 147q-101 143 -50 359q31 135 105 241t168.5 166.5t193.5 90t193 26.5q154 0 262 -64l152 144l98 -105l-137 -131q99 -137 45 -362q-39 -168 -139 -287.5t-232.5 -176.5t-286.5 -57q-144 -3 -262 60l-162 -158zM492 369l399 376q-42 25 -98 25q-99 0 -186 -78 t-113 -192q-16 -79 -2 -131zM571 246q51 -23 99 -23q100 0 184 76.5t113 200.5q16 70 4 123z" />
<glyph unicode="&#xf9;" horiz-adv-x="1257" d="M203 293.5q3 70.5 22 155.5l125 542h320l-123 -532q-17 -74 -18 -122.5t15.5 -74t42 -35.5t66.5 -10q60 0 166 51l166 723h307l-155 -686q-16 -66 16 -76t102 21l-47 -209q-36 -17 -79 -31.5t-96 -22.5t-96.5 -2.5t-76.5 34.5t-41 81q-68 -62 -159.5 -92.5t-172.5 -30.5 q-33 0 -63 4.5t-65 17.5t-62.5 34t-50.5 57.5t-34.5 84.5t-8.5 118.5zM668 1487h274l57 -342h-227z" />
<glyph unicode="&#xfa;" horiz-adv-x="1257" d="M203 293.5q3 70.5 22 155.5l125 542h320l-123 -532q-17 -74 -18 -122.5t15.5 -74t42 -35.5t66.5 -10q60 0 166 51l166 723h307l-155 -686q-16 -66 16 -76t102 21l-47 -209q-36 -17 -79 -31.5t-96 -22.5t-96.5 -2.5t-76.5 34.5t-41 81q-68 -62 -159.5 -92.5t-172.5 -30.5 q-33 0 -63 4.5t-65 17.5t-62.5 34t-50.5 57.5t-34.5 84.5t-8.5 118.5zM655 1145l217 342h275l-264 -342h-228z" />
<glyph unicode="&#xfb;" horiz-adv-x="1257" d="M203 293.5q3 70.5 22 155.5l125 542h320l-123 -532q-17 -74 -18 -122.5t15.5 -74t42 -35.5t66.5 -10q60 0 166 51l166 723h307l-155 -686q-16 -66 16 -76t102 21l-47 -209q-36 -17 -79 -31.5t-96 -22.5t-96.5 -2.5t-76.5 34.5t-41 81q-68 -62 -159.5 -92.5t-172.5 -30.5 q-33 0 -63 4.5t-65 17.5t-62.5 34t-50.5 57.5t-34.5 84.5t-8.5 118.5zM500 1145l313 342h256l154 -342h-222l-102 168l-178 -168h-221z" />
<glyph unicode="&#xfc;" horiz-adv-x="1257" d="M203 293.5q3 70.5 22 155.5l125 542h320l-123 -532q-17 -74 -18 -122.5t15.5 -74t42 -35.5t66.5 -10q60 0 166 51l166 723h307l-155 -686q-16 -66 16 -76t102 21l-47 -209q-36 -17 -79 -31.5t-96 -22.5t-96.5 -2.5t-76.5 34.5t-41 81q-68 -62 -159.5 -92.5t-172.5 -30.5 q-33 0 -63 4.5t-65 17.5t-62.5 34t-50.5 57.5t-34.5 84.5t-8.5 118.5zM559 1286q15 70 55 109t123 39q82 0 104 -39t7 -109q-32 -145 -176 -145q-145 0 -113 145zM942 1286q15 70 55 109t123 39q82 0 104 -39t7 -109q-32 -145 -176 -145q-145 0 -113 145z" />
<glyph unicode="&#xfd;" horiz-adv-x="1097" d="M33 -418l57 246h119q61 0 96 63l101 175l-164 925h338l57 -588l332 588h336l-740 -1196q-41 -70 -81 -113t-88.5 -65.5t-98.5 -29.5t-125 -5h-139zM659 1145l215 342h275l-262 -342h-228z" />
<glyph unicode="&#xfe;" horiz-adv-x="1226" d="M39 -410l428 1864h307l-112 -489q111 51 245 51q82 0 156 -33.5t129 -98t75.5 -159.5t-5.5 -217q-21 -91 -57.5 -168t-79.5 -130t-95 -95.5t-101 -67.5t-99.5 -41.5t-89 -22.5t-70.5 -6q-132 0 -226 52q0 -2 -49 -220t-49 -219h-307zM500 264q27 -17 72.5 -30t86.5 -13 q93 0 185.5 83t118.5 196q26 111 -21 191.5t-160 80.5q-84 0 -176 -43z" />
<glyph unicode="&#xff;" horiz-adv-x="1097" d="M33 -418l57 246h119q61 0 96 63l101 175l-164 925h338l57 -588l332 588h336l-740 -1196q-41 -70 -81 -113t-88.5 -65.5t-98.5 -29.5t-125 -5h-139zM512 1286q15 70 55 109t123 39q82 0 104 -39t7 -109q-32 -145 -176 -145q-145 0 -113 145zM895 1286q15 70 55 109t123 39 q82 0 104 -39t7 -109q-32 -145 -176 -145q-145 0 -113 145z" />
<glyph unicode="&#x152;" horiz-adv-x="2322" d="M252 700q35 153 107.5 278.5t163.5 208.5t200 140t215.5 82t212.5 25q111 0 217.5 -39t163.5 -111l29 127h970l-63 -276h-656l-63 -275h598l-61 -270h-600l-48 -209q-23 -105 80 -105h551l-59 -276h-617q-121 3 -198.5 46t-77.5 112q-216 -178 -498 -181q-215 0 -361 89 t-200.5 253.5t-5.5 380.5zM575 700q-44 -192 41 -316t263 -124q180 0 326 124t190 316q24 117 8.5 202.5t-65 140.5t-114 81.5t-137.5 26.5q-74 0 -150.5 -27.5t-149 -80t-129.5 -142t-83 -201.5z" />
<glyph unicode="&#x153;" horiz-adv-x="1886" d="M176 295.5q-14 85.5 12 196.5q25 109 79 199.5t122 150.5t148 101t158.5 58t152.5 15q109 0 203.5 -39t148.5 -121q163 160 371 160q224 0 317.5 -142t34.5 -387l-22 -90h-629q-5 -32 2 -61.5t28.5 -58.5t70 -46.5t118.5 -17.5q110 0 317 49l-49 -217 q-93 -24 -141.5 -35.5t-123.5 -22t-144 -10.5q-108 0 -197.5 41t-126.5 113q-83 -75 -191 -114.5t-223 -39.5q-75 -2 -146 15t-133.5 56t-102.5 100.5t-54 147zM494 500q-27 -120 24.5 -198.5t151.5 -78.5t184 76.5t113 200.5q27 118 -23.5 194t-150.5 76q-99 0 -186 -78 t-113 -192zM1311 590h323q7 32 6.5 61.5t-9.5 59.5t-38.5 48.5t-76.5 18.5t-85.5 -20t-62 -52t-37 -60t-20.5 -56z" />
<glyph unicode="&#x178;" horiz-adv-x="1265" d="M326 1411h368l142 -520l376 520h369l-651 -809l-135 -602h-322l135 602zM686 1706q15 69 56 108t124 39q82 0 103 -38t6 -109q-32 -145 -178 -145q-79 0 -102.5 38.5t-8.5 106.5zM1069 1706q15 69 56 108t124 39q82 0 103 -38t6 -109q-32 -145 -178 -145 q-79 0 -102.5 38.5t-8.5 106.5z" />
<glyph unicode="&#x2c6;" horiz-adv-x="1153" d="M477 1145l314 342h256l153 -342h-221l-102 168l-179 -168h-221z" />
<glyph unicode="&#x2dc;" horiz-adv-x="1040" d="M434 1188q29 124 114 199t191 75q31 0 69.5 -19t68 -37.5t60 -28.5t57 9.5t46.5 75.5h170q-12 -52 -34 -97t-59.5 -87t-97 -66t-134.5 -24q-29 0 -65.5 18t-65.5 35.5t-59 27t-56.5 -9t-46.5 -71.5h-158z" />
<glyph unicode="&#x2000;" horiz-adv-x="977" />
<glyph unicode="&#x2001;" horiz-adv-x="1954" />
<glyph unicode="&#x2002;" horiz-adv-x="977" />
<glyph unicode="&#x2003;" horiz-adv-x="1954" />
<glyph unicode="&#x2004;" horiz-adv-x="651" />
<glyph unicode="&#x2005;" horiz-adv-x="488" />
<glyph unicode="&#x2006;" horiz-adv-x="325" />
<glyph unicode="&#x2007;" horiz-adv-x="325" />
<glyph unicode="&#x2008;" horiz-adv-x="244" />
<glyph unicode="&#x2009;" horiz-adv-x="390" />
<glyph unicode="&#x200a;" horiz-adv-x="108" />
<glyph unicode="&#x2010;" horiz-adv-x="923" d="M221 455l55 243h691l-56 -243h-690z" />
<glyph unicode="&#x2011;" horiz-adv-x="923" d="M221 455l55 243h691l-56 -243h-690z" />
<glyph unicode="&#x2012;" horiz-adv-x="923" d="M221 455l55 243h691l-56 -243h-690z" />
<glyph unicode="&#x2013;" horiz-adv-x="1196" d="M225 455l49 215h955l-49 -215h-955z" />
<glyph unicode="&#x2014;" horiz-adv-x="1636" d="M225 455l49 215h1395l-49 -215h-1395z" />
<glyph unicode="&#x2018;" horiz-adv-x="536" d="M307 1016l281 418h217l-215 -418h-283z" />
<glyph unicode="&#x2019;" horiz-adv-x="524" d="M315 1016l215 418h283l-281 -418h-217z" />
<glyph unicode="&#x201a;" horiz-adv-x="528" d="M-6 -174l213 418h282l-282 -418h-213z" />
<glyph unicode="&#x201c;" horiz-adv-x="933" d="M305 1016l295 418h227l-223 -418h-299zM709 1016l252 418h227l-180 -418h-299z" />
<glyph unicode="&#x201d;" horiz-adv-x="911" d="M322 1016l180 418h299l-252 -418h-227zM682 1016l223 418h299l-295 -418h-227z" />
<glyph unicode="&#x201e;" horiz-adv-x="935" d="M14 -174l183 418h299l-254 -418h-228zM375 -174l225 418h299l-297 -418h-227z" />
<glyph unicode="&#x2022;" horiz-adv-x="823" d="M216 408q-4 55 13 118q16 69 40 119t65.5 93.5t107.5 66t156 22.5t146.5 -23.5t77.5 -64t24 -95.5t-15 -118q-16 -67 -41.5 -118.5t-67.5 -94.5t-107.5 -65.5t-151.5 -22.5t-142 23.5t-78.5 64t-26.5 95.5z" />
<glyph unicode="&#x2026;" horiz-adv-x="1689" d="M125 133q17 74 62.5 116t136.5 42t115 -41.5t7 -116.5q-35 -156 -194 -156q-162 0 -127 156zM713 133q17 74 62 116t136 42t115.5 -41.5t7.5 -116.5q-35 -156 -194 -156q-162 0 -127 156zM1300 133q17 74 62.5 116t136.5 42t115.5 -41.5t7.5 -116.5q-35 -156 -195 -156 q-162 0 -127 156z" />
<glyph unicode="&#x202f;" horiz-adv-x="390" />
<glyph unicode="&#x2039;" horiz-adv-x="700" d="M180 506l381 424h281l-381 -424l186 -424h-280z" />
<glyph unicode="&#x203a;" horiz-adv-x="700" d="M88 82l379 424l-184 424h280l185 -424l-379 -424h-281z" />
<glyph unicode="&#x205f;" horiz-adv-x="488" />
<glyph unicode="&#x20ac;" horiz-adv-x="1384" d="M199 475l37 152h225q1 14 6.5 39t7.5 36l4 27h-223l37 152h239q73 172 197 299t269 190.5t294 63.5q139 0 293 -25l-63 -279q-116 13 -248 13t-238.5 -69t-173.5 -193h381l-37 -152h-403l-4 -27q-1 -10 -6.5 -35.5t-6.5 -39.5h400l-37 -152h-361q48 -207 283 -207 q134 0 254 11l-63 -277q-161 -25 -301 -25q-217 0 -360 132.5t-152 365.5h-250z" />
<glyph unicode="&#x2122;" horiz-adv-x="1650" d="M334 924l31 129h761l93 -467l309 467h170l-117 -727h-158l82 485l-270 -399h-117l-82 395l-141 -481h-160l183 598h-201l-137 -598h-160l137 598h-223z" />
<glyph unicode="&#xe000;" horiz-adv-x="993" d="M0 0v993h993v-993h-993z" />
</font>
</defs>
</svg>
