<?xml version="1.0" standalone="no"?>
<!DOCTYPE svg PUBLIC "-//W3C//DTD SVG 1.1//EN" "http://www.w3.org/Graphics/SVG/1.1/DTD/svg11.dtd" >
<svg xmlns="http://www.w3.org/2000/svg">
<metadata></metadata>
<defs>
<font id="kyrial_display_probold" horiz-adv-x="1134" >
<font-face units-per-em="2048" ascent="1536" descent="-512" />
<missing-glyph horiz-adv-x="436" />
<glyph unicode="&#xfb01;" horiz-adv-x="1404" d="M63 766v225h150v133q0 54 9 98.5t22 76.5t36.5 57t44 41.5t53 27.5t55 16.5t58.5 8.5t54.5 3.5t52.5 0.5h211v-240h-197q-45 0 -69.5 -23t-24.5 -65v-135h756v-991h-305v766h-451v-766h-305v766h-150zM958 1276q0 74 35.5 116t126.5 42t125.5 -41.5t34.5 -116.5 q0 -156 -160 -156q-162 0 -162 156z" />
<glyph unicode="&#xfb02;" horiz-adv-x="1507" d="M63 766v225h150v133q0 54 9 98.5t22 76.5t36.5 57t44 41.5t53 27.5t55 16.5t58.5 8.5t54.5 3.5t52.5 0.5h211v-240h-197q-45 0 -69.5 -23t-24.5 -65v-135h238v-225h-238v-766h-305v766h-150zM969 307q0 -94 21 -155t68 -96.5t113 -49.5t166 -14h131v256h-100 q-33 0 -54.5 9t-29.5 25.5t-10 27.5t-2 28v1116h-303v-1147z" />
<glyph unicode="&#xfb03;" horiz-adv-x="2217" d="M63 766v225h150v133q0 54 9 98.5t22 76.5t36.5 57t44 41.5t53 27.5t55 16.5t58.5 8.5t54.5 3.5t52.5 0.5h211v-240h-197q-45 0 -69.5 -23t-24.5 -65v-135h508v133q0 54 9 98.5t22 76.5t36.5 57t44 41.5t53 27.5t55 16.5t58.5 8.5t54.5 3.5t52.5 0.5h211v-240h-197 q-45 0 -69.5 -23t-24.5 -65v-135h756v-991h-305v766h-451v-766h-305v766h-508v-766h-305v766h-150zM1772 1276q0 75 35 116.5t126 41.5t125.5 -41.5t34.5 -116.5q0 -156 -160 -156q-161 0 -161 156z" />
<glyph unicode="&#xfb04;" horiz-adv-x="2320" d="M63 766v225h150v133q0 54 9 98.5t22 76.5t36.5 57t44 41.5t53 27.5t55 16.5t58.5 8.5t54.5 3.5t52.5 0.5h211v-240h-197q-45 0 -69.5 -23t-24.5 -65v-135h508v133q0 54 9 98.5t22 76.5t36.5 57t44 41.5t53 27.5t55 16.5t58.5 8.5t54.5 3.5t52.5 0.5h211v-240h-197 q-45 0 -69.5 -23t-24.5 -65v-135h238v-225h-238v-766h-305v766h-508v-766h-305v766h-150zM1782 307q0 -94 21 -155t68 -96.5t113 -49.5t166 -14h131v256h-100q-33 0 -54.5 9t-29.5 25.5t-10 27.5t-2 28v1116h-303v-1147z" />
<glyph horiz-adv-x="2048" />
<glyph horiz-adv-x="2048" />
<glyph unicode="&#xd;" horiz-adv-x="2048" />
<glyph unicode=" "  horiz-adv-x="436" />
<glyph unicode="&#x09;" horiz-adv-x="436" />
<glyph unicode="&#xa0;" horiz-adv-x="436" />
<glyph unicode="!" horiz-adv-x="577" d="M127 133q0 74 35.5 116t126.5 42t125.5 -41.5t34.5 -116.5q0 -156 -160 -156q-162 0 -162 156zM135 1053v358h309v-358l-34 -658h-240z" />
<glyph unicode="&#x22;" horiz-adv-x="780" d="M109 1274v137h229v-137l-31 -420h-170zM442 1274v137h230v-137l-31 -420h-170z" />
<glyph unicode="#" horiz-adv-x="1583" d="M82 322l57 237h240l57 248h-239l57 237h240l84 367h264l-86 -367h231l86 367h264l-86 -367h250l-57 -237h-250l-57 -248h249l-57 -237h-250l-73 -322h-265l74 322h-231l-74 -322h-262l74 322h-240zM641 559h231l58 248h-232z" />
<glyph unicode="$" horiz-adv-x="1220" d="M98 1008q0 172 126.5 287t353.5 135v208h190v-213q86 -12 171 -37.5t136 -54.5v-272q-262 94 -413 94q-118 0 -177 -39.5t-61 -103.5q0 -3 0.5 -8.5t5.5 -21t14.5 -28.5t30.5 -28.5t51 -24.5l74 -27q62 -20 101.5 -33.5t92.5 -33.5t86.5 -37t74 -41t65 -48t49.5 -56 t37.5 -67t19.5 -78.5t4 -92.5q-14 -178 -107.5 -272t-254.5 -123v-236h-190v226q-120 1 -245 32t-214 78v283q80 -45 218.5 -81t244.5 -36q103 0 157.5 27.5t65.5 97.5q12 73 -91 123q-48 23 -175 61q-23 7 -35 11l-78 28q-67 20 -121 52t-87.5 64t-58 72t-36 70t-18 65 t-7 49t-0.5 30z" />
<glyph unicode="%" horiz-adv-x="1642" d="M90 1096q0 88 30 156.5t79 107t106 57.5t117 17q64 0 119.5 -16.5t104.5 -53t77.5 -104t28.5 -160.5q0 -164 -89.5 -250t-240.5 -86q-60 -2 -117 16.5t-106 56.5t-79 105t-30 154zM158 0l1128 1411h197l-1129 -1411h-196zM305 1100q0 -62 31 -97.5t86 -35.5q53 0 83 35 t30 98q0 60 -30 94.5t-83 34.5q-55 0 -86 -35t-31 -94zM889 309q0 88 30 156.5t79 107t106 57.5t117 17q51 0 96 -9.5t88.5 -34t75 -61.5t50.5 -95.5t19 -133.5q0 -164 -89 -250t-240 -86q-60 -2 -117 16.5t-106 56.5t-79 105t-30 154zM1104 313q0 -62 31 -97.5t86 -35.5 q53 0 82.5 35t29.5 98q0 60 -30 94.5t-82 34.5q-55 0 -86 -35t-31 -94z" />
<glyph unicode="&#x26;" horiz-adv-x="1394" d="M131 371q0 12 1.5 31t12.5 66t30 86.5t60 82.5t97 65q-41 17 -74.5 45t-54 56.5t-35.5 63.5t-22 60.5t-10.5 54.5t-4 38.5t-0.5 17.5q6 182 138.5 288t367.5 106q89 0 204 -25t169 -49v-252q-154 61 -305 61q-146 0 -210.5 -43t-64.5 -143q0 -5 1 -13t9.5 -30t23 -40.5 t46.5 -39t76 -31.5h780v-243h-262v-455q-101 -77 -229 -114.5t-238 -37.5q-235 0 -367.5 106t-138.5 288zM414 420q0 -105 66.5 -147t217.5 -42q85 0 140 39v314h-263q-42 -9 -74 -29t-47.5 -42.5t-25.5 -43.5t-12 -35z" />
<glyph unicode="'" horiz-adv-x="446" d="M109 1274v137h229v-137l-31 -420h-170z" />
<glyph unicode="(" horiz-adv-x="780" d="M76 504v8q0 172 37 322t99.5 258t145 186.5t175.5 117t188 38.5v-209q-365 -77 -365 -717q0 -642 365 -719v-207q-95 0 -188 38.5t-175.5 117t-145 186.5t-99.5 258t-37 322z" />
<glyph unicode=")" horiz-adv-x="782" d="M59 -211q365 77 365 719q0 640 -365 717v209q95 0 188 -38.5t175.5 -117t145.5 -186.5t100 -258t37 -322v-8q0 -172 -37 -322t-100 -258t-145.5 -186.5t-175.5 -117t-188 -38.5v207z" />
<glyph unicode="*" horiz-adv-x="980" d="M98 909v217l234 -22l-131 199l184 110l102 -227l103 227l186 -108l-131 -201l238 22v-217l-238 21l131 -199l-186 -108l-101 233l-104 -231l-184 106l131 199z" />
<glyph unicode="+" horiz-adv-x="1093" d="M92 438v254h324v328h262v-328h323v-254h-323v-327h-262v327h-324z" />
<glyph unicode="," horiz-adv-x="538" d="M-2 -276l152 460h284l-201 -460h-235z" />
<glyph unicode="-" horiz-adv-x="923" d="M117 455v243h690v-243h-690z" />
<glyph unicode="." horiz-adv-x="514" d="M96 133q0 74 35.5 116t126.5 42t125.5 -41.5t34.5 -116.5q0 -156 -160 -156q-162 0 -162 156z" />
<glyph unicode="/" horiz-adv-x="942" d="M66 0l571 1411h240l-572 -1411h-239z" />
<glyph unicode="0" horiz-adv-x="1318" d="M102 705q0 153 33 279t87 208.5t126.5 139.5t150 81.5t158.5 24.5q82 0 160 -24.5t151 -81.5t128 -139.5t88 -208.5t33 -279q0 -331 -153.5 -529.5t-406.5 -198.5q-252 0 -403.5 198.5t-151.5 529.5zM397 705q0 -200 76.5 -329.5t188.5 -129.5q108 0 184 130t76 329 q0 117 -25 209.5t-65 145.5t-85 80t-90 27t-89 -27t-83 -80t-63.5 -145.5t-24.5 -209.5z" />
<glyph unicode="1" horiz-adv-x="944" d="M111 0v244h235v874l-233 -102v246l319 149h223v-1167h236v-244h-780z" />
<glyph unicode="2" horiz-adv-x="1181" d="M78 0v207l526 571q87 90 122.5 143t35.5 99q0 61 -48.5 103t-156.5 42q-101 0 -190.5 -19t-219.5 -73v258q170 103 420 103q252 0 378 -103t126 -299q0 -188 -209 -399l-364 -375h571v-258h-991z" />
<glyph unicode="3" horiz-adv-x="1132" d="M100 51v250q196 -70 349 -70q151 0 217.5 42t66.5 147q0 5 -2 14.5t-12 34t-26 45t-48 41t-74 29.5h-297v243h1h1h1h1h1h1h1h1h1h1h1h1h1h1h1h1h1h1h1h1h1h1h1h1h1h1h1h1h1h1h1h1h1h1h1h1h1h1h1h1h1h1h1h1h1h1h1h1h1h1h1h1h1h2h1h1h1h1h1h1h1h1h1h2h1h1h1h1h1h2h1h1h1h1 h2h1h1h1h2h1h1h1h2h1h1h2h1h1h1h2h1h1h2h1h1h2h1h1h2h1h2h1h1h2h1h2h1h1h2h1h2h1h2h1h1h2h1h2h1h2h1h2h1h2h1h2h1h2h1h2h1h2h2h1h2h1h2h1h2h2h1h2h1h2h2h1h2h1h2h2h1h2h2h1h2h2h1h2h2h1h2h2h1h2h2h1h2h2h2h1h2h2h1h2h2h2h1h2h2h2h2h1h2h2h2h1h2h2h2h2h2h1h2h2h2h2h2h1h2h2h2 h2h9q44 11 76 31t46.5 40.5t23 39.5t9.5 31l1 12q0 100 -64.5 143t-210.5 43q-151 0 -305 -61v252q54 24 169 49t204 25q235 0 367.5 -106t138.5 -288q0 -8 -0.5 -17.5t-4 -38.5t-10.5 -54.5t-22 -60.5t-35.5 -63.5t-54 -56.5t-74.5 -45q56 -22 97 -65t60 -82.5t30 -86.5 t12.5 -66t1.5 -31q-6 -182 -138.5 -288t-367.5 -106q-91 0 -225.5 26t-184.5 48z" />
<glyph unicode="4" horiz-adv-x="1263" d="M51 322v198l656 891h280v-833h195v-256h-195v-322h-309v322h-627zM356 578h322v434z" />
<glyph unicode="5" horiz-adv-x="1185" d="M98 70l33 264q233 -78 451 -78q93 0 149.5 55t56.5 133q0 19 -4.5 40.5t-19.5 50t-39.5 50t-69.5 37t-104 15.5h-420l66 774h833v-268h-577l-21 -225h191q106 0 189.5 -28t136.5 -74.5t88 -111.5t49 -134t14 -146q-8 -189 -149.5 -318t-372.5 -129q-97 0 -234 25t-246 68 z" />
<glyph unicode="6" horiz-adv-x="1284" d="M102 610q0 390 173.5 607t482.5 217q107 0 178 -14t166 -48v-246q-155 50 -318 50q-145 0 -240 -94.5t-120 -256.5q90 127 330 127q105 0 191 -41t139.5 -109.5t82.5 -154t29 -178.5q0 -227 -141.5 -359.5t-395.5 -132.5q-258 0 -407.5 166t-149.5 467zM432 473 q0 -111 67 -168t165 -59q96 2 161.5 59t65.5 168q0 91 -61 156t-166 65q-106 0 -169 -65t-63 -156z" />
<glyph unicode="7" horiz-adv-x="1073" d="M78 1145v266h950v-219l-563 -1192h-354l575 1145h-608z" />
<glyph unicode="8" horiz-adv-x="1275" d="M104 371q0 8 0.5 19.5t5.5 42.5t14 60t28.5 66t45.5 67t68.5 57.5t95.5 41.5q-46 10 -82.5 34t-59.5 51.5t-39.5 63.5t-24 64t-12 59t-5 42.5t-0.5 19.5q6 171 135 272.5t361 102.5q83 -1 154.5 -14t135 -41t109 -70.5t73 -106t30.5 -143.5q0 -8 -0.5 -19.5t-5 -42.5 t-12.5 -59.5t-24.5 -64t-39.5 -63.5t-59.5 -51.5t-82.5 -33.5q53 -13 95.5 -40t68.5 -57t45.5 -67.5t28.5 -66.5t14 -60.5t5.5 -43t0.5 -19.5q-3 -89 -37.5 -158.5t-88 -113t-125.5 -72t-143 -39.5t-148 -11q-244 1 -381.5 107.5t-143.5 286.5zM436 403q0 -59 53.5 -112 t143.5 -53q89 0 141.5 52.5t52.5 112.5q0 22 -3 41t-15 44t-32 43t-57.5 30.5t-88.5 13.5q-61 0 -103 -19t-60.5 -49t-25 -54.5t-6.5 -49.5zM467 1028q0 -30 16 -64t57.5 -63t98.5 -29q44 0 78.5 15.5t53 40t27.5 50t9 50.5q0 21 -1.5 35t-10.5 39.5t-25.5 41.5t-50.5 28.5 t-82 13.5q-48 0 -82 -13.5t-50.5 -30.5t-25.5 -42.5t-10.5 -39.5t-1.5 -32z" />
<glyph unicode="9" horiz-adv-x="1284" d="M88 942q0 227 141.5 359.5t395.5 132.5q258 0 407.5 -166t149.5 -467q0 -390 -173.5 -607t-482.5 -217q-107 0 -178 14t-166 48v246q152 -49 318 -49q145 0 240 94t120 256q-90 -127 -330 -127q-105 0 -191 41t-139.5 109.5t-82.5 154t-29 178.5zM393 938 q0 -91 61.5 -156t166.5 -65q106 0 168.5 65t62.5 156q0 111 -66.5 168t-164.5 59q-96 -2 -162 -59t-66 -168z" />
<glyph unicode=":" horiz-adv-x="555" d="M117 133q0 74 35.5 116t126.5 42t125 -41.5t34 -116.5q0 -156 -159 -156q-162 0 -162 156zM117 858q0 74 35.5 116t126.5 42t125 -41.5t34 -116.5q0 -156 -159 -156q-162 0 -162 156z" />
<glyph unicode=";" horiz-adv-x="598" d="M8 -276h236l200 460h-284zM158 858q0 75 35 116.5t126 41.5t125.5 -41.5t34.5 -116.5q0 -156 -160 -156q-161 0 -161 156z" />
<glyph unicode="&#x3c;" horiz-adv-x="1470" d="M88 489v189l1233 469v-277l-836 -284l836 -291v-277z" />
<glyph unicode="=" horiz-adv-x="1179" d="M135 207v239h909v-239h-909zM135 643v242h909v-242h-909z" />
<glyph unicode="&#x3e;" horiz-adv-x="1470" d="M150 18v277l835 291l-835 284v277l1232 -469v-189z" />
<glyph unicode="?" horiz-adv-x="1034" d="M96 1325q135 91 353 107q222 13 360.5 -104.5t138.5 -299.5q-3 -89 -19 -141q-54 -170 -257 -258q-75 -32 -120.5 -84t-45.5 -121v-29h-266v15q0 337 309 477q39 19 62 50t27.5 50t4.5 35q0 68 -44 110t-134 42q-78 0 -171 -26.5t-173 -70.5zM211 133q0 74 35.5 116 t126.5 42t125 -41.5t34 -116.5q0 -156 -159 -156q-162 0 -162 156z" />
<glyph unicode="@" horiz-adv-x="2179" d="M96 506q0 187 81.5 359t218 296t322.5 197.5t388 73.5q141 0 267.5 -25t223.5 -69t178.5 -104t138 -129t95.5 -145t57.5 -151.5t18.5 -149.5q0 -107 -20 -199t-54.5 -159.5t-82.5 -121.5t-101 -88.5t-112.5 -58t-115.5 -33t-112 -9.5q-110 0 -185 53.5t-83 118.5 q-29 -41 -109.5 -76t-157.5 -35q-33 0 -70 6t-80.5 21t-80.5 39t-71 59.5t-52.5 84t-24.5 112t13 143.5q23 103 80 190t129.5 142t151 85t149.5 30q131 0 211 -74l32 74h232l-119 -547q-54 -246 61 -246q41 0 89 13t104 47t100 85t73.5 136t29.5 190q0 119 -48 222t-129 176 t-185 125.5t-216.5 78t-224.5 25.5q-159 0 -309 -61t-261 -163.5t-178 -243.5t-67 -294q0 -222 108.5 -396.5t304 -272t445.5 -97.5q454 0 784 258v-178q-130 -116 -350.5 -183t-445.5 -67q-190 0 -356 48t-290.5 134.5t-214 203.5t-135 257t-45.5 293zM846 510 q-35 -111 16 -174.5t133 -63.5q97 0 172 52l78 387q-60 39 -135 39q-96 0 -164.5 -70t-99.5 -170z" />
<glyph unicode="A" horiz-adv-x="1351" d="M29 0q124 427 232.5 740.5t273.5 670.5h282q165 -357 273.5 -670.5t232.5 -740.5h-319q-80 276 -109 371h-438q-90 -308 -109 -371h-319zM537 629h280q-4 11 -56.5 185t-84.5 251q-23 -58 -46.5 -132t-52.5 -171t-40 -133z" />
<glyph unicode="B" horiz-adv-x="1331" d="M170 0v1411h610q43 0 90 -10t102 -38.5t98 -71.5t72 -117.5t29 -169.5q0 -32 -7 -65t-23.5 -71t-50.5 -73t-82 -60q108 -29 167.5 -114t59.5 -203q0 -212 -127 -315t-350 -103h-588zM494 276h266q61 0 103 42t42 100q0 82 -46 122t-101 40h-264v-304zM494 831h221 q61 0 94 43.5t33 110.5q0 63 -39.5 106.5t-87.5 43.5h-221v-304z" />
<glyph unicode="C" horiz-adv-x="1345" d="M94 702q0 136 39 255t106 205t155 148.5t187.5 93t202.5 30.5q128 0 254.5 -18.5t206.5 -43.5v-262q-224 33 -414 33q-180 0 -296.5 -120.5t-116.5 -320.5v7q0 -201 116.5 -321t296.5 -120q190 0 414 33v-262q-80 -25 -206.5 -43.5t-254.5 -18.5q-129 0 -251.5 49.5 t-220.5 139t-158 229.5t-60 307z" />
<glyph unicode="D" horiz-adv-x="1447" d="M170 0v1411h520q130 0 248 -46t211 -132t148 -223.5t55 -307.5q0 -139 -36 -255t-98.5 -197.5t-147 -138.5t-180.5 -84t-200 -27h-520zM492 276h120q198 0 303 110.5t105 315.5q0 207 -102.5 320t-305.5 113h-120v-859z" />
<glyph unicode="E" horiz-adv-x="1249" d="M166 313v1098h971v-276h-650v-275h592v-270h-592v-209q0 -105 105 -105h545v-276h-617q-189 6 -271 74.5t-83 238.5z" />
<glyph unicode="F" horiz-adv-x="1112" d="M170 0v1411h862v-276h-540v-275h497v-270h-497v-590h-322z" />
<glyph unicode="G" horiz-adv-x="1470" d="M94 702q0 137 40 255t110 204.5t164.5 148.5t206 93t231.5 31q190 0 442 -70v-268q-63 10 -111.5 17t-86 11.5t-60 7.5t-47.5 4t-32 1h-31.5h-28.5q-208 0 -337.5 -117.5t-129.5 -317.5q0 -100 33.5 -182t90 -135t129.5 -82t154 -29q87 0 205 25v229h-338v269h650v-703 q-146 -66 -279 -91.5t-283 -25.5q-103 0 -202.5 29.5t-188 90t-155.5 145.5t-106.5 203.5t-39.5 256.5z" />
<glyph unicode="H" horiz-adv-x="1472" d="M170 0v1411h324v-541h485v541h324v-1411h-324v600h-485v-600h-324z" />
<glyph unicode="I" horiz-adv-x="661" d="M170 0v1411h322v-1411h-322z" />
<glyph unicode="J" horiz-adv-x="704" d="M-223 -145q149 -15 248 -15q46 0 78.5 12.5t58 42t38.5 83.5t13 133v1300h322v-1339q0 -502 -504 -502q-105 0 -254 27v258z" />
<glyph unicode="K" horiz-adv-x="1306" d="M170 0v1411h322v-457q192 204 362 457h365q-98 -174 -254 -360.5t-324 -352.5q330 -258 692 -698h-413q-183 222 -428 424v-424h-322z" />
<glyph unicode="L" horiz-adv-x="1150" d="M164 313v1098h321v-1024q0 -111 109 -111h516v-276h-592q-188 6 -269.5 74t-84.5 239z" />
<glyph unicode="M" horiz-adv-x="1884" d="M125 0l113 1411h305q133 -248 229.5 -451t167.5 -405q126 344 401 856h306l112 -1411h-317l-62 825q-164 -299 -319 -696h-240h2q-155 397 -319 696l-62 -825h-317z" />
<glyph unicode="N" horiz-adv-x="1456" d="M170 0v1411h317q328 -458 478 -790v790h321v-1411h-309q-123 254 -236 457.5t-247 388.5v-846h-324z" />
<glyph unicode="O" horiz-adv-x="1650" d="M94 700q0 153 43.5 278.5t115.5 208.5t168 140t197 82t207 25q105 0 206 -25t197 -82t168 -140t116 -208.5t44 -278.5q0 -216 -92.5 -380.5t-257.5 -253t-379 -89.5q-215 0 -381.5 89t-259 253.5t-92.5 380.5zM416 700q0 -192 114.5 -316t292.5 -124q180 0 296 124 t116 316q0 91 -24.5 167t-65.5 127.5t-94.5 87.5t-110.5 52.5t-115 16.5t-115.5 -16.5t-110.5 -52.5t-93.5 -87.5t-65 -127.5t-24.5 -167z" />
<glyph unicode="P" horiz-adv-x="1263" d="M170 0v1411h604q69 0 141.5 -28t136.5 -80t105 -138.5t41 -191.5q0 -109 -31.5 -194t-78 -133.5t-107.5 -79.5t-113 -41.5t-102 -10.5h-274v-514h-322zM492 795h235q61 0 106.5 47.5t45.5 124.5q0 76 -45 122t-107 46h-235v-340z" />
<glyph unicode="Q" horiz-adv-x="1650" d="M94 700q0 153 43.5 278.5t115.5 208.5t168 140t197 82t207 25q105 0 206 -25t197 -82t168 -140t116 -208.5t44 -278.5q0 -284 -155 -473t-416 -235q7 -35 52 -65.5t106 -30.5q150 0 276 36v-241q-45 -21 -121 -33t-149 -12q-111 0 -206.5 37.5t-162 115.5t-78.5 185v2 q-278 37 -443 228.5t-165 485.5zM416 700q0 -192 114.5 -316t292.5 -124q180 0 296 124t116 316q0 91 -24.5 167t-65.5 127.5t-94.5 87.5t-110.5 52.5t-115 16.5t-115.5 -16.5t-110.5 -52.5t-93.5 -87.5t-65 -127.5t-24.5 -167z" />
<glyph unicode="R" horiz-adv-x="1337" d="M170 0v1411h578q195 0 319.5 -113.5t124.5 -324.5q0 -83 -19 -151.5t-50 -112.5t-71.5 -74.5t-80.5 -43.5t-80 -13q22 -8 52 -41t40 -50q184 -235 322 -487h-351q-100 182 -282 436q-39 55 -64.5 73.5t-70.5 18.5h-45v-528h-322zM487 795h236q61 0 106 47.5t45 124.5 q0 76 -44.5 122t-106.5 46h-236v-340z" />
<glyph unicode="S" horiz-adv-x="1224" d="M102 1008q0 189 150.5 307.5t415.5 118.5q98 0 221.5 -30.5t189.5 -70.5v-272q-262 94 -413 94q-118 0 -177 -39.5t-61 -103.5q0 -3 0.5 -8.5t5.5 -21t14.5 -28.5t30.5 -28.5t51 -24.5q13 -4 37.5 -13.5t36.5 -13.5q115 -37 179 -61t144.5 -66.5t120.5 -87.5t66 -115 q22 -58 22 -129q0 -14 -1 -28q-8 -93 -39 -164t-78.5 -117.5t-115.5 -75.5t-144.5 -41t-171.5 -12q-117 0 -243 33t-220 82v283q80 -45 218.5 -81t244.5 -36q103 0 157.5 27.5t65.5 97.5q1 8 1 15q0 63 -92 108q-48 23 -175 61q-23 7 -35 11l-78 28q-67 20 -121 52t-87.5 64 t-58 72t-36 70t-18 65t-7 49t-0.5 30z" />
<glyph unicode="T" horiz-adv-x="1206" d="M45 1135v276h1116v-276h-395v-1135h-324v1135h-397z" />
<glyph unicode="U" horiz-adv-x="1478" d="M156 594v817h319v-780q0 -58 7 -106.5t17 -83t27 -62t32.5 -45t38 -30t37.5 -18t38 -8.5t33 -3.5t28 -0.5h6q80 0 121 18q141 61 141 339v780h322v-817q0 -121 -24 -218.5t-61 -160.5t-91.5 -109.5t-104.5 -70.5t-112.5 -38t-103 -17t-87.5 -3t-87.5 3t-102.5 17t-112 38 t-105 70.5t-91.5 109.5t-60.5 160.5t-24 218.5z" />
<glyph unicode="V" horiz-adv-x="1308" d="M23 1411h346l286 -922l287 922h344l-487 -1411h-289z" />
<glyph unicode="W" horiz-adv-x="2023" d="M31 1411h338l249 -938q73 383 267 799h254q192 -412 266 -799l250 938h338l-412 -1411h-342q-36 200 -96.5 436t-130.5 410q-71 -174 -131.5 -411t-96.5 -435h-342z" />
<glyph unicode="X" horiz-adv-x="1306" d="M16 0l449 729l-420 682h375l233 -424l230 424h374l-417 -680l452 -731h-379l-262 471l-262 -471h-373z" />
<glyph unicode="Y" horiz-adv-x="1265" d="M4 1411h369l260 -520l258 520h369l-465 -809v-602h-322v602z" />
<glyph unicode="Z" horiz-adv-x="1337" d="M82 0v229l709 906h-672v276h1122v-233l-713 -902h705v-276h-1151z" />
<glyph unicode="[" horiz-adv-x="735" d="M139 -410v1821h529v-227h-234v-1366h234v-228h-529z" />
<glyph unicode="\" horiz-adv-x="942" d="M66 1411h239l572 -1411h-240z" />
<glyph unicode="]" horiz-adv-x="735" d="M68 -182h233v1366h-233v227h528v-1821h-528v228z" />
<glyph unicode="_" horiz-adv-x="1503" d="M203 -72h1097v-215h-1097v215z" />
<glyph unicode="`" horiz-adv-x="1038" d="M264 1487h275l137 -342h-227z" />
<glyph unicode="a" d="M74 291q0 66 22.5 122t60 94.5t86 66t100 40.5t103.5 13q111 0 205 -29v41q0 57 -49.5 93t-150.5 36q-99 0 -291 -63v235q104 39 190.5 57.5t198.5 18.5q65 0 123 -13.5t112 -46t93 -82t62.5 -126.5t23.5 -175v-268q0 -28 6 -45t16 -25t27.5 -7.5t36.5 6t47 16.5v-209 q-32 -17 -72 -31q-38 -15 -90 -23q-31 -5 -59 -5q-19 0 -38 2q-45 6 -85 35t-60 81q-23 -41 -83.5 -69t-116 -37.5t-103.5 -9.5q-133 0 -224 82.5t-91 224.5zM375 311q0 -37 28 -65.5t97 -28.5q32 0 79.5 18t71.5 39v142q-60 20 -131 20q-72 0 -108.5 -38.5t-36.5 -86.5z " />
<glyph unicode="b" horiz-adv-x="1226" d="M135 0v1454h307v-489q100 51 234 51q82 0 164 -34.5t151 -96.5t112.5 -161t43.5 -216q0 -91 -18.5 -168t-49.5 -130t-72.5 -95.5t-84 -67.5t-88.5 -41.5t-83 -22.5t-69 -6q-84 0 -155.5 33.5t-110.5 77.5q0 -2 -10.5 -44.5t-10.5 -43.5h-260zM442 287q74 -58 181 -58 q92 0 159.5 78.5t67.5 192.5q0 111 -65.5 191.5t-178.5 80.5q-84 0 -164 -43v-442z" />
<glyph unicode="c" horiz-adv-x="1021" d="M76 492q0 97 31 182.5t83.5 147t120 106t141 66.5t146.5 22q160 0 332 -47v-238q-60 15 -136 23q-61 7 -100 6h-18q-73 0 -130 -23t-90 -62t-50 -85t-17 -96q0 -105 77 -183t210 -78h18q40 1 100 7q76 8 136 22v-239q-181 -46 -332 -46q-73 0 -146.5 21.5t-140.5 65 t-119.5 103.5t-83.5 144.5t-32 180.5z" />
<glyph unicode="d" horiz-adv-x="1282" d="M80 508q0 117 43.5 216t112.5 161t151 96.5t164 34.5q133 0 233 -51v489h308v-1149q0 -66 34 -76q8 -2 18 -3q31 0 81 24v-209q-32 -17 -71.5 -31.5t-91.5 -22.5q-31 -5 -58 -5q-19 0 -38 2q-45 6 -85 35t-60 81q-29 -48 -109 -85.5t-167 -37.5q-32 0 -69 6t-83 22.5 t-88.5 41.5t-84 67.5t-72.5 95.5t-49.5 130t-18.5 168zM377 500q0 -114 67.5 -192.5t159.5 -78.5q106 0 180 58v442q-80 43 -163 43q-113 0 -178.5 -80.5t-65.5 -191.5z" />
<glyph unicode="e" horiz-adv-x="1105" d="M80 502q0 119 39.5 218t106 162.5t152.5 98.5t181 35q223 0 349 -141.5t126 -387.5l-4 -90h-629q2 -32 16 -61.5t42 -58.5t80.5 -46.5t122.5 -17.5q54 0 148 16t161 33v-217q-120 -33 -208 -50t-188 -18q-107 0 -195.5 31.5t-156 94.5t-105.5 165t-38 234zM397 590h324 q0 32 -7 61.5t-23.5 59.5t-50.5 48.5t-81 18.5t-80.5 -20t-50 -52t-23.5 -60t-8 -56z" />
<glyph unicode="f" horiz-adv-x="804" d="M63 766v225h150v133q0 54 9 98.5t22 76.5t36.5 57t44 41.5t53 27.5t55 16.5t58.5 8.5t54.5 3.5t52.5 0.5h211v-240h-197q-45 0 -69.5 -23t-24.5 -65v-135h238v-225h-238v-766h-305v766h-150z" />
<glyph unicode="g" horiz-adv-x="1220" d="M82 483q0 91 18.5 168t48 130t70.5 95.5t82.5 67.5t87 41.5t82 22.5t68.5 6q84 0 155.5 -33.5t110.5 -77.5q0 2 10 44.5t10 43.5h260v-1067q0 -170 -133.5 -262t-386.5 -92q-232 0 -381 74v245q203 -82 344 -82q132 0 191 38.5t59 121.5v86q-19 -37 -87.5 -56.5 t-145.5 -19.5q-61 0 -124.5 20t-124.5 62t-108.5 100.5t-76.5 142.5t-29 181zM379 492q0 -120 71.5 -192.5t194.5 -72.5q58 0 133 29v449q-73 57 -180 57q-83 0 -151 -72.5t-68 -197.5z" />
<glyph unicode="h" horiz-adv-x="1204" d="M135 0v1454h297v-514q42 28 126.5 52t150.5 24q81 0 146.5 -23t116.5 -71.5t79 -132.5t28 -199v-590h-313v532q0 49 -2.5 81.5t-12.5 67.5t-28 55.5t-50 34t-77 13.5q-85 0 -154 -36v-748h-307z" />
<glyph unicode="i" horiz-adv-x="575" d="M125 1276q0 74 35.5 116t126.5 42t125 -41.5t34 -116.5q0 -156 -159 -156q-162 0 -162 156zM135 0v991h305v-991h-305z" />
<glyph unicode="j" horiz-adv-x="575" d="M-76 -174h101q23 0 41 4.5t29.5 10t19.5 16.5t12 19t6 22.5t2 22v22.5v1048h305v-1081q0 -181 -94 -256.5t-291 -75.5h-131v248zM127 1276q0 74 35.5 116t126.5 42t125.5 -41.5t34.5 -116.5q0 -156 -160 -156q-162 0 -162 156z" />
<glyph unicode="k" horiz-adv-x="1112" d="M135 0v1454h305v-739q54 41 126.5 125.5t113.5 150.5h340q-157 -271 -367 -432q117 -103 245.5 -258.5t217.5 -300.5h-352q-54 81 -153.5 197.5t-170.5 181.5v-379h-305z" />
<glyph unicode="l" horiz-adv-x="669" d="M131 307v1147h303v-1116q0 -17 2 -28t10 -27.5t29.5 -25.5t54.5 -9h101v-256h-131q-100 0 -166.5 14t-113.5 49.5t-68 97t-21 154.5z" />
<glyph unicode="m" horiz-adv-x="1732" d="M135 0v991h285l22 -82q53 48 113 77.5t107 29.5q154 0 260 -103q56 48 130.5 75.5t145.5 27.5q68 0 121 -9t110 -39t94.5 -80t62 -138t24.5 -207v-543h-316l-2 532q0 132 -34 190t-111 58q-43 0 -137 -49q12 -58 12 -131v-600h-309v532q0 131 -34.5 186.5t-111.5 55.5 q-43 0 -125 -43v-731h-307z" />
<glyph unicode="n" horiz-adv-x="1202" d="M135 0v991h285l22 -84q149 109 267 109q48 0 92 -9t97 -39.5t91 -79.5t64 -138t26 -207v-543h-319v532q0 74 -10.5 122.5t-32.5 74t-50 35.5t-69 10q-58 0 -156 -51v-723h-307z" />
<glyph unicode="o" horiz-adv-x="1236" d="M78 492q0 109 33 199.5t87 150.5t124.5 101t144.5 58q66 15 133 15h16q78 0 151.5 -15.5t145.5 -54t125 -96t86 -148t33 -204.5q0 -126 -41.5 -226.5t-115 -164t-171 -97t-211.5 -33.5h-16q-66 1 -132 15q-74 16 -145.5 56.5t-126 99.5t-87.5 148t-33 196zM381 500 q0 -120 68.5 -198.5t168.5 -78.5t168 76.5t68 200.5q0 118 -68 194t-168 76q-99 0 -168 -78t-69 -192z" />
<glyph unicode="p" horiz-adv-x="1218" d="M135 -410v1401h260q0 -1 10.5 -43.5t10.5 -44.5q39 44 110.5 77.5t155.5 33.5q32 0 68.5 -6t82 -22.5t87 -41.5t82.5 -67.5t70.5 -95.5t48 -130t18.5 -168q0 -120 -44 -220t-113.5 -161t-149 -94t-156.5 -33q-132 0 -234 52v-437h-307zM442 256q75 -29 133 -29 q123 0 195 72.5t72 192.5q0 125 -68 197.5t-151 72.5q-108 0 -181 -57v-449z" />
<glyph unicode="q" horiz-adv-x="1218" d="M80 483q0 91 18.5 168t48 130t70.5 95.5t82.5 67.5t87 41.5t82 22.5t68.5 6q84 0 155.5 -33.5t110.5 -77.5q0 2 10 44.5t10 43.5h260v-1401h-307v437q-102 -52 -233 -52q-77 0 -156.5 33t-149 94t-113.5 161t-44 220zM377 492q0 -120 71.5 -192.5t194.5 -72.5 q58 0 133 29v449q-73 57 -180 57q-83 0 -151 -72.5t-68 -197.5z" />
<glyph unicode="r" horiz-adv-x="841" d="M135 0v991h271l28 -114q71 63 148.5 96t136.5 33q36 0 72 -5v-251q-29 4 -91 4q-57 0 -128.5 -22.5t-127.5 -59.5v-672h-309z" />
<glyph unicode="s" horiz-adv-x="954" d="M86 694v19q0 59 25 112.5t73.5 96.5t128.5 68.5t181 25.5q86 0 174.5 -21t152.5 -51v-235q-59 27 -153.5 48t-165.5 21q-109 0 -109 -65q0 -43 107 -76q165 -54 218 -81q114 -57 144 -153q12 -42 12 -96v-22q-6 -75 -32 -131t-65 -89.5t-96 -53.5t-115.5 -27t-133.5 -7 q-86 0 -175.5 21t-152.5 51v232q61 -28 161 -50t171 -22q70 0 108 22t38 58q0 16 -9 28t-32 22t-41.5 16.5t-58 17.5t-62.5 18l-51 15q-51 17 -92 42.5t-65.5 50.5t-42.5 57.5t-25.5 53.5t-12 49t-4.5 35z" />
<glyph unicode="t" horiz-adv-x="784" d="M53 766v225h148v219l305 88v-307h196v-225h-196v-426q0 -18 2 -30.5t10 -30t29.5 -27.5t54.5 -10h103v-250h-134q-101 0 -167.5 14t-113.5 49.5t-68 96.5t-21 155v459h-148z" />
<glyph unicode="u" horiz-adv-x="1257" d="M123 449v542h319v-532q0 -74 10.5 -122.5t32.5 -74t50 -35.5t69 -10q58 0 156 51v723h307v-686q0 -28 6 -45t16 -25t27.5 -7.5t36.5 6t47 16.5v-209q-32 -17 -71.5 -31.5t-90.5 -22.5q-30 -5 -58 -5q-19 0 -38 2q-45 6 -85 35t-60 81q-54 -62 -138.5 -92.5t-164.5 -30.5 q-33 0 -64 4.5t-69 17.5t-70.5 34t-64.5 57.5t-54 84.5t-35.5 118.5t-13.5 155.5z" />
<glyph unicode="v" horiz-adv-x="1085" d="M18 991h328l197 -612l194 612h330l-387 -991h-272z" />
<glyph unicode="w" horiz-adv-x="1593" d="M25 991h333l152 -563l160 524h254l161 -524l152 563h332l-326 -991h-305l-141 559l-140 -559h-305z" />
<glyph unicode="x" d="M25 0l354 500l-348 491h362l174 -260l176 260h361l-348 -491l352 -500h-363l-178 270l-180 -270h-362z" />
<glyph unicode="y" horiz-adv-x="1097" d="M16 991h338l193 -588l196 588h336l-465 -1196q-25 -70 -55 -113t-73.5 -65.5t-91.5 -29.5q-38 -5 -92 -5h-32h-139v246h119q62 0 84 63l59 175z" />
<glyph unicode="z" horiz-adv-x="1095" d="M78 0v205l485 540h-452v246h890v-205l-485 -540h485v-246h-923z" />
<glyph unicode="{" horiz-adv-x="786" d="M57 442v119q59 9 99.5 39t40.5 84v369q0 358 342 358h182v-213h-121q-108 0 -108 -96v-309q0 -132 -38 -198.5t-114 -92.5q152 -41 152 -291v-283q0 -54 28 -88.5t80 -34.5h121v-213h-182q-342 0 -342 359v368q0 48 -42 81.5t-98 41.5z" />
<glyph unicode="|" horiz-adv-x="468" d="M139 -233v1871h191v-1871h-191z" />
<glyph unicode="}" horiz-adv-x="786" d="M66 -195h120q52 0 80.5 35t28.5 88v283q0 251 151 291q-76 26 -113.5 92.5t-37.5 198.5v309q0 96 -109 96h-120v213h182q342 0 342 -358v-369q0 -54 40 -84t99 -39v-119q-56 -8 -97.5 -41.5t-41.5 -81.5v-368q0 -359 -342 -359h-182v213z" />
<glyph unicode="&#xa1;" horiz-adv-x="538" d="M106 868q0 156 162 156q160 0 160 -156q0 -75 -34.5 -116t-125.5 -41t-126.5 41.5t-35.5 115.5zM115 -51l35 657h239l35 -657v-359h-309v359z" />
<glyph unicode="&#xa2;" horiz-adv-x="1079" d="M98 492q0 108 39 201.5t103 157.5t143 105t164 54v202h190v-204q106 -10 215 -39v-238q-60 14 -135.5 22.5t-118.5 6.5q-73 0 -130 -23t-90 -62t-49.5 -85t-16.5 -96q0 -105 76.5 -183t209.5 -78q43 -2 118.5 6.5t135.5 22.5v-239q-95 -25 -215 -39v-185h-190v185 q-67 9 -131 35.5t-121.5 71t-101 102t-69 135t-26.5 164.5z" />
<glyph unicode="&#xa3;" horiz-adv-x="1200" d="M115 0v246h159v383h-157v194h157v144q0 211 140.5 339t400.5 128q87 0 227 -31v-252q-127 25 -231 25q-110 0 -167.5 -65.5t-57.5 -154.5v-133h258v-194h-258v-383h518v-246h-989z" />
<glyph unicode="&#xa4;" horiz-adv-x="1277" d="M115 264l170 170q-49 91 -48 182.5t48 176.5l-170 170l176 176l168 -168q87 47 180 48.5t184 -46.5l166 166l176 -176l-166 -168q50 -91 48 -184.5t-50 -178.5l166 -166l-176 -176l-168 166q-85 -45 -175 -45.5t-181 47.5l-172 -170zM469 619.5q-2 -64.5 53 -123.5 q60 -56 125 -54t117 54q51 53 53 117.5t-53 121.5q-58 56 -124 54t-118 -54q-51 -51 -53 -115.5z" />
<glyph unicode="&#xa5;" horiz-adv-x="1402" d="M74 1411h368l260 -520l259 520h368l-411 -715h237v-196h-291v-152h291v-194h-291v-154h-321v154h-297v194h297v152h-297v196h241z" />
<glyph unicode="&#xa6;" horiz-adv-x="440" />
<glyph unicode="&#xa7;" d="M101.5 525.5q0.5 13.5 2.5 27.5q19 166 154 254q-39 42 -62.5 90t-28.5 91t-5.5 66t2.5 42q18 170 164 261.5t385 67.5q131 -16 274 -82l-76 -235q-132 57 -227 66q-109 11 -165 -18.5t-64 -88.5q1 -1 -0.5 -7.5t3 -19.5t11.5 -26t25.5 -29t44.5 -27q10 -4 30.5 -15 t30.5 -15q99 -43 156.5 -71.5t125 -74t99 -90.5t48 -110t3.5 -144q-32 -170 -145 -252q116 -112 88 -290q-20 -103 -68.5 -173t-117.5 -103t-158.5 -43.5t-190.5 3.5q-156 16 -329 101l73 233q157 -70 283 -82q60 -6 103 -1t71 27t39 64q8 25 -1 47.5t-26.5 39.5t-52.5 37 t-64 33t-77 33q-21 9 -31 13l-68 33q-58 25 -103.5 58.5t-72.5 66t-45.5 70.5t-25.5 66.5t-9.5 60.5t-2 45.5zM377.5 575.5q-13.5 -56.5 22 -107.5t108.5 -93.5t166 -63.5q64 45 86 92t5.5 87.5t-59.5 77t-105.5 64t-137.5 46.5q-72 -46 -85.5 -102.5z" />
<glyph unicode="&#xa8;" horiz-adv-x="1163" d="M246 1286q0 70 31 109t114 39q82 0 113 -39t31 -109q0 -145 -144 -145q-145 0 -145 145zM629 1286q0 70 31 109t114 39q82 0 113 -39t31 -109q0 -145 -144 -145q-145 0 -145 145z" />
<glyph unicode="&#xa9;" horiz-adv-x="1622" d="M102 700q0 154 41.5 279.5t111 208.5t162 139.5t191.5 81.5t203 25t203 -25t191.5 -81.5t162 -139.5t111 -208.5t41.5 -279.5q0 -329 -194.5 -526t-516.5 -197h4q-322 0 -516.5 197t-194.5 526zM262 700q0 -254 150.5 -406.5t400.5 -152.5h-4q250 0 400.5 152.5 t150.5 406.5q0 119 -32.5 217t-86 162.5t-125.5 108.5t-148 63t-157 19t-157 -19t-148 -63t-125.5 -108.5t-86 -162.5t-32.5 -217zM467 698q0 -81 29 -148t77 -109t107 -64.5t121 -22.5q120 0 219 29v115q-48 -8 -85 -12t-48.5 -5t-37 -0.5t-26.5 0.5q-83 0 -142.5 59 t-59.5 158t57 158t145 59q103 0 197 -18v119q-107 26 -219 26q-83 0 -158 -39t-125.5 -119.5t-50.5 -185.5z" />
<glyph unicode="&#xaa;" horiz-adv-x="798" d="M102 973q0 68 38 118.5t91 72.5t109 22q100 0 131 -10v18q0 36 -32 59t-97 23q-59 0 -184 -39v149q124 48 248 48q52 0 97 -14.5t83.5 -45.5t61 -87.5t22.5 -133.5v-367h-176l-17 58q-19 -30 -74.5 -49t-99.5 -19q-85 0 -143 53t-58 144zM139 545v139h529v-139h-529z M295 985q0 -24 18 -41.5t62 -17.5q20 0 50.5 11.5t45.5 25.5v94q-24 4 -84 4q-47 0 -69.5 -23t-22.5 -53z" />
<glyph unicode="&#xab;" horiz-adv-x="1150" d="M66 506l282 424h281l-283 -424l283 -424h-281zM516 506l283 424h280l-282 -424l282 -424h-280z" />
<glyph unicode="&#xac;" horiz-adv-x="1255" d="M121 539v256h991v-580h-268v324h-723z" />
<glyph unicode="&#xad;" horiz-adv-x="923" d="M117 455v243h690v-243h-690z" />
<glyph unicode="&#xae;" horiz-adv-x="1622" d="M102 700q0 154 41.5 279.5t111 208.5t162 139.5t191.5 81.5t203 25t203 -25t191.5 -81.5t162 -139.5t111 -208.5t41.5 -279.5q0 -329 -194.5 -526t-516.5 -197h4q-322 0 -516.5 197t-194.5 526zM262 700q0 -254 150.5 -406.5t400.5 -152.5h-4q250 0 400.5 152.5 t150.5 406.5q0 119 -32.5 217t-86 162.5t-125.5 108.5t-148 63t-157 19t-157 -19t-148 -63t-125.5 -108.5t-86 -162.5t-32.5 -217zM575 365v667h277q93 0 154 -53.5t61 -149.5q0 -88 -37 -139t-104 -59q50 -59 101.5 -134t80.5 -132h-166q-61 110 -131 204q-33 47 -45 47 h-41v-251h-150zM725 735h129q64 0 64 86q0 36 -22 60t-56 24h-115v-170z" />
<glyph unicode="&#xaf;" horiz-adv-x="1026" d="M246 1180v209h534v-209h-534z" />
<glyph unicode="&#xb0;" horiz-adv-x="731" d="M82 1157q0 76 22.5 131t63 86t88.5 45.5t106 14.5q60 0 109.5 -14.5t90.5 -45.5t64 -86t23 -131q0 -143 -81 -209.5t-206 -66.5q-121 0 -200.5 66.5t-79.5 209.5zM254 1157q0 -56 31 -82t77 -26q49 0 81 26t32 82q0 109 -113 109q-48 0 -78 -26t-30 -83z" />
<glyph unicode="&#xb1;" horiz-adv-x="1167" d="M129 0v244h909v-244h-909zM129 649v254h324v285h262v-285h323v-254h-323v-284h-262v284h-324z" />
<glyph unicode="&#xb2;" horiz-adv-x="780" d="M72 901v158l301 305q92 86 92 147q0 38 -29.5 58t-70.5 20q-103 0 -269 -78v179q65 40 145.5 63t143.5 23q309 0 315 -258q0 -12 -4.5 -35.5t-26 -71t-57.5 -82.5l-231 -239h315v-189h-624z" />
<glyph unicode="&#xb3;" horiz-adv-x="747" d="M78 932v168q117 -45 229 -45q70 0 101.5 23.5t31.5 74.5q0 3 -0.5 9t-4 20.5t-9.5 26t-20 22.5t-33 14h-162v148h156q29 6 45.5 27t17.5 39l2 18q0 100 -129 100q-103 0 -205 -41v168q40 17 115.5 35t128.5 18q150 0 234.5 -67t87.5 -179q0 -7 -0.5 -17t-6 -36 t-15.5 -48.5t-30.5 -49t-48.5 -43.5q28 -18 48.5 -44.5t30.5 -49t15.5 -48t6 -35.5t0.5 -16q-3 -112 -87.5 -178.5t-234.5 -66.5q-54 0 -140.5 18.5t-123.5 34.5z" />
<glyph unicode="&#xb4;" horiz-adv-x="1038" d="M264 1145l137 342h275l-184 -342h-228z" />
<glyph unicode="&#xb6;" horiz-adv-x="1261" d="M78 1047q0 151 106.5 257.5t257.5 106.5h635v-1663h-231v1432h-172v-1432h-232v934q-151 0 -257.5 106.5t-106.5 258.5z" />
<glyph unicode="&#xb7;" horiz-adv-x="526" d="M102 645q0 74 35.5 116t126.5 42t125.5 -41.5t34.5 -116.5q0 -156 -160 -156q-162 0 -162 156z" />
<glyph unicode="&#xb8;" horiz-adv-x="1140" d="M328 -205q226 -58 274 -10q23 23 27.5 55.5t-19 83.5t-80.5 111h162q58 -49 89.5 -112.5t31.5 -131.5q0 -107 -75.5 -169.5t-205.5 -49.5q-116 12 -204 55v168z" />
<glyph unicode="&#xb9;" horiz-adv-x="638" d="M82 901v166h135v485l-133 -57v164l205 94h166v-686h137v-166h-510z" />
<glyph unicode="&#xba;" horiz-adv-x="892" d="M100 1100q0 87 31.5 154.5t83 106t110.5 57t119 16.5q64 0 121.5 -17t109 -53t82.5 -103t31 -157q0 -160 -95.5 -246t-246.5 -86q-60 -2 -119.5 17t-111 56.5t-83.5 104t-32 150.5zM152 545v139h596v-139h-596zM295 1106q0 -77 43.5 -126.5t107.5 -49.5q65 0 107.5 48 t42.5 128q0 76 -43 124t-107 48q-63 0 -107 -50t-44 -122z" />
<glyph unicode="&#xbb;" horiz-adv-x="1150" d="M72 82l282 424l-282 424h280l283 -424l-283 -424h-280zM522 82l283 424l-283 424h281l282 -424l-282 -424h-281z" />
<glyph unicode="&#xbc;" horiz-adv-x="1789" d="M106 559v166h136v485l-133 -57v164l204 94h166v-686h137v-166h-510zM512 0l571 1411h168l-571 -1411h-168zM1006 184h362v-184h236v184h94v176h-94v492h-209l-389 -530v-138zM1200 360l168 234v-234h-168z" />
<glyph unicode="&#xbd;" horiz-adv-x="1820" d="M104 559v166h136v485l-134 -57v164l205 94h166v-686h137v-166h-510zM510 0l571 1411h168l-571 -1411h-168zM1098 0v158l301 305q92 86 92 147q0 38 -29.5 58t-70.5 20q-103 0 -269 -78v178q65 40 145.5 63t143.5 23q309 0 315 -258q0 -12 -4.5 -35.5t-26 -70.5t-57.5 -82 l-231 -240h315v-188h-624z" />
<glyph unicode="&#xbe;" horiz-adv-x="1843" d="M100 598v168q117 -45 230 -45q70 0 101.5 23.5t31.5 74.5q0 3 -0.5 9t-4 20.5t-10 26t-20.5 22.5t-33 14h-162v148h156q29 6 45.5 27t18.5 39l2 18q0 100 -129 100q-103 0 -205 -41v168q40 17 115.5 35t128.5 18q150 0 234 -66.5t87 -178.5q0 -7 -0.5 -17t-6 -36t-15 -49 t-30 -49.5t-48.5 -43.5q28 -18 48.5 -44.5t30 -49t15 -48t6 -35t0.5 -15.5q-3 -112 -87 -179t-234 -67q-54 0 -141 18.5t-124 34.5zM565 0l572 1411h168l-572 -1411h-168zM1059 184h362v-184h236v184h94v176h-94v492h-209l-389 -530v-138zM1253 360l168 234v-234h-168z" />
<glyph unicode="&#xbf;" horiz-adv-x="1015" d="M76 -35q3 89 19 141q54 171 257 259q75 32 120.5 83.5t45.5 120.5v29h266v-14q0 -338 -309 -478q-39 -19 -62 -50t-27.5 -50t-4.5 -35q0 -68 44 -109.5t134 -41.5q78 0 171.5 26.5t172.5 69.5l25 -248q-80 -54 -166.5 -76t-186.5 -30q-222 -13 -360.5 104t-138.5 299z M492 860q0 156 159 156q162 0 162 -156q0 -74 -35.5 -116t-126.5 -42t-125 41.5t-34 116.5z" />
<glyph unicode="&#xc0;" horiz-adv-x="1351" d="M29 0q124 427 232.5 740.5t273.5 670.5h282q165 -357 273.5 -670.5t232.5 -740.5h-319q-80 276 -109 371h-438q-90 -308 -109 -371h-319zM383 1907h274l138 -342h-228zM537 629h280q-4 11 -56.5 185t-84.5 251q-23 -58 -46.5 -132t-52.5 -171t-40 -133z" />
<glyph unicode="&#xc1;" horiz-adv-x="1351" d="M29 0q124 427 232.5 740.5t273.5 670.5h282q165 -357 273.5 -670.5t232.5 -740.5h-319q-80 276 -109 371h-438q-90 -308 -109 -371h-319zM537 629h280q-4 11 -56.5 185t-84.5 251q-23 -58 -46.5 -132t-52.5 -171t-40 -133zM557 1565l137 342h275l-185 -342h-227z" />
<glyph unicode="&#xc2;" horiz-adv-x="1351" d="M29 0q124 427 232.5 740.5t273.5 670.5h282q165 -357 273.5 -670.5t232.5 -740.5h-319q-80 276 -109 371h-438q-90 -308 -109 -371h-319zM313 1565l234 342h256l233 -342h-221l-141 168l-139 -168h-222zM537 629h280q-4 11 -56.5 185t-84.5 251q-23 -58 -46.5 -132 t-52.5 -171t-40 -133z" />
<glyph unicode="&#xc3;" horiz-adv-x="1351" d="M29 0q124 427 232.5 740.5t273.5 670.5h282q165 -357 273.5 -670.5t232.5 -740.5h-319q-80 276 -109 371h-438q-90 -308 -109 -371h-319zM319 1608q0 124 68 199t174 75q31 0 73.5 -19t76.5 -37.5t67 -28.5t54.5 9.5t29.5 75.5h170q0 -52 -12 -97t-39.5 -87t-81.5 -66 t-129 -24q-29 0 -69.5 18t-73.5 35.5t-65.5 27t-54.5 -9t-30 -71.5h-158zM537 629h280q-4 11 -56.5 185t-84.5 251q-23 -58 -46.5 -132t-52.5 -171t-40 -133z" />
<glyph unicode="&#xc4;" horiz-adv-x="1351" d="M29 0q124 427 232.5 740.5t273.5 670.5h282q165 -357 273.5 -670.5t232.5 -740.5h-319q-80 276 -109 371h-438q-90 -308 -109 -371h-319zM340 1706q0 70 31 108.5t114 38.5t113.5 -38.5t30.5 -108.5q0 -145 -144 -145q-145 0 -145 145zM537 629h280q-4 11 -56.5 185 t-84.5 251q-23 -58 -46.5 -132t-52.5 -171t-40 -133zM723 1706q0 70 31 108.5t114 38.5t113.5 -38.5t30.5 -108.5q0 -145 -144 -145q-145 0 -145 145z" />
<glyph unicode="&#xc5;" horiz-adv-x="1351" d="M29 0q124 427 232.5 740.5t273.5 670.5h282q165 -357 273.5 -670.5t232.5 -740.5h-319q-80 276 -109 371h-438q-90 -308 -109 -371h-319zM469 1751q0 108 57 155.5t150 47.5t150 -47.5t57 -155.5q0 -105 -58.5 -154t-148.5 -49t-148.5 49t-58.5 154zM537 629h280 q-4 11 -56.5 185t-84.5 251q-23 -58 -46.5 -132t-52.5 -171t-40 -133zM602 1751q0 -35 21.5 -53.5t52.5 -18.5t52.5 18.5t21.5 53.5q0 72 -74 72t-74 -72z" />
<glyph unicode="&#xc6;" horiz-adv-x="1900" d="M29 0q124 427 232.5 740.5t273.5 670.5h1253v-276h-649v-275h592v-270h-592v-209q0 -105 104 -105h545v-276h-617q-189 6 -271 74.5t-83 238.5v58h-360q-90 -308 -109 -371h-319zM537 629h280v506h-117q-13 -30 -25 -59t-23.5 -61t-19.5 -54.5t-19 -59.5t-16 -53 t-16.5 -57.5t-14.5 -52t-15 -57t-14 -52.5z" />
<glyph unicode="&#xc7;" horiz-adv-x="1343" d="M92 702q0 136 39 255t106 205t155 148.5t187.5 93t202.5 30.5q128 0 254.5 -18.5t206.5 -43.5v-262q-224 33 -414 33q-178 0 -295 -118.5t-118 -315.5q0 -201 116.5 -321t296.5 -120q190 0 414 33v-262q-151 -47 -379 -59q68 -83 68 -189q0 -107 -75.5 -169.5 t-205.5 -49.5q-117 12 -205 55v168q227 -58 275 -10q70 70 -29 199q-118 16 -224.5 71.5t-191 144.5t-134.5 219.5t-50 282.5z" />
<glyph unicode="&#xc8;" horiz-adv-x="1249" d="M166 313v1098h971v-276h-650v-275h592v-270h-592v-209q0 -105 105 -105h545v-276h-617q-189 6 -271 74.5t-83 238.5zM352 1907h275l137 -342h-227z" />
<glyph unicode="&#xc9;" horiz-adv-x="1249" d="M166 313v1098h971v-276h-650v-275h592v-270h-592v-209q0 -105 105 -105h545v-276h-617q-189 6 -271 74.5t-83 238.5zM475 1565l137 342h275l-185 -342h-227z" />
<glyph unicode="&#xca;" horiz-adv-x="1249" d="M166 313v1098h971v-276h-650v-275h592v-270h-592v-209q0 -105 105 -105h545v-276h-617q-189 6 -271 74.5t-83 238.5zM248 1565l233 342h256l234 -342h-221l-142 168l-139 -168h-221z" />
<glyph unicode="&#xcb;" horiz-adv-x="1249" d="M166 313v1098h971v-276h-650v-275h592v-270h-592v-209q0 -105 105 -105h545v-276h-617q-189 6 -271 74.5t-83 238.5zM274 1706q0 69 31.5 108t114.5 39q82 0 112.5 -38.5t30.5 -108.5q0 -145 -143 -145q-146 0 -146 145zM657 1706q0 69 31.5 108t114.5 39 q82 0 112.5 -38.5t30.5 -108.5q0 -145 -143 -145q-146 0 -146 145z" />
<glyph unicode="&#xcc;" horiz-adv-x="661" d="M80 1907h274l138 -342h-228zM170 0v1411h322v-1411h-322z" />
<glyph unicode="&#xcd;" horiz-adv-x="661" d="M170 0v1411h322v-1411h-322zM170 1565l137 342h275l-185 -342h-227z" />
<glyph unicode="&#xce;" horiz-adv-x="661" d="M-31 1565l234 342h256l233 -342h-221l-141 168l-140 -168h-221zM170 0v1411h322v-1411h-322z" />
<glyph unicode="&#xcf;" horiz-adv-x="661" d="M-4 1706q0 70 31 108.5t114 38.5t113.5 -38.5t30.5 -108.5q0 -145 -144 -145q-145 0 -145 145zM170 0v1411h322v-1411h-322zM379 1706q0 70 31 108.5t114 38.5t113.5 -38.5t30.5 -108.5q0 -145 -144 -145q-145 0 -145 145z" />
<glyph unicode="&#xd0;" horiz-adv-x="1458" d="M51 580v239h152v592h499q104 0 200 -28t180 -86.5t146 -141.5t98 -199.5t36 -253.5q0 -139 -36 -255t-98 -197.5t-146 -138.5t-180 -84t-200 -27h-499v580h-152zM524 289h99q201 0 304 104.5t103 308.5q0 420 -407 420h-99v-303h262v-239h-262v-291z" />
<glyph unicode="&#xd1;" horiz-adv-x="1456" d="M170 0v1411h317q328 -458 478 -790v790h321v-1411h-309q-123 254 -236 457.5t-247 388.5v-846h-324zM371 1608q0 124 67.5 199t173.5 75q31 0 73.5 -19t76.5 -37.5t67 -28.5t54.5 9.5t29.5 75.5h170q0 -52 -12 -97t-39.5 -87t-81.5 -66t-129 -24q-29 0 -69.5 18 t-73.5 35.5t-65.5 27t-54.5 -9t-30 -71.5h-157z" />
<glyph unicode="&#xd2;" horiz-adv-x="1650" d="M94 700q0 153 43.5 278.5t115.5 208.5t168 140t197 82t207 25q105 0 206 -25t197 -82t168 -140t116 -208.5t44 -278.5q0 -216 -92.5 -380.5t-257.5 -253t-379 -89.5q-215 0 -381.5 89t-259 253.5t-92.5 380.5zM416 700q0 -192 114.5 -316t292.5 -124q180 0 296 124 t116 316q0 91 -24.5 167t-65.5 127.5t-94.5 87.5t-110.5 52.5t-115 16.5t-115.5 -16.5t-110.5 -52.5t-93.5 -87.5t-65 -127.5t-24.5 -167zM524 1907h275l137 -342h-227z" />
<glyph unicode="&#xd3;" horiz-adv-x="1650" d="M94 700q0 153 43.5 278.5t115.5 208.5t168 140t197 82t207 25q105 0 206 -25t197 -82t168 -140t116 -208.5t44 -278.5q0 -216 -92.5 -380.5t-257.5 -253t-379 -89.5q-215 0 -381.5 89t-259 253.5t-92.5 380.5zM416 700q0 -192 114.5 -316t292.5 -124q180 0 296 124 t116 316q0 91 -24.5 167t-65.5 127.5t-94.5 87.5t-110.5 52.5t-115 16.5t-115.5 -16.5t-110.5 -52.5t-93.5 -87.5t-65 -127.5t-24.5 -167zM690 1565l137 342h275l-184 -342h-228z" />
<glyph unicode="&#xd4;" horiz-adv-x="1650" d="M94 700q0 153 43.5 278.5t115.5 208.5t168 140t197 82t207 25q105 0 206 -25t197 -82t168 -140t116 -208.5t44 -278.5q0 -216 -92.5 -380.5t-257.5 -253t-379 -89.5q-215 0 -381.5 89t-259 253.5t-92.5 380.5zM416 700q0 -192 114.5 -316t292.5 -124q180 0 296 124 t116 316q0 91 -24.5 167t-65.5 127.5t-94.5 87.5t-110.5 52.5t-115 16.5t-115.5 -16.5t-110.5 -52.5t-93.5 -87.5t-65 -127.5t-24.5 -167zM463 1565l233 342h256l234 -342h-221l-142 168l-139 -168h-221z" />
<glyph unicode="&#xd5;" horiz-adv-x="1650" d="M94 700q0 153 43.5 278.5t115.5 208.5t168 140t197 82t207 25q105 0 206 -25t197 -82t168 -140t116 -208.5t44 -278.5q0 -216 -92.5 -380.5t-257.5 -253t-379 -89.5q-215 0 -381.5 89t-259 253.5t-92.5 380.5zM416 700q0 -192 114.5 -316t292.5 -124q180 0 296 124 t116 316q0 91 -24.5 167t-65.5 127.5t-94.5 87.5t-110.5 52.5t-115 16.5t-115.5 -16.5t-110.5 -52.5t-93.5 -87.5t-65 -127.5t-24.5 -167zM469 1608q0 124 68 199t174 75q31 0 73.5 -19t76.5 -37.5t67 -28.5t54.5 9.5t29.5 75.5h170q0 -52 -12 -97t-39.5 -87t-81.5 -66 t-129 -24q-29 0 -69.5 18t-73.5 35.5t-65.5 27t-54.5 -9t-30 -71.5h-158z" />
<glyph unicode="&#xd6;" horiz-adv-x="1650" d="M94 700q0 153 43.5 278.5t115.5 208.5t168 140t197 82t207 25q105 0 206 -25t197 -82t168 -140t116 -208.5t44 -278.5q0 -216 -92.5 -380.5t-257.5 -253t-379 -89.5q-215 0 -381.5 89t-259 253.5t-92.5 380.5zM416 700q0 -192 114.5 -316t292.5 -124q180 0 296 124 t116 316q0 91 -24.5 167t-65.5 127.5t-94.5 87.5t-110.5 52.5t-115 16.5t-115.5 -16.5t-110.5 -52.5t-93.5 -87.5t-65 -127.5t-24.5 -167zM489 1706q0 69 31.5 108t114.5 39q82 0 112.5 -38.5t30.5 -108.5q0 -145 -143 -145q-146 0 -146 145zM872 1706q0 69 31.5 108 t114.5 39q82 0 112.5 -38.5t30.5 -108.5q0 -145 -143 -145q-146 0 -146 145z" />
<glyph unicode="&#xd7;" horiz-adv-x="1040" d="M106 803l185 184l231 -231l230 229l180 -180l-230 -230l232 -231l-184 -184l-232 231l-229 -229l-180 180l229 229z" />
<glyph unicode="&#xd8;" horiz-adv-x="1650" d="M94 700q0 153 43.5 278.5t115.5 208.5t168 140t197 82t207 25q221 0 400 -105l155 187l146 -121l-152 -183q182 -195 182 -512q0 -216 -92.5 -380.5t-257.5 -253t-379 -89.5q-223 0 -397 97l-156 -189l-147 123l154 185q-187 196 -187 507zM416 700q0 -146 71 -260 l543 654q-96 57 -205 57q-58 0 -115.5 -16.5t-110.5 -52.5t-93.5 -87.5t-65 -127.5t-24.5 -167zM625 309q85 -49 198 -49q180 0 296 124t116 316q0 150 -68 263z" />
<glyph unicode="&#xd9;" horiz-adv-x="1478" d="M156 594q0 -121 24 -218.5t60.5 -160.5t91.5 -109.5t105 -70.5t112 -38t102.5 -17t87.5 -3t87.5 3t103 17t112.5 38t104.5 70.5t91.5 109.5t61 160.5t24 218.5v817h-322v-780q0 -58 -6.5 -106.5t-16.5 -83t-26.5 -62t-31 -45t-36.5 -29.5t-37 -18t-38 -9t-33.5 -3.5 t-29.5 -0.5h-7h-6q-23 0 -37.5 0.5t-44.5 7.5t-50.5 19.5t-46 39t-41.5 63t-27 95t-11 132.5v780h-319v-817zM455 1907h274l137 -342h-227z" />
<glyph unicode="&#xda;" horiz-adv-x="1478" d="M156 594v817h319v-780q0 -58 7 -106.5t17 -83t27 -62t32.5 -45t38 -30t37.5 -18t38 -8.5t33 -3.5t28 -0.5h6q80 0 121 18q141 61 141 339v780h322v-817q0 -121 -24 -218.5t-61 -160.5t-91.5 -109.5t-104.5 -70.5t-112.5 -38t-103 -17t-87.5 -3t-87.5 3t-102.5 17t-112 38 t-105 70.5t-91.5 109.5t-60.5 160.5t-24 218.5zM565 1565l137 342h275l-184 -342h-228z" />
<glyph unicode="&#xdb;" horiz-adv-x="1478" d="M156 594q0 -121 24 -218.5t60.5 -160.5t91.5 -109.5t105 -70.5t112 -38t102.5 -17t87.5 -3t87.5 3t103 17t112.5 38t104.5 70.5t91.5 109.5t61 160.5t24 218.5v817h-322v-780q0 -58 -6.5 -106.5t-16.5 -83t-26.5 -62t-31 -45t-36.5 -29.5t-37 -18t-38 -9t-33.5 -3.5 t-29.5 -0.5h-7h-6q-23 0 -37.5 0.5t-44.5 7.5t-50.5 19.5t-46 39t-41.5 63t-27 95t-11 132.5v780h-319v-817zM377 1565l233 342h256l234 -342h-221l-142 168l-139 -168h-221z" />
<glyph unicode="&#xdc;" horiz-adv-x="1478" d="M156 594q0 -121 24 -218.5t60.5 -160.5t91.5 -109.5t105 -70.5t112 -38t102.5 -17t87.5 -3t87.5 3t103 17t112.5 38t104.5 70.5t91.5 109.5t61 160.5t24 218.5v817h-322v-780q0 -58 -6.5 -106.5t-16.5 -83t-26.5 -62t-31 -45t-36.5 -29.5t-37 -18t-38 -9t-33.5 -3.5 t-29.5 -0.5h-7h-6q-23 0 -37.5 0.5t-44.5 7.5t-50.5 19.5t-46 39t-41.5 63t-27 95t-11 132.5v780h-319v-817zM403 1706q0 69 31.5 108t114.5 39q82 0 112.5 -38.5t30.5 -108.5q0 -145 -143 -145q-146 0 -146 145zM786 1706q0 69 31.5 108t114.5 39q82 0 112.5 -38.5 t30.5 -108.5q0 -145 -143 -145q-146 0 -146 145z" />
<glyph unicode="&#xdd;" horiz-adv-x="1265" d="M4 1411h369l260 -520l258 520h369l-465 -809v-602h-322v602zM492 1565l137 342h274l-184 -342h-227z" />
<glyph unicode="&#xde;" horiz-adv-x="1271" d="M170 0v1411h322v-262h286q86 0 162 -27.5t136.5 -80.5t96 -139.5t35.5 -196.5t-35.5 -196.5t-96.5 -139t-136.5 -79t-161.5 -26.5h-286v-264h-322zM492 532h247q77 0 116.5 45t39.5 128q0 178 -156 178h-247v-351z" />
<glyph unicode="&#xdf;" horiz-adv-x="1218" d="M133 0v864q0 107 14.5 191t50 157t92.5 120.5t145.5 74.5t205.5 27h35q43 0 90.5 -10.5t103 -39.5t99 -73.5t73 -120t29.5 -170.5q0 -74 -35.5 -142t-105.5 -110q85 -38 147 -136.5t62 -209.5q0 -109 -35.5 -190t-101.5 -130t-152.5 -74t-196.5 -28h-118v262h120 q69 0 129 53.5t60 122.5q0 51 -23 89.5t-56.5 58t-62.5 28.5t-49 9h-78v243h70q54 0 93.5 50t39.5 104q0 67 -46 109t-101 42q-49 0 -85.5 -20t-55.5 -49.5t-30 -73.5t-14 -81t-2 -83v-864h-311z" />
<glyph unicode="&#xe0;" d="M74 291q0 -142 91 -224.5t224 -82.5q48 0 103.5 9.5t116 37.5t83.5 69q20 -52 60 -81t85 -34.5t96.5 2.5t91 22.5t71.5 31.5v209q-28 -11 -47 -16.5t-36.5 -6t-27.5 7.5t-16 25t-6 45v268q0 98 -23.5 175t-62.5 126.5t-93 82t-112 46t-123 13.5q-112 0 -198.5 -18.5 t-190.5 -57.5v-235q192 63 291 63q101 0 150.5 -36t49.5 -93v-41q-94 29 -205 29q-52 0 -103.5 -13t-100 -40.5t-86 -66t-60 -94.5t-22.5 -122zM252 1487h274l138 -342h-228zM375 311q0 48 36.5 86.5t108.5 38.5q71 0 131 -20v-142q-24 -21 -71.5 -39t-79.5 -18 q-69 0 -97 28.5t-28 65.5z" />
<glyph unicode="&#xe1;" d="M74 291q0 66 22.5 122t60 94.5t86 66t100 40.5t103.5 13q111 0 205 -29v41q0 57 -49.5 93t-150.5 36q-99 0 -291 -63v235q104 39 190.5 57.5t198.5 18.5q65 0 123 -13.5t112 -46t93 -82t62.5 -126.5t23.5 -175v-268q0 -28 6 -45t16 -25t27.5 -7.5t36.5 6t47 16.5v-209 q-32 -17 -71.5 -31.5t-91 -22.5t-96.5 -2.5t-85 34.5t-60 81q-23 -41 -83.5 -69t-116 -37.5t-103.5 -9.5q-133 0 -224 82.5t-91 224.5zM375 311q0 -37 28 -65.5t97 -28.5q32 0 79.5 18t71.5 39v142q-60 20 -131 20q-72 0 -108.5 -38.5t-36.5 -86.5zM377 1145l137 342h274 l-184 -342h-227z" />
<glyph unicode="&#xe2;" d="M74 291q0 -142 91 -224.5t224 -82.5q48 0 103.5 9.5t116 37.5t83.5 69q20 -52 60 -81t85 -34.5t96.5 2.5t91 22.5t71.5 31.5v209q-28 -11 -47 -16.5t-36.5 -6t-27.5 7.5t-16 25t-6 45v268q0 98 -23.5 175t-62.5 126.5t-93 82t-112 46t-123 13.5q-112 0 -198.5 -18.5 t-190.5 -57.5v-235q192 63 291 63q101 0 150.5 -36t49.5 -93v-41q-94 29 -205 29q-52 0 -103.5 -13t-100 -40.5t-86 -66t-60 -94.5t-22.5 -122zM180 1145l234 342h256l233 -342h-221l-141 168l-140 -168h-221zM375 311q0 48 36.5 86.5t108.5 38.5q71 0 131 -20v-142 q-24 -21 -71.5 -39t-79.5 -18q-69 0 -97 28.5t-28 65.5z" />
<glyph unicode="&#xe3;" d="M74 291q0 -142 91 -224.5t224 -82.5q48 0 103.5 9.5t116 37.5t83.5 69q20 -52 60 -81t85 -34.5t96.5 2.5t91 22.5t71.5 31.5v209q-28 -11 -47 -16.5t-36.5 -6t-27.5 7.5t-16 25t-6 45v268q0 98 -23.5 175t-62.5 126.5t-93 82t-112 46t-123 13.5q-112 0 -198.5 -18.5 t-190.5 -57.5v-235q192 63 291 63q101 0 150.5 -36t49.5 -93v-41q-94 29 -205 29q-52 0 -103.5 -13t-100 -40.5t-86 -66t-60 -94.5t-22.5 -122zM227 1188q0 124 68 199t174 75q31 0 73.5 -19t76.5 -37.5t67 -28.5t54.5 9.5t29.5 75.5h170q0 -52 -12 -97t-39.5 -87t-81.5 -66 t-129 -24q-29 0 -69.5 18t-73.5 35.5t-65.5 27t-54.5 -9t-30 -71.5h-158zM375 311q0 48 36.5 86.5t108.5 38.5q71 0 131 -20v-142q-24 -21 -71.5 -39t-79.5 -18q-69 0 -97 28.5t-28 65.5z" />
<glyph unicode="&#xe4;" d="M74 291q0 -142 91 -224.5t224 -82.5q48 0 103.5 9.5t116 37.5t83.5 69q20 -52 60 -81t85 -34.5t96.5 2.5t91 22.5t71.5 31.5v209q-28 -11 -47 -16.5t-36.5 -6t-27.5 7.5t-16 25t-6 45v268q0 98 -23.5 175t-62.5 126.5t-93 82t-112 46t-123 13.5q-112 0 -198.5 -18.5 t-190.5 -57.5v-235q192 63 291 63q101 0 150.5 -36t49.5 -93v-41q-94 29 -205 29q-52 0 -103.5 -13t-100 -40.5t-86 -66t-60 -94.5t-22.5 -122zM248 1286q0 70 31 109t114 39q82 0 113 -39t31 -109q0 -145 -144 -145q-145 0 -145 145zM375 311q0 48 36.5 86.5t108.5 38.5 q71 0 131 -20v-142q-24 -21 -71.5 -39t-79.5 -18q-69 0 -97 28.5t-28 65.5zM631 1286q0 70 31 109t114 39q82 0 113 -39t31 -109q0 -145 -144 -145q-145 0 -145 145z" />
<glyph unicode="&#xe5;" d="M74 291q0 66 22.5 122t60 94.5t86 66t100 40.5t103.5 13q111 0 205 -29v41q0 57 -49.5 93t-150.5 36q-99 0 -291 -63v235q104 39 190.5 57.5t198.5 18.5q65 0 123 -13.5t112 -46t93 -82t62.5 -126.5t23.5 -175v-268q0 -28 6 -45t16 -25t27.5 -7.5t36.5 6t47 16.5v-209 q-32 -17 -71.5 -31.5t-91 -22.5t-96.5 -2.5t-85 34.5t-60 81q-23 -41 -83.5 -69t-116 -37.5t-103.5 -9.5q-133 0 -224 82.5t-91 224.5zM324 1331q0 108 57 155.5t149 47.5q93 0 150 -47.5t57 -155.5q0 -105 -58.5 -154t-148.5 -49t-148 49t-58 154zM375 311q0 -37 28 -65.5 t97 -28.5q32 0 79.5 18t71.5 39v142q-60 20 -131 20q-72 0 -108.5 -38.5t-36.5 -86.5zM457 1331q0 -35 21 -53t52 -18q32 0 53 18t21 53q0 72 -74 72q-73 0 -73 -72z" />
<glyph unicode="&#xe6;" horiz-adv-x="1677" d="M74 291q0 66 22.5 122t60 94.5t86 66t100 40.5t103.5 13q117 0 205 -27v39q0 57 -49.5 93t-150.5 36q-99 0 -291 -63v235q104 39 190.5 57.5t198.5 18.5q84 0 160.5 -28.5t126.5 -86.5q127 115 292 115q223 0 349.5 -141.5t126.5 -387.5l-5 -90h-628q3 -32 16.5 -61.5 t41.5 -58.5t80 -46.5t122 -17.5q54 0 148 16t161 33v-217q-120 -33 -207.5 -50t-187.5 -18q-123 0 -223 33.5t-144 106.5q-114 -140 -389 -140q-133 0 -224 85.5t-91 228.5zM375 311q0 -37 28 -65.5t97 -28.5q32 0 79.5 18t71.5 39v138q-54 18 -131 18q-72 0 -108.5 -36 t-36.5 -83zM967 590h323q0 32 -7 61.5t-23.5 59.5t-50.5 48.5t-81 18.5t-80.5 -20t-49.5 -52t-23 -60t-8 -56z" />
<glyph unicode="&#xe7;" horiz-adv-x="1021" d="M76 492q0 97 31 182.5t83.5 147t120 106t141 66.5t146.5 22q160 0 332 -47v-238q-60 14 -135.5 22.5t-118.5 6.5q-73 0 -130 -23t-90 -62t-50 -85t-17 -96q0 -105 77 -183t210 -78q43 -2 118.5 6.5t135.5 22.5v-239q-108 -30 -252 -41q67 -89 67 -191q0 -108 -75 -170 t-205 -49q-117 12 -205 55v168q227 -58 275 -10q70 70 -31 203q-82 15 -157 55.5t-136 102.5t-97.5 152t-37.5 194z" />
<glyph unicode="&#xe8;" horiz-adv-x="1105" d="M80 502q0 119 39.5 218t106 162.5t152.5 98.5t181 35q223 0 349 -141.5t126 -387.5l-4 -90h-629q2 -32 16 -61.5t42 -58.5t80.5 -46.5t122.5 -17.5q54 0 148 16t161 33v-217q-120 -33 -208 -50t-188 -18q-107 0 -195.5 31.5t-156 94.5t-105.5 165t-38 234zM291 1487h274 l137 -342h-227zM397 590h324q0 32 -7 61.5t-23.5 59.5t-50.5 48.5t-81 18.5t-80.5 -20t-50 -52t-23.5 -60t-8 -56z" />
<glyph unicode="&#xe9;" horiz-adv-x="1105" d="M80 502q0 119 39.5 218t106 162.5t152.5 98.5t181 35q223 0 349 -141.5t126 -387.5l-4 -90h-629q2 -32 16 -61.5t42 -58.5t80.5 -46.5t122.5 -17.5q54 0 148 16t161 33v-217q-120 -33 -208 -50t-188 -18q-107 0 -195.5 31.5t-156 94.5t-105.5 165t-38 234zM397 590h324 q0 32 -7 61.5t-23.5 59.5t-50.5 48.5t-81 18.5t-80.5 -20t-50 -52t-23.5 -60t-8 -56zM418 1145l137 342h274l-184 -342h-227z" />
<glyph unicode="&#xea;" horiz-adv-x="1105" d="M80 502q0 119 39.5 218t106 162.5t152.5 98.5t181 35q223 0 349 -141.5t126 -387.5l-4 -90h-629q2 -32 16 -61.5t42 -58.5t80.5 -46.5t122.5 -17.5q54 0 148 16t161 33v-217q-120 -33 -208 -50t-188 -18q-107 0 -195.5 31.5t-156 94.5t-105.5 165t-38 234zM197 1145 l233 342h256l234 -342h-222l-141 168l-139 -168h-221zM397 590h324q0 32 -7 61.5t-23.5 59.5t-50.5 48.5t-81 18.5t-80.5 -20t-50 -52t-23.5 -60t-8 -56z" />
<glyph unicode="&#xeb;" horiz-adv-x="1105" d="M80 502q0 119 39.5 218t106 162.5t152.5 98.5t181 35q223 0 349 -141.5t126 -387.5l-4 -90h-629q2 -32 16 -61.5t42 -58.5t80.5 -46.5t122.5 -17.5q54 0 148 16t161 33v-217q-120 -33 -208 -50t-188 -18q-107 0 -195.5 31.5t-156 94.5t-105.5 165t-38 234zM221 1286 q0 70 31.5 109t114.5 39q82 0 112.5 -39t30.5 -109q0 -145 -143 -145q-146 0 -146 145zM397 590h324q0 32 -7 61.5t-23.5 59.5t-50.5 48.5t-81 18.5t-80.5 -20t-50 -52t-23.5 -60t-8 -56zM604 1286q0 70 31.5 109t114.5 39q82 0 112.5 -39t30.5 -109q0 -145 -143 -145 q-146 0 -146 145z" />
<glyph unicode="&#xec;" horiz-adv-x="575" d="M27 1487h274l137 -342h-227zM135 0v991h305v-991h-305z" />
<glyph unicode="&#xed;" horiz-adv-x="575" d="M135 0v991h305v-991h-305zM137 1145l137 342h275l-184 -342h-228z" />
<glyph unicode="&#xee;" horiz-adv-x="575" d="M-74 1145l234 342h256l233 -342h-221l-141 168l-140 -168h-221zM135 0v991h305v-991h-305z" />
<glyph unicode="&#xef;" horiz-adv-x="575" d="M-49 1286q0 70 31 109t114 39q82 0 113 -39t31 -109q0 -145 -144 -145q-145 0 -145 145zM135 0v991h305v-991h-305zM334 1286q0 70 31 109t114 39q82 0 113 -39t31 -109q0 -145 -144 -145q-145 0 -145 145z" />
<glyph unicode="&#xf0;" horiz-adv-x="1243" d="M78 471q3 104 37 190t86 142t118.5 94.5t133 55t131.5 16.5q122 0 196 -47q-24 56 -70 108.5t-92 87.5l-223 -127v125l133 74q-91 55 -264 86l131 178q193 -11 363 -133l205 125v-125l-117 -74q165 -160 238 -330.5t73 -396.5q0 -168 -72.5 -293t-193.5 -187.5 t-273 -62.5q-73 -2 -146 14t-143 54.5t-124.5 95t-89 142t-37.5 188.5zM381 461q0 -116 66.5 -177t170.5 -61q97 0 165.5 71.5t68.5 184.5q0 108 -69 181t-165 73q-98 0 -167.5 -79t-69.5 -193z" />
<glyph unicode="&#xf1;" horiz-adv-x="1202" d="M135 0v991h285l22 -84q52 51 132 80t135 29q48 0 92 -9t97 -39.5t91 -79.5t64 -138t26 -207v-543h-319v532q0 131 -34.5 186.5t-111.5 55.5q-36 0 -90.5 -18.5t-81.5 -32.5v-723h-307zM246 1188q0 124 67.5 199t173.5 75q31 0 73.5 -19t76.5 -37.5t67 -28.5t54.5 9.5 t29.5 75.5h170q0 -52 -12 -97t-39.5 -87t-81.5 -66t-129 -24q-29 0 -69.5 18t-73.5 35.5t-65.5 27t-54.5 -9t-30 -71.5h-157z" />
<glyph unicode="&#xf2;" horiz-adv-x="1236" d="M78 492q0 -107 33 -196t87.5 -148t125.5 -99.5t145.5 -57t148.5 -14.5q114 0 211.5 33.5t171 97t115 164t41.5 226.5q0 114 -33 204.5t-86 148t-125 96t-145.5 54t-151.5 15.5q-75 2 -149 -15t-144.5 -58t-124.5 -101t-87 -150.5t-33 -199.5zM328 1487h274l137 -342h-227 zM381 500q0 114 69 192t168 78q100 0 168 -76t68 -194q0 -124 -68 -200.5t-168 -76.5t-168.5 78.5t-68.5 198.5z" />
<glyph unicode="&#xf3;" horiz-adv-x="1236" d="M78 492q0 109 33 199.5t87 150.5t124.5 101t144.5 58t149 15q78 0 151.5 -15.5t145.5 -54t125 -96t86 -148t33 -204.5q0 -126 -41.5 -226.5t-115 -164t-171 -97t-211.5 -33.5q-74 -2 -148.5 14.5t-145.5 57t-125.5 99.5t-87.5 148t-33 196zM381 500q0 -120 68.5 -198.5 t168.5 -78.5t168 76.5t68 200.5q0 118 -68 194t-168 76q-99 0 -168 -78t-69 -192zM487 1145l138 342h274l-184 -342h-228z" />
<glyph unicode="&#xf4;" horiz-adv-x="1236" d="M78 492q0 -107 33 -196t87.5 -148t125.5 -99.5t145.5 -57t148.5 -14.5q114 0 211.5 33.5t171 97t115 164t41.5 226.5q0 114 -33 204.5t-86 148t-125 96t-145.5 54t-151.5 15.5q-75 2 -149 -15t-144.5 -58t-124.5 -101t-87 -150.5t-33 -199.5zM256 1145l233 342h256 l234 -342h-221l-142 168l-139 -168h-221zM381 500q0 114 69 192t168 78q100 0 168 -76t68 -194q0 -124 -68 -200.5t-168 -76.5t-168.5 78.5t-68.5 198.5z" />
<glyph unicode="&#xf5;" horiz-adv-x="1236" d="M78 492q0 -107 33 -196t87.5 -148t125.5 -99.5t145.5 -57t148.5 -14.5q114 0 211.5 33.5t171 97t115 164t41.5 226.5q0 114 -33 204.5t-86 148t-125 96t-145.5 54t-151.5 15.5q-75 2 -149 -15t-144.5 -58t-124.5 -101t-87 -150.5t-33 -199.5zM260 1188q0 124 68 199 t174 75q31 0 73.5 -19t76.5 -37.5t67 -28.5t54.5 9.5t29.5 75.5h170q0 -52 -12 -97t-39.5 -87t-81.5 -66t-129 -24q-29 0 -69.5 18t-73.5 35.5t-65.5 27t-54.5 -9t-30 -71.5h-158zM381 500q0 114 69 192t168 78q100 0 168 -76t68 -194q0 -124 -68 -200.5t-168 -76.5 t-168.5 78.5t-68.5 198.5z" />
<glyph unicode="&#xf6;" horiz-adv-x="1236" d="M78 492q0 -107 33 -196t87.5 -148t125.5 -99.5t145.5 -57t148.5 -14.5q114 0 211.5 33.5t171 97t115 164t41.5 226.5q0 114 -33 204.5t-86 148t-125 96t-145.5 54t-151.5 15.5q-75 2 -149 -15t-144.5 -58t-124.5 -101t-87 -150.5t-33 -199.5zM281 1286q0 70 31 109 t114 39q82 0 112.5 -39t30.5 -109q0 -145 -143 -145q-145 0 -145 145zM381 500q0 114 69 192t168 78q100 0 168 -76t68 -194q0 -124 -68 -200.5t-168 -76.5t-168.5 78.5t-68.5 198.5zM664 1286q0 70 31 109t114 39q82 0 112.5 -39t30.5 -109q0 -145 -143 -145 q-145 0 -145 145z" />
<glyph unicode="&#xf7;" horiz-adv-x="1110" d="M100 532v254h910v-254h-910zM412 258q0 70 31 109t114 39q82 0 112.5 -39t30.5 -109q0 -145 -143 -145q-145 0 -145 145zM412 1077q0 70 31 109t114 39q82 0 112.5 -39t30.5 -109q0 -145 -143 -145q-145 0 -145 145z" />
<glyph unicode="&#xf8;" horiz-adv-x="1236" d="M78 492q0 109 33 199.5t87 150.5t124.5 101t144.5 58t149 15q156 0 281 -64l117 144l123 -105l-109 -131q129 -136 129 -362q0 -126 -41.5 -226.5t-115 -164t-171 -97t-211.5 -33.5q-145 -3 -274 60l-127 -158l-125 107l119 147q-133 140 -133 359zM381 500 q0 -76 27 -131l313 376q-48 25 -103 25q-99 0 -168 -78t-69 -192zM518 246q51 -23 100 -23q100 0 168 76.5t68 200.5q0 65 -25 123z" />
<glyph unicode="&#xf9;" horiz-adv-x="1257" d="M123 449v542h319v-532q0 -74 10.5 -122.5t32.5 -74t50 -35.5t69 -10q58 0 156 51v723h307v-686q0 -28 6 -45t16 -25t27.5 -7.5t36.5 6t47 16.5v-209q-32 -17 -71.5 -31.5t-90.5 -22.5t-96 -2.5t-85 34.5t-60 81q-54 -62 -138.5 -92.5t-164.5 -30.5q-33 0 -64 4.5 t-69 17.5t-70.5 34t-64.5 57.5t-54 84.5t-35.5 118.5t-13.5 155.5zM326 1487h274l137 -342h-227z" />
<glyph unicode="&#xfa;" horiz-adv-x="1257" d="M123 449v542h319v-532q0 -74 10.5 -122.5t32.5 -74t50 -35.5t69 -10q58 0 156 51v723h307v-686q0 -28 6 -45t16 -25t27.5 -7.5t36.5 6t47 16.5v-209q-32 -17 -71.5 -31.5t-90.5 -22.5t-96 -2.5t-85 34.5t-60 81q-54 -62 -138.5 -92.5t-164.5 -30.5q-33 0 -64 4.5 t-69 17.5t-70.5 34t-64.5 57.5t-54 84.5t-35.5 118.5t-13.5 155.5zM393 1145l137 342h275l-184 -342h-228z" />
<glyph unicode="&#xfb;" horiz-adv-x="1257" d="M123 449v542h319v-532q0 -74 10.5 -122.5t32.5 -74t50 -35.5t69 -10q58 0 156 51v723h307v-686q0 -28 6 -45t16 -25t27.5 -7.5t36.5 6t47 16.5v-209q-32 -17 -71.5 -31.5t-90.5 -22.5t-96 -2.5t-85 34.5t-60 81q-54 -62 -138.5 -92.5t-164.5 -30.5q-33 0 -64 4.5 t-69 17.5t-70.5 34t-64.5 57.5t-54 84.5t-35.5 118.5t-13.5 155.5zM238 1145l233 342h256l234 -342h-222l-141 168l-139 -168h-221z" />
<glyph unicode="&#xfc;" horiz-adv-x="1257" d="M123 449v542h319v-532q0 -74 10.5 -122.5t32.5 -74t50 -35.5t69 -10q58 0 156 51v723h307v-686q0 -28 6 -45t16 -25t27.5 -7.5t36.5 6t47 16.5v-209q-32 -17 -71.5 -31.5t-90.5 -22.5t-96 -2.5t-85 34.5t-60 81q-54 -62 -138.5 -92.5t-164.5 -30.5q-33 0 -64 4.5 t-69 17.5t-70.5 34t-64.5 57.5t-54 84.5t-35.5 118.5t-13.5 155.5zM264 1286q0 70 31.5 109t114.5 39q82 0 112.5 -39t30.5 -109q0 -145 -143 -145q-146 0 -146 145zM647 1286q0 70 31.5 109t114.5 39q82 0 112.5 -39t30.5 -109q0 -145 -143 -145q-146 0 -146 145z" />
<glyph unicode="&#xfd;" horiz-adv-x="1097" d="M16 991h338l193 -588l196 588h336l-465 -1196q-25 -70 -55 -113t-73.5 -65.5t-92 -29.5t-123.5 -5h-139v246h119q62 0 84 63l59 175zM397 1145l138 342h274l-184 -342h-228z" />
<glyph unicode="&#xfe;" horiz-adv-x="1226" d="M135 -410v1864h307v-489q100 51 234 51q82 0 164 -34.5t151 -96.5t112.5 -161t43.5 -216q0 -91 -19 -168t-50 -130t-73.5 -95.5t-85.5 -67.5t-90 -41.5t-84 -22.5t-69 -6q-132 0 -234 52v-439h-307zM442 264q31 -17 79 -30t89 -13q93 0 166.5 83t73.5 196 q0 111 -65.5 191.5t-178.5 80.5q-84 0 -164 -43v-465z" />
<glyph unicode="&#xff;" horiz-adv-x="1097" d="M16 991h338l193 -588l196 588h336l-465 -1196q-25 -70 -55 -113t-73.5 -65.5t-92 -29.5t-123.5 -5h-139v246h119q62 0 84 63l59 175zM217 1286q0 70 31 109t114 39q82 0 113 -39t31 -109q0 -145 -144 -145q-145 0 -145 145zM600 1286q0 70 31 109t114 39q82 0 113 -39 t31 -109q0 -145 -144 -145q-145 0 -145 145z" />
<glyph unicode="&#x152;" horiz-adv-x="2322" d="M94 700q0 153 43.5 278.5t115.5 208.5t168 140t197 82t207 25q111 0 226 -39t188 -111v127h971v-276h-656v-275h598v-270h-598v-209q0 -105 105 -105h551v-276h-617q-120 3 -207 46t-102 112q-175 -178 -457 -181q-215 0 -381.5 89t-259 253.5t-92.5 380.5zM416 700 q0 -192 114.5 -316t292.5 -124q180 0 296 124t116 316q0 91 -24.5 167t-65.5 127.5t-94.5 87.5t-110.5 52.5t-115 16.5t-115.5 -16.5t-110.5 -52.5t-93.5 -87.5t-65 -127.5t-24.5 -167z" />
<glyph unicode="&#x153;" horiz-adv-x="1886" d="M78 492q0 109 33 199.5t87 150.5t124.5 101t144.5 58t149 15q110 0 214.5 -39.5t175.5 -120.5q127 160 333 160q223 0 349.5 -141.5t126.5 -387.5l-5 -90h-628q3 -32 16.5 -61.5t41.5 -58.5t80 -46.5t122 -17.5q54 0 148 16t161 33v-217q-120 -33 -207.5 -50t-187.5 -18 q-108 0 -205.5 41t-151.5 113q-65 -75 -165.5 -114.5t-215.5 -39.5q-74 -2 -148.5 14.5t-145.5 57t-125.5 99.5t-87.5 148t-33 196zM381 500q0 -120 68.5 -198.5t168.5 -78.5t168 76.5t68 200.5q0 118 -68 194t-168 76q-99 0 -168 -78t-69 -192zM1178 590h323q0 32 -7 61.5 t-23.5 59.5t-50.5 48.5t-81 18.5t-80.5 -20t-49.5 -52t-23 -60t-8 -56z" />
<glyph unicode="&#x178;" horiz-adv-x="1265" d="M4 1411h369l260 -520l258 520h369l-465 -809v-602h-322v602zM295 1706q0 70 31 108.5t114 38.5t113.5 -38.5t30.5 -108.5q0 -145 -144 -145q-145 0 -145 145zM678 1706q0 70 31 108.5t114 38.5t113.5 -38.5t30.5 -108.5q0 -145 -144 -145q-145 0 -145 145z" />
<glyph unicode="&#x2c6;" horiz-adv-x="1153" d="M215 1145l234 342h256l233 -342h-221l-142 168l-139 -168h-221z" />
<glyph unicode="&#x2dc;" horiz-adv-x="1040" d="M164 1188q0 124 68 199t174 75q31 0 73.5 -19t76.5 -37.5t67 -28.5t54.5 9.5t29.5 75.5h170q0 -41 -7 -77.5t-25 -73.5t-47 -63.5t-76 -43t-108 -16.5q-29 0 -69.5 18t-73.5 35.5t-65 27t-54 -9t-30 -71.5h-158z" />
<glyph unicode="&#x2000;" horiz-adv-x="977" />
<glyph unicode="&#x2001;" horiz-adv-x="1954" />
<glyph unicode="&#x2002;" horiz-adv-x="977" />
<glyph unicode="&#x2003;" horiz-adv-x="1954" />
<glyph unicode="&#x2004;" horiz-adv-x="651" />
<glyph unicode="&#x2005;" horiz-adv-x="488" />
<glyph unicode="&#x2006;" horiz-adv-x="325" />
<glyph unicode="&#x2007;" horiz-adv-x="325" />
<glyph unicode="&#x2008;" horiz-adv-x="244" />
<glyph unicode="&#x2009;" horiz-adv-x="390" />
<glyph unicode="&#x200a;" horiz-adv-x="108" />
<glyph unicode="&#x2010;" horiz-adv-x="923" d="M117 455v243h690v-243h-690z" />
<glyph unicode="&#x2011;" horiz-adv-x="923" d="M117 455v243h690v-243h-690z" />
<glyph unicode="&#x2012;" horiz-adv-x="923" d="M117 455v243h690v-243h-690z" />
<glyph unicode="&#x2013;" horiz-adv-x="1196" d="M121 455v215h954v-215h-954z" />
<glyph unicode="&#x2014;" horiz-adv-x="1636" d="M121 455v215h1395v-215h-1395z" />
<glyph unicode="&#x2018;" horiz-adv-x="536" d="M76 1016l186 418h217l-121 -418h-282z" />
<glyph unicode="&#x2019;" horiz-adv-x="524" d="M84 1016l121 418h282l-186 -418h-217z" />
<glyph unicode="&#x201a;" horiz-adv-x="528" d="M33 -174l121 418h282l-186 -418h-217z" />
<glyph unicode="&#x201c;" horiz-adv-x="933" d="M74 1016l200 418h228l-129 -418h-299zM477 1016l158 418h227l-86 -418h-299z" />
<glyph unicode="&#x201d;" horiz-adv-x="911" d="M90 1016l86 418h299l-158 -418h-227zM451 1016l129 418h299l-201 -418h-227z" />
<glyph unicode="&#x201e;" horiz-adv-x="935" d="M57 -174l86 418h299l-157 -418h-228zM418 -174l129 418h299l-201 -418h-227z" />
<glyph unicode="&#x2022;" horiz-adv-x="823" d="M111 526q0 68 12.5 118.5t44.5 94t93 66t151 22.5t151 -22.5t93 -66t44.5 -94t12.5 -118.5q0 -53 -8.5 -96t-29.5 -82t-54.5 -65.5t-86 -42t-122.5 -15.5t-122.5 15.5t-86 42t-54.5 65.5t-29.5 82t-8.5 96z" />
<glyph unicode="&#x2026;" horiz-adv-x="1689" d="M96 133q0 74 35.5 116t126.5 42t125.5 -41.5t34.5 -116.5q0 -156 -160 -156q-162 0 -162 156zM684 133q0 74 35.5 116t126.5 42t125.5 -41.5t34.5 -116.5q0 -156 -160 -156q-162 0 -162 156zM1272 133q0 74 35.5 116t126.5 42t125 -41.5t34 -116.5q0 -156 -159 -156 q-162 0 -162 156z" />
<glyph unicode="&#x202f;" horiz-adv-x="390" />
<glyph unicode="&#x2039;" horiz-adv-x="700" d="M66 506l282 424h281l-283 -424l283 -424h-281z" />
<glyph unicode="&#x203a;" horiz-adv-x="700" d="M72 82l282 424l-282 424h280l283 -424l-283 -424h-280z" />
<glyph unicode="&#x205f;" horiz-adv-x="488" />
<glyph unicode="&#x20ac;" horiz-adv-x="1384" d="M92 475v152h225q-2 25 -2 75v27h-223v152h240q33 172 128.5 299t226.5 190.5t280 63.5q140 0 297 -25v-279q-118 13 -250 13t-223.5 -69t-128.5 -193h380v-152h-403v-27q0 -25 4 -75h399v-152h-360q45 -100 129.5 -153.5t202.5 -53.5q134 0 250 11v-277 q-157 -25 -297 -25q-142 0 -267.5 57t-221 171t-136.5 270h-250z" />
<glyph unicode="&#x2122;" horiz-adv-x="1650" d="M123 924v129h762l200 -467l201 467h170l51 -727h-157l-31 485l-176 -399h-117l-174 395l-31 -481h-159l45 598h-201v-598h-160v598h-223z" />
<glyph unicode="&#xe000;" horiz-adv-x="993" d="M0 0v993h993v-993h-993z" />
</font>
</defs>
</svg>
