<?xml version="1.0" standalone="no"?>
<!DOCTYPE svg PUBLIC "-//W3C//DTD SVG 1.1//EN" "http://www.w3.org/Graphics/SVG/1.1/DTD/svg11.dtd" >
<svg xmlns="http://www.w3.org/2000/svg">
<metadata></metadata>
<defs>
<font id="kyrial_display_proBlkIt" horiz-adv-x="1261" >
<font-face units-per-em="2048" ascent="1536" descent="-512" />
<missing-glyph horiz-adv-x="409" />
<glyph unicode="&#xfb01;" horiz-adv-x="1439" d="M-150 -410l44 271h225q55 0 67 63l131 824h-147l39 243h147l23 127q8 55 24.5 100t36 78t48.5 58.5t53.5 42t61.5 28t61.5 17t64.5 8.5t60 3.5t57 0.5h244l-43 -270h-230q-56 0 -65 -64l-23 -129h752l-156 -991h-369l117 748h-383l-131 -822q-9 -55 -25.5 -100t-36 -78 t-48.5 -58.5t-54 -42t-62 -28t-61.5 -17t-64.5 -8.5t-60 -3.5t-57 -0.5h-240zM1149 1284q14 82 61.5 126t157.5 44t145.5 -44.5t22.5 -125.5q-28 -170 -221 -170q-194 0 -166 170z" />
<glyph unicode="&#xfb02;" horiz-adv-x="1542" d="M-150 -410l44 271h225q55 0 67 63l131 824h-147l39 243h147l23 127q8 55 24.5 100t36 78t48.5 58.5t53.5 42t61.5 28t61.5 17t64.5 8.5t60 3.5t57 0.5h244l-43 -270h-230q-56 0 -65 -64l-23 -129h234l-39 -243h-234l-131 -822q-9 -55 -25.5 -100t-36 -78t-48.5 -58.5 t-54 -42t-62 -28t-61.5 -17t-64.5 -8.5t-60 -3.5t-57 -0.5h-240zM993 202q0 -49 17.5 -84.5t44 -60t70.5 -39t97.5 -20.5t125.5 -6h165l43 278h-135q-27 0 -39.5 14t-11 30.5t1.5 29.5l176 1110h-366l-181 -1139q-8 -64 -8 -113z" />
<glyph unicode="&#xfb03;" horiz-adv-x="2281" d="M-150 -410l44 271h225q58 0 67 63l133 824h-149l39 243h149l21 127q9 55 25.5 100t36 78t48.5 58.5t53.5 42t61 28t61.5 17t64.5 8.5t59.5 3.5t57 0.5h244l-43 -270h-230q-56 0 -65 -64l-23 -129h471l21 127q9 55 25.5 100t36 78t48.5 58.5t53.5 42t61 28t61.5 17 t64.5 8.5t59.5 3.5t57 0.5h243l-43 -270h-229q-57 0 -66 -64l-22 -129h751l-155 -991h-369l117 748h-383l-131 -822q-9 -55 -25.5 -100t-36 -78t-48.5 -58.5t-54 -42t-62 -28t-61.5 -17t-64.5 -8.5t-60 -3.5t-57 -0.5h-244l43 271h230q58 0 67 63l133 824h-471l-131 -822 q-9 -55 -25.5 -100t-36 -78t-48.5 -58.5t-54 -42t-62 -28t-61.5 -17t-64.5 -8.5t-60 -3.5t-57 -0.5h-240zM1991 1284q14 82 61.5 126t157.5 44t145.5 -44.5t22.5 -125.5q-28 -170 -221 -170q-194 0 -166 170z" />
<glyph unicode="&#xfb04;" horiz-adv-x="2383" d="M-150 -410l44 271h225q58 0 67 63l133 824h-149l39 243h149l21 127q9 55 25.5 100t36 78t48.5 58.5t53.5 42t61 28t61.5 17t64.5 8.5t59.5 3.5t57 0.5h244l-43 -270h-230q-56 0 -65 -64l-23 -129h471l21 127q9 55 25.5 100t36 78t48.5 58.5t53.5 42t61 28t61.5 17 t64.5 8.5t59.5 3.5t57 0.5h335h367l-176 -1110q-13 -74 49 -74h135l-43 -278h-166q-72 0 -125.5 6t-97.5 20.5t-70 39t-43.5 60t-17.5 84.5t8 113l137 869h-321q-57 0 -66 -64l-22 -129h233l-39 -243h-233l-131 -822q-9 -55 -25.5 -100t-36 -78t-48.5 -58.5t-54 -42t-62 -28 t-61.5 -17t-64.5 -8.5t-60 -3.5t-57 -0.5h-244l43 271h230q58 0 67 63l133 824h-471l-131 -822q-9 -55 -25.5 -100t-36 -78t-48.5 -58.5t-54 -42t-62 -28t-61.5 -17t-64.5 -8.5t-60 -3.5t-57 -0.5h-240z" />
<glyph horiz-adv-x="2048" />
<glyph horiz-adv-x="2048" />
<glyph unicode="&#xd;" horiz-adv-x="2048" />
<glyph unicode=" "  horiz-adv-x="409" />
<glyph unicode="&#x09;" horiz-adv-x="409" />
<glyph unicode="&#xa0;" horiz-adv-x="409" />
<glyph unicode="!" horiz-adv-x="602" d="M129 147q12 81 62.5 126.5t160.5 45.5q109 0 142.5 -45t21.5 -127q-25 -170 -219 -170q-193 0 -168 170zM233 416l41 614l62 381h377l-62 -381l-149 -614h-269z" />
<glyph unicode="&#x22;" horiz-adv-x="866" d="M260 776l19 426l32 209h295l-33 -209l-118 -426h-195zM657 776l19 426l33 209h295l-33 -209l-119 -426h-195z" />
<glyph unicode="#" horiz-adv-x="1570" d="M121 305l102 254h240l92 232h-240l99 253h239l142 367h284l-143 -367h211l143 367h285l-143 -367h229l-98 -253h-230l-92 -232h229l-102 -254h-229l-119 -305h-285l119 305h-211l-119 -305h-282l118 305h-239zM745 559h211l93 232h-211z" />
<glyph unicode="$" horiz-adv-x="1277" d="M125 94l53 322q88 -52 229.5 -91.5t245.5 -39.5q87 0 138 25.5t71 84.5q4 12 4 23t-4 20.5t-10 18.5t-17 17t-22 15t-27 14.5t-30.5 13.5t-34.5 12.5t-36 11.5t-38 12l-108 39q-69 21 -122 53t-83.5 64.5t-50.5 73t-27.5 70.5t-9 66t0 49.5t3.5 30.5q27 169 171 284.5 t372 141.5l34 201h140l-33 -192q107 -3 230 -33t188 -70l-47 -297q-252 92 -439 92q-100 0 -156.5 -35t-64.5 -90q-1 -3 -1.5 -7.5t1.5 -17t8 -23.5t21 -23.5t37 -20.5l69 -22q61 -19 100.5 -32.5t91 -33.5t84.5 -37.5t71.5 -42t60.5 -49t43 -57t28 -68t6.5 -80t-12.5 -94.5 q-26 -106 -76 -183t-122.5 -124.5t-157.5 -72t-192 -31.5l-35 -222h-140l33 220q-118 4 -237 35.5t-201 78.5z" />
<glyph unicode="%" horiz-adv-x="1708" d="M178 0l1352 1411h184l-1352 -1411h-184zM252 1096q12 71 43 129.5t72.5 97t92.5 64.5t102 37t102 10q69 0 126 -16.5t103.5 -53t66.5 -104t5 -160.5q-27 -164 -136.5 -250t-271.5 -86q-65 -2 -123.5 16.5t-105.5 56.5t-68.5 105t-7.5 154zM489 1100q-9 -61 16 -95t83 -34 q56 0 93 34t46 95q9 59 -16 92t-80 33q-58 0 -95.5 -33.5t-46.5 -91.5zM967 309q11 71 41.5 129.5t72 97t92 64.5t101.5 37t102 10q69 0 126 -16.5t103.5 -53t66.5 -104t5 -160.5q-27 -164 -137 -250t-272 -86q-51 -1 -98.5 9.5t-89.5 36t-71 63.5t-41 95.5t-1 127.5z M1202 313q-9 -61 17 -95t84 -34q56 0 92 34t45 95q8 59 -17 92t-80 33q-58 0 -95 -33.5t-46 -91.5z" />
<glyph unicode="&#x26;" horiz-adv-x="1406" d="M166 375q2 9 3.5 17t11 36t21 52t33 57.5t47.5 60.5t65 53.5t85 42.5q-56 21 -93.5 62t-51.5 81.5t-18.5 84t-2.5 65t4 29.5q36 185 191.5 291t406.5 106q93 0 217 -24t175 -48l-46 -274q-82 24 -148.5 36.5t-99.5 14.5t-79 2q-125 0 -187 -36t-75 -121q2 -1 -0.5 -9.5 t3 -25t14 -33t32 -34t57.5 -27.5h789l-41 -273h-248l-70 -418q-121 -89 -260.5 -127.5t-259.5 -38.5q-251 0 -374 107.5t-101 290.5zM522 422q-13 -90 34 -130t159 -40q39 0 86 10t73 23l48 276h-242q-39 -10 -70 -28.5t-47 -37t-26 -35.5t-13 -28z" />
<glyph unicode="'" horiz-adv-x="468" d="M260 776l19 426l32 209h295l-33 -209l-118 -426h-195z" />
<glyph unicode="(" horiz-adv-x="811" d="M126.5 186.5q-16.5 143.5 10.5 317.5l2 8q27 168 90.5 316t149 255t188.5 185t211 116.5t213 38.5l-33 -217q-63 -12 -121.5 -41.5t-118.5 -85t-109 -131.5t-89.5 -189t-62.5 -251q-25 -142 -18.5 -253t29 -190.5t65.5 -134.5t92 -85.5t108 -43.5l-33 -215 q-105 0 -201 40t-174 116.5t-130 188.5t-68.5 255.5z" />
<glyph unicode=")" horiz-adv-x="811" d="M-20 -414l28 215q81 16 155 62t144 127t124 213.5t81 304.5q25 141 18.5 251t-29 188.5t-66 132.5t-93 84t-109.5 42l35 217q105 0 201 -39.5t174 -115t130 -186t68.5 -253.5t-10.5 -317l-2 -8q-45 -208 -136 -383.5t-206 -291t-246.5 -179.5t-260.5 -64z" />
<glyph unicode="*" horiz-adv-x="1005" d="M233 889l43 258l224 -23l-107 185l242 131l57 -230l131 230l201 -129l-174 -187l248 23l-43 -258l-238 20l113 -184l-244 -129l-55 233l-131 -231l-199 127l166 184z" />
<glyph unicode="+" horiz-adv-x="1138" d="M158 481l47 283h321l49 313h328l-49 -313h322l-48 -283h-321l-49 -315h-328l49 315h-321z" />
<glyph unicode="," horiz-adv-x="583" d="M-117 -311l299 528h355l-390 -528h-264z" />
<glyph unicode="-" horiz-adv-x="1003" d="M168 428l43 274h803l-43 -274h-803z" />
<glyph unicode="." horiz-adv-x="538" d="M96 147q12 81 62.5 126.5t160.5 45.5q109 0 142.5 -45t21.5 -127q-25 -170 -219 -170q-193 0 -168 170z" />
<glyph unicode="/" horiz-adv-x="993" d="M57 0l813 1411h289l-811 -1411h-291z" />
<glyph unicode="0" horiz-adv-x="1335" d="M193 696q24 151 78.5 275t124.5 205.5t155 137.5t170 80.5t170 24.5q87 0 164.5 -25t146.5 -79t112 -139t60 -204.5t-10 -275.5q-35 -216 -133.5 -379t-246 -251.5t-322.5 -88.5q-264 0 -392.5 196.5t-76.5 522.5zM555 696q-29 -184 16.5 -303t141.5 -119q94 0 178 119.5 t113 302.5q32 208 -20.5 316t-139.5 108q-39 0 -80.5 -25t-82.5 -73.5t-75 -133t-51 -192.5z" />
<glyph unicode="1" horiz-adv-x="974" d="M94 0l41 272h234l131 809l-248 -98l45 272l365 156h266l-183 -1139h232l-41 -272h-842z" />
<glyph unicode="2" horiz-adv-x="1206" d="M59 0l31 207l653 575q64 56 100 103.5t43 68.5t11 50q7 49 -36.5 91t-145.5 42q-150 0 -422 -99l45 277q222 119 469 119q264 0 381 -115t84 -315q-3 -20 -9.5 -41t-28.5 -65.5t-55 -90t-95.5 -110.5t-143.5 -132l-324 -266h541l-47 -299h-1051z" />
<glyph unicode="3" horiz-adv-x="1155" d="M92 59l43 273q223 -80 367 -80q128 0 195.5 44t80.5 136q1 5 1 12.5t-3.5 28.5t-13 38t-33.5 34.5t-59 25.5h-291l41 265h278q37 9 65.5 27t43.5 37t24.5 36.5t12.5 29.5l2 11q14 87 -34.5 126.5t-172.5 39.5q-149 0 -348 -72l43 277q65 25 195 52t223 27 q232 0 350.5 -101.5t118.5 -295.5q0 -7 -5 -29.5t-22.5 -64t-43.5 -82t-75 -82.5t-110 -67q54 -22 89.5 -63t48 -81t16 -83t1.5 -64t-4 -29q-36 -185 -193 -296.5t-405 -111.5q-96 0 -235.5 28.5t-190.5 53.5z" />
<glyph unicode="4" horiz-adv-x="1308" d="M84 309l33 213l801 889h335l-131 -817h224l-43 -285h-224l-49 -309h-375l50 309h-621zM516 594h232l53 319z" />
<glyph unicode="5" horiz-adv-x="1212" d="M92 78l82 287q236 -80 418 -80q98 0 165.5 47t78.5 114q3 19 4.5 38t-5 49.5t-23 52.5t-54.5 38.5t-94 16.5h-451l193 770h888l-47 -297h-579l-43 -178h159q80 0 146.5 -15.5t113 -42.5t81 -65.5t54.5 -82.5t29.5 -95.5t9 -102.5t-9.5 -106q-38 -189 -208.5 -319 t-413.5 -130q-99 0 -240.5 27t-253.5 74z" />
<glyph unicode="6" horiz-adv-x="1306" d="M178 606q62 385 278 606.5t535 221.5q115 0 194 -13.5t173 -48.5l-43 -272q-29 10 -59 17.5t-52.5 12.5t-50 8.5t-43 5t-41 2.5t-34 1h-32.5h-26q-75 0 -151 -36t-140.5 -113t-87.5 -179q95 135 320 135q112 0 196 -41t129.5 -109.5t62 -154t1.5 -178.5 q-37 -227 -207 -360.5t-436 -133.5q-270 0 -401.5 166t-84.5 463zM553 473q-16 -97 32 -147t130 -52q80 2 144.5 52.5t80.5 146.5q13 80 -30 137.5t-132 57.5q-88 0 -150 -58t-75 -137z" />
<glyph unicode="7" horiz-adv-x="1097" d="M84 0l745 1116h-589l47 295h1007l-37 -229l-753 -1182h-420z" />
<glyph unicode="8" horiz-adv-x="1290" d="M127 375l5.5 22t9 32t15 42.5t22.5 46.5t31.5 51t41.5 48.5t53 47.5t65.5 39t80.5 31q-39 15 -68.5 41t-45 53t-24.5 60t-11 58.5t-1 53t3 37.5t3 17q42 174 195 276t399 103h27q245 -1 353.5 -103t78.5 -276q-2 -10 -8 -30.5t-27.5 -64.5t-50 -83.5t-80 -80 t-113.5 -61.5q47 -15 82 -41.5t54 -54.5t30 -63.5t13.5 -63.5t0 -60t-5 -47t-6.5 -30q-37 -181 -205 -289t-426 -109h-26q-258 1 -380 109t-85 289zM492 410q-15 -71 28 -116.5t137 -45.5q91 0 154 45.5t78 116.5q5 24 5.5 46t-6.5 48.5t-24 46t-51.5 32.5t-83.5 13t-89 -13 t-65 -32.5t-43 -46t-26.5 -48.5t-13.5 -46zM651 1016q-13 -60 24.5 -104t117.5 -44q82 0 137.5 43.5t68.5 104.5q4 20 5.5 38t-3.5 44t-18.5 44.5t-44.5 32t-76 13.5t-82 -13.5t-58.5 -32t-37.5 -44t-22.5 -44.5t-10.5 -38z" />
<glyph unicode="9" horiz-adv-x="1308" d="M174 39l43 272q29 -10 58.5 -17.5t52 -12.5t50 -8.5t43 -5t41.5 -2.5t34.5 -1h32.5h26q75 0 151.5 36t141 113t88.5 179q-101 -135 -322 -135q-112 0 -196.5 41t-130 109.5t-62.5 154t-2 178.5q36 227 206 360.5t437 133.5q270 0 402.5 -166t85.5 -463 q-62 -385 -279 -606.5t-536 -221.5q-114 0 -192 13.5t-173 48.5zM592 938q-13 -80 30 -137.5t132 -57.5q88 0 150 58t75 137q16 96 -33 146.5t-131 52.5q-79 -2 -143 -52.5t-80 -146.5z" />
<glyph unicode=":" horiz-adv-x="587" d="M121 147q12 81 62.5 126.5t160.5 45.5q109 0 142.5 -45t21.5 -127q-25 -170 -219 -170q-193 0 -168 170zM231 844q25 172 226 172q109 0 141 -44.5t20 -127.5q-25 -170 -219 -170q-193 0 -168 170z" />
<glyph unicode=";" horiz-adv-x="626" d="M-115 -311h265l389 528h-355zM272 848q12 80 63 126t161 46q109 0 142 -45t21 -127q-25 -170 -217 -170q-195 0 -170 170z" />
<glyph unicode="&#x3c;" horiz-adv-x="1501" d="M154 479l34 201l1362 477l-51 -311l-835 -264l751 -269l-51 -311z" />
<glyph unicode="=" horiz-adv-x="1232" d="M154 266l43 266h1003l-43 -266h-1003zM227 725l43 266h1004l-43 -266h-1004z" />
<glyph unicode="&#x3e;" horiz-adv-x="1503" d="M133 2l51 311l838 269l-754 264l51 311l1211 -477l-33 -201z" />
<glyph unicode="?" horiz-adv-x="1075" d="M221 147q12 81 62.5 126.5t160.5 45.5q109 0 142.5 -45t21.5 -127q-25 -170 -219 -170q-193 0 -168 170zM285 1053l10 264q184 105 399 117q119 7 214.5 -22t154.5 -84.5t85 -133t11 -166.5q-19 -100 -53 -165q-89 -171 -307 -257q-12 -5 -45.5 -18t-45 -19.5t-31.5 -20 t-29 -32t-13 -43.5l-10 -59h-332l6 35q8 48 12.5 70.5t15 61.5t21.5 60t31 51.5t45.5 51t62.5 43.5t84 42q7 3 29.5 12t33.5 14t33 16t34.5 19.5t30 23.5t27.5 30t19 35t13 43q8 56 -26.5 94.5t-113.5 38.5q-158 0 -366 -102z" />
<glyph unicode="@" horiz-adv-x="2162" d="M155.5 293.5q-4.5 102.5 10.5 212.5q24 150 99 291.5t187.5 255t251 199.5t299.5 133t322 47q100 0 190.5 -12.5t164.5 -35.5t139.5 -55t115.5 -71.5t93 -85t71 -95t49.5 -102t29.5 -106t10.5 -106.5t-7.5 -104q-17 -107 -52.5 -199t-80.5 -159.5t-101.5 -121.5 t-115 -88.5t-122 -58t-121 -33t-113.5 -9.5q-110 0 -176 53t-66 119q-33 -41 -119.5 -76t-163.5 -35q-40 0 -82.5 9t-89.5 28.5t-82.5 55.5t-58 85t-18.5 123.5t38 163.5q40 103 111 190t152.5 142t164.5 85t154 30q130 0 201 -74l43 74h231l-205 -547q-95 -246 21 -246 q41 0 91.5 13t111.5 47t113 85t95 136t60 190q20 119 -11.5 222t-100.5 176t-165.5 125.5t-205 78t-220.5 25.5q-159 0 -319 -61t-287 -163.5t-217 -243.5t-115 -294q-27 -166 14 -308.5t137.5 -243t248 -157.5t338.5 -57q453 0 825 258l-29 -178q-149 -117 -381 -183.5 t-456 -66.5q-136 0 -257 25t-216.5 71.5t-174.5 111.5t-130.5 145.5t-85 174t-38 196zM889 377q12 -53 50 -79t89 -26q97 0 180 52l140 387q-57 39 -129 39q-96 0 -176 -70t-128 -170q-38 -80 -26 -133z" />
<glyph unicode="A" horiz-adv-x="1394" d="M6 0q190 416 353 731.5t393 679.5h338q114 -362 176.5 -674.5t122.5 -736.5h-394q-24 251 -37 362h-411q-73 -166 -148 -362h-393zM674 641h250q-25 165 -64 379q-113 -222 -186 -379z" />
<glyph unicode="B" horiz-adv-x="1361" d="M147 0l224 1411h651q47 0 96.5 -10.5t105 -39.5t95 -73t59.5 -120q11 -43 10 -93q0 -38 -6 -80q-5 -31 -19.5 -66t-40 -74.5t-68.5 -71t-97 -44.5q113 -17 165 -109q39 -68 39 -148q0 -27 -5 -56q-34 -216 -187.5 -321t-392.5 -105h-629zM590 305h233q48 0 85.5 34 t47.5 93q3 19 3 35q1 45 -21 69q-30 34 -74 33h-231zM676 842h176q55 0 89 38.5t44 96.5q2 15 2 28q-1 39 -19 65q-26 36 -75 36h-176z" />
<glyph unicode="C" horiz-adv-x="1384" d="M184 451q-11 57 -11 120.5t11 133.5q22 135 82.5 253.5t144.5 204.5t186.5 148t212 92.5t216.5 30.5q137 0 273 -17t214 -41l-47 -297q-63 9 -115.5 15t-84 9.5t-67 5t-46.5 1.5h-43.5h-38.5q-201 0 -331 -107t-162 -294q-6 -43 -6 -81q0 -132 74 -216q96 -109 296 -109 h38.5h43.5t47.5 1.5t68.5 5t86 9.5t120 15l-50 -297q-87 -24 -226 -40.5t-277 -16.5q-108 0 -207.5 31t-182.5 90.5t-140 147.5t-79 202z" />
<glyph unicode="D" horiz-adv-x="1476" d="M147 0l224 1411h555q137 0 254 -46t201 -132q84 -85 120 -223q20 -77 20 -165q0 -68 -12 -143q-22 -139 -78.5 -255t-135 -197.5t-176 -138.5t-202.5 -84t-215 -27h-555zM588 309h86q183 0 294 101.5t140 291.5q8 54 8 102q0 120 -54 194q-76 104 -263 104h-86z" />
<glyph unicode="E" horiz-adv-x="1280" d="M193 324l172 1087h1040l-47 -309h-649l-39 -225h592l-45 -304h-592l-31 -184q-3 -14 -3 -25q0 -55 60 -55h580l-49 -309h-656q-204 6 -282 76q-57 52 -58 164q0 38 7 84z" />
<glyph unicode="F" horiz-adv-x="1144" d="M147 0l224 1411h932l-50 -309h-538l-37 -225h498l-48 -304h-497l-90 -573h-394z" />
<glyph unicode="G" horiz-adv-x="1503" d="M184 702q28 170 114 310t208.5 231t271.5 141t307 50q223 0 474 -64l-52 -307q-62 10 -112.5 17t-89.5 11.5t-63.5 7.5t-50.5 4t-34 1h-30.5h-24.5h-21q-194 0 -330 -108.5t-165 -293.5q-7 -43 -7 -82q0 -126 70 -207q91 -106 246 -106q68 0 170 17l35 206h-336l45 283 h719l-115 -709q-172 -72 -318 -99.5t-300 -27.5q-108 0 -207.5 29.5t-183 90t-140.5 145.5t-80 204q-11 59 -11 124q0 64 11 132z" />
<glyph unicode="H" horiz-adv-x="1499" d="M147 0l224 1411h395l-84 -526h414l84 526h395l-223 -1411h-396l93 584h-414l-92 -584h-396z" />
<glyph unicode="I" horiz-adv-x="686" d="M147 0l224 1411h391l-223 -1411h-392z" />
<glyph unicode="J" horiz-adv-x="727" d="M-309 -395l47 291q152 -27 276 -27q74 0 122 56.5t69 193.5l207 1292h391l-211 -1329q-82 -508 -615 -508q-85 0 -286 31z" />
<glyph unicode="K" horiz-adv-x="1355" d="M147 0l224 1411h393l-59 -387q180 146 364 387h426q-80 -143 -298.5 -370.5t-389.5 -340.5q85 -75 144 -132t140.5 -145.5t157.5 -194t146 -228.5h-475q-138 233 -320 379l-59 -379h-394z" />
<glyph unicode="L" horiz-adv-x="1124" d="M193 324l172 1087h391l-160 -1016q-3 -14 -3 -27q0 -59 62 -59h490l-49 -309h-570q-205 6 -282 76q-58 53 -58 165q0 38 7 83z" />
<glyph unicode="M" horiz-adv-x="1916" d="M100 0l342 1411h351q177 -431 256 -840q203 403 522 840h350l-104 -1411h-390l66 748q-21 -30 -42 -61t-44 -68t-39.5 -63.5t-42.5 -71.5t-39 -66.5t-42.5 -74t-38.5 -69t-42.5 -76.5t-40.5 -73h-295q-86 412 -170 623l-168 -748h-389z" />
<glyph unicode="N" horiz-adv-x="1482" d="M147 0l224 1411h368q256 -508 314 -713l112 713h394l-224 -1411h-368q4 0 -27 115t-105 315t-165 373l-127 -803h-396z" />
<glyph unicode="O" horiz-adv-x="1685" d="M186 705q24 153 90 278t154.5 207.5t198.5 138.5t219.5 80.5t220.5 24.5q110 0 212 -24.5t194 -80.5t154.5 -138.5t88.5 -207.5q14 -65 13 -138q0 -67 -11 -140q-20 -128 -69.5 -237t-118.5 -187t-152.5 -137.5t-176 -95.5t-184.5 -53.5t-183 -17.5q-111 0 -213 24.5 t-193.5 80.5t-153.5 138t-88 207q-13 64 -14 136q0 68 12 142zM578 705q-8 -47 -8 -88q0 -53 12 -97q21 -80 69.5 -126t108.5 -68.5t129 -22.5q68 0 135 22.5t130 68.5t109.5 126.5t63.5 184.5q8 47 8 87q0 34 -6 66q-13 66 -42 114t-74 78t-94 44t-103 14q-68 0 -135.5 -23 t-130.5 -69t-109 -126.5t-63 -184.5z" />
<glyph unicode="P" horiz-adv-x="1294" d="M147 0l224 1411h639q59 0 119.5 -17t115.5 -54t95 -88.5t58 -125.5q10 -41 9 -87q0 -36 -6 -74q-15 -93 -50.5 -168.5t-84 -124.5t-102 -84.5t-112 -53.5t-106.5 -26t-92 -8h-238l-75 -500h-394zM670 811h174q58 0 108 41t60 106q3 15 3 29q0 46 -29 76q-37 39 -97 39 h-174z" />
<glyph unicode="Q" horiz-adv-x="1681" d="M182 700q24 153 90 278.5t154.5 208.5t198 140t219.5 82t221 25q110 0 212 -25t194.5 -82t155.5 -140t89 -209q14 -65 14 -137q0 -68 -12 -141q-44 -274 -227 -459.5t-449 -240.5q7 -34 41.5 -68t96.5 -34q106 0 278 43l-41 -256q-63 -26 -151 -41t-164 -15 q-115 0 -211.5 44t-154.5 127q-56 81 -56 183v7q-262 52 -402 243q-106 146 -106 342q0 60 10 125zM575 700q-7 -44 -7 -83q0 -123 66 -209q86 -115 249 -115q165 0 289.5 114.5t152.5 292.5q7 45 7 86q0 54 -12 101q-21 83 -68.5 132t-108 74t-127.5 25q-68 0 -136.5 -25 t-131.5 -74t-110 -132t-63 -187z" />
<glyph unicode="R" horiz-adv-x="1378" d="M147 0l224 1411h614q80 0 148.5 -17.5t123 -53t90 -89t48.5 -125.5q6 -33 6 -70q0 -43 -8 -91q-15 -90 -54 -164t-91.5 -121t-108 -75t-111.5 -38q19 -4 37 -18.5t25.5 -26t9.5 -16.5q147 -221 266 -506h-424q-93 219 -233 457q-1 1 -9.5 15.5t-13.5 20.5t-15 13.5 t-20 7.5h-30l-80 -514h-394zM664 811h174q58 0 108 41t60 106q3 15 3 29q0 46 -29 76q-37 39 -97 39h-174z" />
<glyph unicode="S" d="M119 94l53 322q88 -52 229.5 -91.5t245.5 -39.5q87 0 138 25.5t71 84.5q4 12 4 23t-4 20.5t-10 18.5t-17 17t-22 15t-27 14.5t-30.5 13.5t-34.5 12.5t-36 11.5t-38 12l-109 39q-69 21 -122 53t-83.5 64.5t-50.5 73.5t-27.5 70.5t-8.5 65.5t0 49.5t4 30.5 q32 193 209.5 314t457.5 121q106 0 237.5 -30.5t197.5 -72.5l-48 -297q-252 92 -438 92q-100 0 -156.5 -35t-64.5 -90q-1 -3 -1.5 -7.5t1.5 -17.5t8 -24t21 -23.5t37 -19.5l69 -22q61 -19 100.5 -32.5t91 -33.5t84.5 -37.5t71.5 -42t60.5 -49t43 -56.5t28 -68q7 -33 7 -75 v-5q0 -44 -13 -95q-29 -118 -88 -200.5t-145.5 -129t-187 -66.5t-228.5 -20q-125 0 -257.5 33t-221.5 84z" />
<glyph unicode="T" horiz-adv-x="1249" d="M205 1102l49 309h1188l-49 -309h-398l-174 -1102h-391l174 1102h-399z" />
<glyph unicode="U" horiz-adv-x="1503" d="M227 598l129 813h389l-124 -778q-9 -54 -9 -100t4.5 -77.5t18.5 -57t24.5 -40.5t32 -26t31 -15.5t32.5 -7t26 -2.5h20h4q17 0 29 0.5t38 6.5t46 17.5t47 35.5t46.5 57.5t38 87.5t29.5 121l125 778h389l-129 -813q-16 -95 -44.5 -176.5t-63.5 -140t-80.5 -106.5t-89.5 -79 t-96.5 -54t-95.5 -35t-92.5 -19.5t-82 -9t-69.5 -1.5q-537 0 -537 460q0 74 14 161z" />
<glyph unicode="V" horiz-adv-x="1345" d="M223 1411h416l113 -907l403 907h414l-723 -1411h-346z" />
<glyph unicode="W" horiz-adv-x="2088" d="M231 1411h408l102 -842q169 358 367 682h270q103 -344 150 -682l368 842h408l-647 -1411h-352q-26 173 -38.5 250t-42 216t-65.5 263q-184 -306 -375 -729h-352z" />
<glyph unicode="X" horiz-adv-x="1361" d="M-2 0l575 729l-325 682h448l146 -407l270 407h444l-538 -680l350 -731h-450l-168 453l-308 -453h-444z" />
<glyph unicode="Y" horiz-adv-x="1314" d="M203 1411h442l152 -528l317 528h442l-608 -809l-94 -602h-391l94 602z" />
<glyph unicode="Z" horiz-adv-x="1380" d="M70 0l36 246l830 856h-657l49 309h1194l-39 -248l-830 -854h686l-49 -309h-1220z" />
<glyph unicode="[" horiz-adv-x="765" d="M53 -410l291 1821h592l-41 -258h-258l-207 -1305h258l-43 -258h-592z" />
<glyph unicode="\" horiz-adv-x="993" d="M281 1411h288l367 -1411h-291z" />
<glyph unicode="]" horiz-adv-x="765" d="M-10 -410l39 258h258l207 1305h-258l40 258h592l-290 -1821h-588z" />
<glyph unicode="_" horiz-adv-x="1499" d="M127 -274l41 245h1155l-41 -245h-1155z" />
<glyph unicode="`" horiz-adv-x="1085" d="M504 1503h307l90 -366h-254z" />
<glyph unicode="a" horiz-adv-x="1161" d="M106 299q13 83 60.5 148.5t113 104t137.5 58t142 19.5q97 0 168 -8q3 14 3 26q0 41 -27 67q-35 34 -121 34q-97 0 -332 -70l41 254q129 44 223 64t209 20q69 0 128.5 -14t114 -45.5t86.5 -83t48 -127.5q7 -34 6 -73q0 -48 -10 -104l-43 -256q-2 -10 -2 -19q0 -36 28 -36 q31 0 103 25l-37 -232q-158 -74 -264 -74q-55 0 -105.5 37.5t-62.5 83.5q-54 -59 -149.5 -88.5t-166.5 -29.5q-143 0 -229 86q-67 68 -67 172q0 29 5 61zM469 324q-1 -6 0 -12q0 -26 14 -52q18 -32 66 -31q26 0 62 10.5t61 30.5l28 174q-33 2 -71 2q-73 0 -113.5 -40 t-46.5 -82z" />
<glyph unicode="b" horiz-adv-x="1247" d="M115 0l229 1454h373l-82 -514q50 35 120.5 55.5t129.5 20.5q86 0 162 -34.5t131.5 -97.5t79.5 -161q14 -56 14 -118q0 -47 -8 -97q-14 -90 -45 -167t-69.5 -130t-86.5 -95.5t-94 -67.5t-93.5 -42t-84 -23t-66.5 -6q-169 0 -262 123l-35 -100h-313zM532 295 q48 -41 138 -41q85 0 151 71.5t84 174.5q4 25 4 48q0 69 -35 126q-47 76 -143 76q-67 0 -133 -37z" />
<glyph unicode="c" horiz-adv-x="1052" d="M137 492q15 96 60.5 181.5t109.5 147t140.5 106.5t157 67t157.5 22q167 0 360 -51l-41 -267q-73 19 -159 29q-71 8 -112 8h-15q-64 0 -115.5 -21t-84.5 -56.5t-52.5 -77t-26.5 -86.5q-3 -22 -4 -43q0 -69 39 -123q50 -70 166 -70h15q42 0 116 8q88 10 168 29l-45 -268 q-225 -50 -375 -50q-77 0 -150 21.5t-136 65t-107 104.5q-45 60 -63 144q-10 46 -10 96q0 41 7 84z" />
<glyph unicode="d" horiz-adv-x="1308" d="M134 360q0 8 -1 16q0 60 10 132q18 117 74 215.5t132 161t163.5 97t173.5 34.5q58 0 120.5 -20.5t100.5 -55.5l82 514h373l-180 -1141q-2 -10 -2 -19q0 -36 28 -36q33 0 101 25l-37 -232q-150 -74 -262 -74q-55 0 -105.5 37.5t-62.5 83.5q-131 -121 -330 -121 q-26 0 -55.5 5t-66.5 16.5t-70 31t-67 49t-58 69.5t-41.5 93t-19.5 119zM498 500q-5 -28 -5 -55q1 -67 33 -119q44 -72 129 -72q91 0 150 41l65 418q-50 37 -120 37q-96 0 -166 -75.5t-86 -174.5z" />
<glyph unicode="e" horiz-adv-x="1136" d="M143 502q19 119 76 217.5t138 162.5t178 99t198 35q237 0 348 -142q81 -104 81 -262q0 -59 -11 -125l-16 -90h-619v-10q0 -55 42 -99q46 -48 151 -48q56 0 168 16t178 33l-35 -240q-94 -24 -149 -36.5t-134 -23.5t-155 -12q-113 0 -201.5 31.5t-150.5 94.5 q-60 63 -84 165q-12 54 -13 116q0 56 10 118zM537 590h251q4 28 4 56v12q-1 35 -27.5 62.5t-74.5 27.5q-37 0 -66.5 -16t-47 -41t-27.5 -51t-12 -50z" />
<glyph unicode="f" horiz-adv-x="841" d="M-150 -410l44 271h225q55 0 67 63l131 824h-147l39 243h147l23 127q8 55 24.5 100t36 78t48.5 58.5t53.5 42t61.5 28t61.5 17t64.5 8.5t60 3.5t57 0.5h244l-43 -270h-230q-56 0 -65 -64l-23 -129h234l-39 -243h-234l-131 -822q-9 -55 -25.5 -100t-36 -78t-48.5 -58.5 t-54 -42t-62 -28t-61.5 -17t-64.5 -8.5t-60 -3.5t-57 -0.5h-240z" />
<glyph unicode="g" horiz-adv-x="1249" d="M117 -356l39 254q87 -37 186 -52.5t170 -15.5q139 0 203.5 44.5t77.5 133.5l10 51q-86 -82 -283 -82q-69 0 -132 21.5t-115 63.5t-87.5 103t-48.5 141q-6 37 -6 78q0 47 8 99q20 124 71.5 222.5t112 155t131.5 93.5t125 49.5t99 12.5q167 0 264 -125l35 100h313 l-162 -1014q-31 -192 -181.5 -299.5t-401.5 -107.5q-292 0 -428 74zM498 492q-4 -25 -4 -48q0 -69 35 -125q47 -75 143 -75q69 0 131 35l69 417q-58 43 -139 43q-85 0 -151 -72t-84 -175z" />
<glyph unicode="h" horiz-adv-x="1230" d="M115 0l229 1436h363l-82 -496q113 76 290 76q80 0 141 -22.5t106 -73.5t58 -133q6 -37 6 -81q0 -54 -9 -120l-93 -586h-379l84 530q9 64 11 115v6q0 47 -24 77q-26 32 -81 32q-23 0 -69.5 -11.5t-65.5 -25.5l-115 -723h-370z" />
<glyph unicode="i" horiz-adv-x="598" d="M115 0l155 991h369l-156 -991h-368zM307 1284q14 82 61.5 126t157.5 44t146 -44q26 -33 25 -85q0 -19 -3 -41q-28 -170 -221 -170q-170 0 -170 130q0 19 4 40z" />
<glyph unicode="j" horiz-adv-x="602" d="M-160 -420l43 270h129q27 0 45.5 11.5t28 32.5t13.5 35t7 36l164 1026h373l-170 -1059q-30 -185 -145.5 -268.5t-321.5 -83.5h-166zM311 1284q14 82 61.5 126t157.5 44t146 -44q25 -33 25 -85q0 -19 -3 -41q-28 -170 -221 -170q-170 0 -170 130q0 19 4 40z" />
<glyph unicode="k" horiz-adv-x="1144" d="M115 0l229 1454h371l-113 -711q67 48 134.5 121t97.5 127h393q-219 -288 -436 -436q99 -103 201.5 -256t172.5 -299h-415q-36 78 -96 177t-117 159l-52 -336h-370z" />
<glyph unicode="l" horiz-adv-x="700" d="M152 202q0 49 8 113l180 1139h367l-177 -1110q0 -13 -1 -29.5t11.5 -30.5t39.5 -14h135l-43 -278h-166q-72 0 -125.5 6t-97.5 20.5t-70 39t-43.5 60t-17.5 84.5z" />
<glyph unicode="m" horiz-adv-x="1748" d="M115 0l155 991h351l-3 -82q55 56 120 81.5t118 25.5q76 0 132.5 -24t98.5 -83q142 107 275 107q39 0 72 -2.5t69 -9.5t65 -19t57.5 -31t49.5 -44.5t37 -61.5t24 -80q7 -41 7 -94q-1 -4 -1 -8q0 -58 -11 -125l-86 -541h-383l81 530q10 62 10 106q0 40 -8 64q-17 52 -77 52 q-57 0 -111 -43q2 -18 2 -39q0 -34 -6 -74l-92 -596h-375l84 530q10 60 10 103q0 41 -9 67q-18 52 -77 52q-17 0 -46 -11t-50 -32l-111 -709h-372z" />
<glyph unicode="n" horiz-adv-x="1220" d="M115 0l155 991h348l3 -82q132 107 280 107q28 0 54 -3.5t58.5 -12.5t58.5 -25t54 -41t45 -60.5t31 -83.5q12 -43 12 -97v-13q-2 -62 -12 -139l-86 -541h-385l84 530q9 58 9 100q0 48 -12 74q-22 48 -87 48q-57 0 -127 -45l-111 -707h-372z" />
<glyph unicode="o" d="M137 492q17 108 66 198t116 150t149 101q80 41 162 59q77 17 152 16h9q83 0 157.5 -15.5t144 -54t115.5 -96.5t66 -148q10 -47 10 -100q0 -49 -8 -104q-40 -249 -220.5 -384t-428.5 -137h-16q-69 0 -137 15q-76 17 -145 57.5t-117 98.5q-48 59 -70 148q-12 50 -13 105 q0 44 8 91zM504 500q-5 -28 -5 -54q0 -70 36 -122q49 -70 135 -70q87 0 156.5 68t86.5 178q4 27 4 51q-1 71 -37 121q-50 68 -135 67q-84 0 -154 -69.5t-87 -169.5z" />
<glyph unicode="p" horiz-adv-x="1247" d="M47 -410l223 1401h314l6 -100q131 125 303 125q30 0 64.5 -6.5t77 -22.5t79.5 -43t72.5 -67.5t55 -96.5t27.5 -130q3 -24 3 -49q0 -55 -12 -118q-18 -117 -74 -215t-132 -160.5t-163.5 -96.5t-173.5 -34q-59 0 -122 19.5t-101 54.5l-74 -461h-373zM528 279 q53 -35 123 -35q96 0 167 75t87 173q5 28 5 53q0 69 -34 121q-46 73 -131 73t-147 -43z" />
<glyph unicode="q" horiz-adv-x="1247" d="M135 306q-6 37 -6 78q0 47 8 99q20 124 71.5 222.5t112 155t131.5 93.5t125 49.5t99 12.5q167 0 264 -125l35 100h313l-223 -1401h-373l74 461q-50 -35 -119.5 -54.5t-128.5 -19.5q-69 0 -132 21.5t-115 63.5t-87.5 103t-48.5 141zM496 492q-4 -25 -4 -48q0 -69 35 -125 q47 -75 143 -75q69 0 131 35l69 417q-58 43 -139 43q-85 0 -151 -72t-84 -175z" />
<glyph unicode="r" horiz-adv-x="868" d="M115 0l155 991h334l4 -106q152 121 277 121q44 0 104 -9l-45 -280q-51 6 -84 6q-52 0 -132.5 -18t-133.5 -46l-105 -659h-374z" />
<glyph unicode="s" horiz-adv-x="985" d="M98 59l41 254q67 -33 174 -57.5t176 -24.5q108 0 117 54v5q0 26 -45 44q-14 5 -59 18l-107 31q-214 72 -214 274q0 23 3 48q10 61 45.5 115.5t95 99t149.5 70.5t198 26q89 0 181.5 -24t162.5 -58l-41 -252q-66 32 -152 53t-153 21q-30 0 -52 -4t-33.5 -9.5t-18.5 -13.5 t-9 -13.5t-2 -10.5q0 -9 1 -14.5t19 -20t52 -25.5q163 -52 213 -77q108 -54 130 -141q6 -26 6 -56q0 -37 -9 -80q-19 -77 -56.5 -134t-84.5 -91t-111.5 -54.5t-128.5 -27.5t-144 -7q-88 0 -181 24t-163 58z" />
<glyph unicode="t" horiz-adv-x="823" d="M160 748l39 243h145l33 205l389 113l-49 -318h186l-39 -243h-186l-66 -412q-2 -12 -2 -22q0 -52 52 -52h133l-41 -270h-164q-73 0 -126.5 6t-98.5 20.5t-72 39t-45 60t-18 84.5q0 3 -1 7q0 47 7 106l69 433h-145z" />
<glyph unicode="u" horiz-adv-x="1282" d="M161 312q1 63 13 139l86 540h383l-84 -530q-11 -56 -11 -96q0 -22 4 -39q10 -48 32 -64t65 -16q25 0 64.5 13.5t66.5 31.5l111 700h371l-109 -678q-1 -10 -1 -19q0 -36 28 -36q30 0 102 25l-37 -232q-158 -74 -264 -74q-55 0 -105.5 37.5t-62.5 83.5q-134 -121 -315 -121 q-38 0 -70.5 3.5t-68 12t-64 25.5t-55 41t-43.5 60.5t-27 82.5q-9 42 -9 99v11z" />
<glyph unicode="v" horiz-adv-x="1122" d="M156 991h393l80 -549l252 549h397l-553 -991h-328z" />
<glyph unicode="w" horiz-adv-x="1624" d="M164 991h399l49 -555l197 518h309l37 -518l219 555h398l-490 -991h-348l-47 471l-193 -471h-350z" />
<glyph unicode="x" horiz-adv-x="1189" d="M8 0l441 500l-279 491h430l109 -266l194 266h430l-440 -491l289 -500h-432l-115 276l-197 -276h-430z" />
<glyph unicode="y" horiz-adv-x="1140" d="M47 -418l43 266h152q16 0 31.5 17t25.5 41l94 174l-237 911h405l82 -536l248 536h405l-671 -1190q-36 -72 -75 -116.5t-90 -67t-106 -29.5q-43 -6 -102 -6h-33h-172z" />
<glyph unicode="z" horiz-adv-x="1126" d="M63 0l35 223l537 502h-424l41 266h950l-35 -223l-540 -502h458l-38 -266h-984z" />
<glyph unicode="{" horiz-adv-x="819" d="M111 428l22 131q71 23 109.5 49t46.5 68l57 371q62 364 430 364h215l-39 -237h-180q-70 0 -82 -74l-53 -320q-19 -121 -67.5 -186.5t-143.5 -89.5q160 -49 123 -281l-47 -297q-8 -42 7.5 -70t49.5 -28h180l-39 -238h-215q-189 0 -265 94.5t-48 270.5l59 371 q6 39 -30.5 67.5t-89.5 34.5z" />
<glyph unicode="|" horiz-adv-x="376" d="M80 -238l297 1864h139l-297 -1864h-139z" />
<glyph unicode="}" horiz-adv-x="819" d="M-12 -410l35 238h180q34 0 58 27.5t30 70.5l49 297q37 233 211 281q-87 24 -114.5 89.5t-8.5 186.5l51 320q6 36 -11 55t-52 19h-180l38 237h215q189 0 266.5 -94t49.5 -270l-60 -371q-7 -42 23.5 -68t95.5 -49l-20 -131q-57 -6 -103.5 -34.5t-52.5 -67.5l-57 -371 q-28 -176 -135.5 -270.5t-296.5 -94.5h-211z" />
<glyph unicode="&#xa1;" horiz-adv-x="565" d="M27 -410l63 381l152 615h268l-43 -615l-64 -381h-376zM223 854q25 170 226 170q103 0 138 -45t23 -125q-12 -81 -60.5 -126.5t-158.5 -45.5t-145 45.5t-23 126.5z" />
<glyph unicode="&#xa2;" horiz-adv-x="1107" d="M166 492q20 118 83.5 218.5t150.5 165t186 101.5t196 39l29 196h139l-30 -204q107 -11 231 -43l-41 -267q-73 19 -159 29t-128 8q-64 0 -115.5 -21t-84 -56.5t-52 -76.5t-26.5 -87q-15 -96 34.5 -166t165.5 -70q42 -2 130.5 8t168.5 29l-45 -268q-122 -29 -243 -41 l-35 -209h-139l32 200q-95 2 -182.5 38t-153.5 99t-98 161.5t-14 216.5z" />
<glyph unicode="&#xa3;" horiz-adv-x="1243" d="M106 0l41 274h158l53 330h-155l37 225h155l21 127q33 210 202 338.5t441 128.5q106 0 256 -34l-45 -273q-162 31 -258 31q-90 0 -148.5 -61.5t-70.5 -139.5l-19 -117h254l-37 -225h-254l-53 -330h512l-41 -274h-1049z" />
<glyph unicode="&#xa4;" horiz-adv-x="1243" d="M135 264l199 170q-34 90 -19 182.5t76 176.5l-145 170l207 176l139 -168q96 47 189 48.5t175 -46.5l195 166l145 -176l-190 -168q35 -91 18 -184.5t-80 -178.5l140 -166l-203 -176l-143 166q-91 -45 -182 -45.5t-175 47.5l-196 -170zM576.5 618.5 q-10.5 -54.5 27.5 -102.5q41 -46 96.5 -44.5t104.5 44.5t59 97.5t-28 101.5q-41 46 -96.5 44.5t-104.5 -44.5q-48 -42 -58.5 -96.5z" />
<glyph unicode="&#xa5;" horiz-adv-x="1466" d="M276 209l25 164h295l29 168h-295l24 168h230l-299 686h436l160 -455l305 455h438l-520 -686h219l-25 -168h-286l-29 -168h287l-25 -164h-287l-30 -209h-387l30 209h-295z" />
<glyph unicode="&#xa6;" horiz-adv-x="407" />
<glyph unicode="&#xa7;" horiz-adv-x="1175" d="M49 -295l129 266q183 -83 295 -94q36 -2 70.5 -1.5t66 19.5t45.5 56q24 54 -53 100q-30 19 -119 58l-94 45q-75 36 -124 87.5t-67.5 96.5t-23 95.5t-1 75.5t8.5 44q43 156 187 244q-89 122 -45 276q44 153 187.5 246.5t354.5 93.5q193 0 381 -96l-127 -266 q-154 66 -241 75q-89 9 -139.5 -14t-63.5 -70q-1 -2 -2 -5.5t-0.5 -14t4.5 -20.5t16 -22.5t31 -21.5l55 -30q88 -41 137 -66.5t109.5 -66t88.5 -78t44 -91t6 -116.5q-8 -48 -16 -74q-51 -152 -174 -239q69 -91 51 -211q-6 -36 -18 -70q-63 -175 -188.5 -250.5t-309.5 -75.5 q-47 0 -119 7q-162 16 -342 108zM516 545q-10 -63 51.5 -120t167.5 -83q82 53 92 113q9 57 -59 110t-174 84q-68 -45 -78 -104z" />
<glyph unicode="&#xa8;" horiz-adv-x="1210" d="M451 1286q12 75 53.5 117.5t130.5 42.5q62 0 94.5 -21.5t36.5 -57t-2 -81.5q-12 -74 -53.5 -116t-126.5 -42q-158 0 -133 158zM858 1286q12 76 53 118t133 42q88 0 112.5 -41.5t12.5 -118.5q-25 -158 -176 -158q-88 0 -117.5 42t-17.5 116z" />
<glyph unicode="&#xa9;" horiz-adv-x="1603" d="M205 700q25 154 86.5 279.5t144 208.5t184 139.5t204 81.5t206.5 25q86 0 166.5 -17.5t155.5 -55t132 -96t97 -140t50 -187t-9 -238.5q-54 -330 -279 -526.5t-546 -196.5h4q-212 0 -359.5 88.5t-210 253t-26.5 381.5zM365 700q-41 -254 84.5 -406.5t375.5 -152.5h-4 q250 0 425 152.5t216 406.5q21 123 3 217.5t-60 161t-107.5 109.5t-138 62.5t-153.5 19.5t-160.5 -19t-158.5 -63t-143 -108.5t-112 -162.5t-67 -217zM569 698q-13 -81 5 -148t59 -109t96 -64.5t117 -22.5q121 0 225 29l19 115q-50 -8 -87.5 -12t-49.5 -5t-37.5 -0.5 t-26.5 0.5q-83 0 -131.5 59t-34.5 158q15 99 83 158t157 59q102 0 192 -18l19 119q-101 26 -213 26q-131 0 -249 -94.5t-143 -249.5z" />
<glyph unicode="&#xaa;" horiz-adv-x="811" d="M193 545l22 139h592l-23 -139h-591zM240 973q12 68 62.5 118.5t109.5 72.5t116 22q98 0 129 -10q0 3 2.5 14t2.5 14q0 41 -26.5 56.5t-88.5 15.5t-193 -39l25 149q130 48 254 48q142 0 208.5 -64.5t41.5 -216.5l-60 -367h-205l-8 58q-21 -30 -80 -49t-104 -19 q-87 0 -143.5 54t-42.5 143zM451 985q-4 -23 12 -41t61 -18q20 0 50 11.5t49 25.5l14 106q-20 4 -82 4q-30 0 -51 -8t-31.5 -23.5t-14.5 -27t-7 -29.5z" />
<glyph unicode="&#xab;" horiz-adv-x="1185" d="M127 506l362 426h324l-362 -426l225 -428h-324zM594 506l364 426h324l-364 -426l227 -428h-324z" />
<glyph unicode="&#xac;" horiz-adv-x="1277" d="M178 500l51 303h1051l-96 -596h-336l45 293h-715z" />
<glyph unicode="&#xad;" horiz-adv-x="1003" d="M168 428l43 274h803l-43 -274h-803z" />
<glyph unicode="&#xae;" horiz-adv-x="1603" d="M205 700q25 154 86.5 279.5t144 208.5t184 139.5t204 81.5t206.5 25q86 0 166.5 -17.5t155.5 -55t132 -96t97 -140t50 -187t-9 -238.5q-54 -330 -279 -526.5t-546 -196.5h4q-212 0 -359.5 88.5t-210 253t-26.5 381.5zM365 700q-41 -254 84.5 -406.5t375.5 -152.5h-4 q250 0 425 152.5t216 406.5q21 123 3 217.5t-60 161t-107.5 109.5t-138 62.5t-153.5 19.5t-160.5 -19t-158.5 -63t-143 -108.5t-112 -162.5t-67 -217zM623 365l110 667h277q93 0 144 -53t36 -150q-13 -88 -58.5 -139t-113.5 -59q41 -60 80 -135t57 -131h-166 q-39 106 -94 204q-26 47 -41 47h-41l-41 -251h-149zM834 735h129q63 0 77 86q6 35 -12.5 59.5t-52.5 24.5h-115z" />
<glyph unicode="&#xaf;" horiz-adv-x="1087" d="M432 1176l35 219h596l-35 -219h-596z" />
<glyph unicode="&#xb0;" horiz-adv-x="755" d="M242 1126q13 84 48 145.5t85 96t106 50.5t121 16q66 0 118.5 -16t92 -50.5t55 -96t2.5 -145.5q-25 -159 -125.5 -233t-238.5 -74q-135 0 -211.5 74t-52.5 233zM432 1126q-10 -61 21 -90.5t82 -29.5q54 0 93.5 29t49.5 91q10 63 -19.5 92t-85.5 29q-53 0 -92 -29t-49 -92z " />
<glyph unicode="&#xb1;" horiz-adv-x="1189" d="M111 0l39 260h968l-39 -260h-968zM207 623l49 284h322l40 264h330l-41 -264h318l-49 -284h-318l-41 -263h-330l41 263h-321z" />
<glyph unicode="&#xb2;" horiz-adv-x="774" d="M197 942l22 131l395 350q37 32 57.5 60t24 39.5t6.5 29.5q5 28 -18 52t-80 24q-83 0 -268 -67l31 182q141 76 295 76q165 0 238 -71.5t54 -195.5q-2 -15 -9.5 -34.5t-27 -53.5t-62 -81.5t-103.5 -98.5l-185 -149h318l-33 -193h-655z" />
<glyph unicode="&#xb3;" horiz-adv-x="745" d="M219 983l29 178q150 -55 229 -55q72 0 109 24.5t45 77.5q1 3 1.5 7t0 15.5t-4.5 21.5t-17 20t-33 14h-187l27 172h176q30 9 50 28.5t25 34.5l5 15q9 50 -18 72t-97 22q-91 0 -221 -49l27 180q38 17 122.5 35.5t141.5 18.5q146 0 220.5 -62t74.5 -184q0 -4 -3.5 -17 t-13.5 -37.5t-25.5 -48.5t-43 -50.5t-62.5 -43.5q16 -8 29 -18.5t22 -21.5t15.5 -23.5t10.5 -25t6.5 -25t3.5 -23t1 -20.5t-0.5 -16.5t-1.5 -11.5v-5q-24 -117 -121.5 -185.5t-253.5 -68.5q-58 0 -147 19.5t-121 35.5z" />
<glyph unicode="&#xb4;" horiz-adv-x="1085" d="M444 1137l213 366h308l-267 -366h-254z" />
<glyph unicode="&#xb6;" horiz-adv-x="1302" d="M233 1040q26 154 158 262.5t293 108.5h676l-279 -1741h-270l240 1479h-168l-240 -1479h-270l162 1004q-149 14 -237.5 118.5t-64.5 247.5z" />
<glyph unicode="&#xb7;" horiz-adv-x="546" d="M180 639q12 81 62.5 126.5t160.5 45.5q109 0 142.5 -45t21.5 -127q-25 -168 -221 -168q-105 0 -141.5 44.5t-24.5 123.5z" />
<glyph unicode="&#xb8;" horiz-adv-x="1198" d="M268 -362l33 202q116 -41 238 -41q45 0 67.5 22.5t23.5 55.5t-8 70.5t-23 67.5t-26 46h144q59 -58 93 -131t24 -139q-15 -112 -108 -172t-237 -47q-116 12 -221 66z" />
<glyph unicode="&#xb9;" horiz-adv-x="636" d="M217 942l31 176h143l74 469l-152 -59l31 178l229 98h177l-109 -686h139l-30 -176h-533z" />
<glyph unicode="&#xba;" horiz-adv-x="856" d="M217 545l23 139h596l-23 -139h-596zM256 1100q14 87 56.5 154.5t99.5 106t118.5 57t120.5 16.5q64 0 119 -17t101.5 -53t67 -103t5.5 -157q-25 -160 -133.5 -246t-259.5 -86q-61 -2 -117.5 17t-102.5 56.5t-67.5 104t-7.5 150.5zM465 1106q-10 -70 22.5 -115t90.5 -45 t102.5 44t56.5 116q10 68 -21 112t-89 44q-57 0 -105 -46t-57 -110z" />
<glyph unicode="&#xbb;" horiz-adv-x="1185" d="M63 78l363 428l-227 426h323l228 -426l-363 -428h-324zM532 78l361 428l-225 426h323l226 -426l-361 -428h-324z" />
<glyph unicode="&#xbc;" horiz-adv-x="1867" d="M186 549l29 176h143l74 469l-149 -59l28 178l230 98h176l-109 -686h140l-29 -176h-533zM516 0l809 1411h188l-808 -1411h-189zM1090 186h374l-28 -186h250l28 186h98l29 185h-98l80 491h-221l-490 -538zM1343 371l185 198l-35 -198h-150z" />
<glyph unicode="&#xbd;" horiz-adv-x="1904" d="M184 549l29 176h143l74 469l-149 -59l28 178l230 98h176l-109 -686h139l-28 -176h-533zM514 0l809 1411h188l-809 -1411h-188zM1161 0l19 131l395 350q37 32 58 59.5t25 40t7 29.5q4 29 -17.5 52.5t-78.5 23.5q-87 0 -269 -68l31 183q138 76 291 76q166 0 239 -71.5 t54 -195.5q-3 -22 -14.5 -50t-60 -89.5t-126.5 -128.5l-186 -149h317l-28 -193h-656z" />
<glyph unicode="&#xbe;" horiz-adv-x="1929" d="M184 594l31 178q147 -55 229 -55q71 0 108 24.5t48 77.5q1 3 1.5 7t-0.5 15.5t-5.5 21.5t-17.5 20t-33 14h-187l25 172h176q31 9 52 28.5t27 34.5l5 15q6 50 -21.5 72t-97.5 22q-89 0 -221 -49l31 180q38 17 120.5 35t139.5 18q157 0 234 -65.5t63 -179.5q0 -4 -3 -17 t-13 -37.5t-25.5 -48.5t-43.5 -50.5t-63 -43.5q16 -8 29.5 -18.5t22.5 -21.5t15.5 -23.5t10.5 -25t6.5 -25t3 -23t0.5 -20.5t-0.5 -16.5t-0.5 -11.5l-1 -5q-24 -117 -122 -185.5t-254 -68.5q-57 0 -145 19t-124 36zM578 0l808 1411h189l-809 -1411h-188zM1151 186h375 l-29 -186h250l29 186h98l29 185h-99l78 491h-221l-487 -538zM1405 371l182 198l-33 -198h-149z" />
<glyph unicode="&#xbf;" horiz-adv-x="1060" d="M63 -23q19 98 50 159q88 176 311 263q13 6 39.5 16t38.5 15t30.5 15.5t27 21t17 27.5t11.5 38l8 60h334l-6 -35q-7 -41 -11 -61.5t-12.5 -55.5t-17 -54t-23 -47.5t-32.5 -47t-43 -40.5t-58 -40t-74 -35q-5 -2 -33.5 -13.5t-39.5 -17l-37 -18.5t-39 -25t-30 -30t-26.5 -40 t-13.5 -48q-10 -56 24 -95t113 -39q158 0 369 103l-14 -264q-182 -105 -400 -117q-119 -7 -214 21.5t-153.5 84t-84 133t-11.5 166.5zM612 790.5q-5 31.5 2 67.5q25 170 220 170q105 0 142 -45t25 -125q-12 -81 -61.5 -126.5t-159.5 -45.5q-57 0 -94.5 13.5t-53 36.5 t-20.5 54.5z" />
<glyph unicode="&#xc0;" horiz-adv-x="1394" d="M6 0q190 416 353 731.5t393 679.5h338q114 -362 176.5 -674.5t122.5 -736.5h-394q-24 251 -37 362h-411q-73 -166 -148 -362h-393zM674 641h250q-25 165 -64 379q-113 -222 -186 -379zM686 1923h307l92 -367h-254z" />
<glyph unicode="&#xc1;" horiz-adv-x="1394" d="M6 0q190 416 353 731.5t393 679.5h338q114 -362 176.5 -674.5t122.5 -736.5h-394q-24 251 -37 362h-411q-73 -166 -148 -362h-393zM674 641h250q-25 165 -64 379q-113 -222 -186 -379zM815 1556l211 367h307l-264 -367h-254z" />
<glyph unicode="&#xc2;" horiz-adv-x="1394" d="M6 0q190 416 353 731.5t393 679.5h338q114 -362 176.5 -674.5t122.5 -736.5h-394q-24 251 -37 362h-411q-73 -166 -148 -362h-393zM535 1556l305 367h325l187 -367h-252l-127 175l-182 -175h-256zM674 641h250q-25 165 -64 379q-113 -222 -186 -379z" />
<glyph unicode="&#xc3;" horiz-adv-x="1394" d="M6 0q190 416 353 731.5t393 679.5h338q114 -362 176.5 -674.5t122.5 -736.5h-394q-24 251 -37 362h-411q-73 -166 -148 -362h-393zM573 1579q23 139 108.5 223t199.5 84q52 0 135 -49q5 -3 16.5 -9.5t16.5 -9.5t14.5 -7.5t15 -7t12.5 -4t13 -1.5q39 0 63 88h201 q-8 -57 -29 -108t-58 -97.5t-99 -74t-142 -27.5q-49 0 -122 47q-61 37 -91 37q-19 0 -33.5 -19t-31.5 -65h-189zM674 641h250q-25 165 -64 379q-113 -222 -186 -379z" />
<glyph unicode="&#xc4;" horiz-adv-x="1394" d="M6 0q190 416 353 731.5t393 679.5h338q114 -362 176.5 -674.5t122.5 -736.5h-394q-24 251 -37 362h-411q-73 -166 -148 -362h-393zM610 1706q12 76 53 118t130 42q91 0 117 -41.5t14 -118.5q-25 -158 -183 -158q-156 0 -131 158zM674 641h250q-25 165 -64 379 q-113 -222 -186 -379zM1018 1706q12 77 52 118.5t132 41.5q88 0 113.5 -41.5t13.5 -118.5q-25 -158 -178 -158q-88 0 -116.5 41.5t-16.5 116.5z" />
<glyph unicode="&#xc5;" horiz-adv-x="1394" d="M6 0q190 416 353 731.5t393 679.5h338q114 -362 176.5 -674.5t122.5 -736.5h-394q-24 251 -37 362h-411q-73 -166 -148 -362h-393zM674 641h250q-25 165 -64 379q-113 -222 -186 -379zM729 1782q17 105 101.5 172t187.5 67q104 0 166.5 -66t44.5 -173 q-17 -107 -100.5 -173.5t-186.5 -66.5t-166.5 67.5t-46.5 172.5zM891 1782q-6 -37 16 -60.5t60 -23.5q37 0 65.5 23t34.5 61t-15.5 61t-58.5 23q-38 0 -67 -23.5t-35 -60.5z" />
<glyph unicode="&#xc6;" horiz-adv-x="1939" d="M4 0q182 395 352 718t402 693h1306l-49 -309h-649l-37 -225h592l-47 -304h-592l-31 -184q-11 -80 60 -80h579l-49 -309h-653q-207 6 -285.5 76.5t-52.5 247.5l6 36h-297l-166 -360h-389zM692 651h211l72 451h-78q-60 -115 -205 -451z" />
<glyph unicode="&#xc7;" horiz-adv-x="1386" d="M180 475.5q-16 104.5 4 229.5q22 135 82 253.5t144 204.5t186 148t211.5 92.5t216.5 30.5q138 0 274 -17t213 -41l-45 -297q-63 9 -115.5 15t-84 9.5t-67 5t-46.5 1.5h-43.5h-38.5q-201 0 -331 -107t-162 -294q-28 -188 67.5 -297t296.5 -109h38.5h43.5t47.5 1.5t68.5 5 t86 9.5t120 15l-50 -297q-168 -49 -440 -55q65 -104 51 -191q-18 -112 -110 -172t-236 -47q-116 12 -221 66l33 202q116 -41 237 -41q40 0 62.5 18t26.5 48t-0.5 61t-16.5 64q-94 14 -177.5 52.5t-151.5 100t-112.5 145t-60.5 188z" />
<glyph unicode="&#xc8;" horiz-adv-x="1280" d="M193 324l172 1087h1040l-47 -309h-649l-39 -225h592l-45 -304h-592l-31 -184q-15 -80 57 -80h580l-49 -309h-656q-205 6 -282.5 76.5t-50.5 247.5zM635 1923h307l92 -367h-254z" />
<glyph unicode="&#xc9;" horiz-adv-x="1280" d="M193 324l172 1087h1040l-47 -309h-649l-39 -225h592l-45 -304h-592l-31 -184q-15 -80 57 -80h580l-49 -309h-656q-205 6 -282.5 76.5t-50.5 247.5zM739 1556l211 367h307l-264 -367h-254z" />
<glyph unicode="&#xca;" horiz-adv-x="1280" d="M193 324l172 1087h1040l-47 -309h-649l-39 -225h592l-45 -304h-592l-31 -184q-15 -80 57 -80h580l-49 -309h-656q-205 6 -282.5 76.5t-50.5 247.5zM459 1556l305 367h326l186 -367h-252l-127 175l-182 -175h-256z" />
<glyph unicode="&#xcb;" horiz-adv-x="1280" d="M193 324l172 1087h1040l-47 -309h-649l-39 -225h592l-45 -304h-592l-31 -184q-15 -80 57 -80h580l-49 -309h-656q-205 6 -282.5 76.5t-50.5 247.5zM532 1706q12 75 54 117.5t131 42.5q62 0 94.5 -21.5t36.5 -57t-2 -81.5q-25 -158 -182 -158t-132 158zM940 1706 q12 76 53 118t133 42q88 0 112.5 -41.5t12.5 -118.5q-25 -158 -178 -158q-88 0 -116.5 41.5t-16.5 116.5z" />
<glyph unicode="&#xcc;" horiz-adv-x="686" d="M147 0l224 1411h391l-223 -1411h-392zM375 1923h307l92 -367h-254z" />
<glyph unicode="&#xcd;" horiz-adv-x="686" d="M147 0l224 1411h391l-223 -1411h-392zM401 1556l211 367h308l-265 -367h-254z" />
<glyph unicode="&#xce;" horiz-adv-x="686" d="M147 0l224 1411h391l-223 -1411h-392zM180 1556l305 367h326l186 -367h-252l-127 175l-182 -175h-256z" />
<glyph unicode="&#xcf;" horiz-adv-x="686" d="M147 0l224 1411h391l-223 -1411h-392zM256 1706q12 76 52.5 118t129.5 42q91 0 117 -41.5t14 -118.5q-25 -158 -182 -158q-156 0 -131 158zM664 1706q12 77 52 118.5t132 41.5q88 0 113.5 -41.5t13.5 -118.5q-25 -158 -178 -158q-88 0 -116.5 41.5t-16.5 116.5z" />
<glyph unicode="&#xd0;" horiz-adv-x="1521" d="M100 598l35 219h187l94 594h555q137 0 254 -46t201 -132t120 -223.5t8 -307.5q-22 -139 -78.5 -255t-134.5 -197.5t-175.5 -138.5t-202.5 -84t-215 -27h-555l94 598h-187zM633 309h86q183 0 294 101.5t140 291.5q30 192 -46 296t-263 104h-86l-45 -285h227l-35 -219h-227 z" />
<glyph unicode="&#xd1;" horiz-adv-x="1482" d="M147 0l224 1411h368q256 -508 314 -713l112 713h394l-224 -1411h-368q4 0 -27 115t-105 315t-165 373l-127 -803h-396zM618 1579q23 139 108.5 223t199.5 84q52 0 135 -49q5 -3 16.5 -9.5t16.5 -9.5t14.5 -7.5t15 -7t12.5 -4t13 -1.5q39 0 63 88h201q-8 -57 -29 -108 t-58 -97.5t-99 -74t-142 -27.5q-49 0 -122 47q-61 37 -91 37q-19 0 -33.5 -19t-31.5 -65h-189z" />
<glyph unicode="&#xd2;" horiz-adv-x="1685" d="M186 705q-24 -153 1.5 -278t88 -207t154 -138t193.5 -80.5t213 -24.5q91 0 183 17.5t184.5 53.5t176 95.5t152.5 137.5t118.5 187t69.5 237q24 153 -2 278t-88.5 207.5t-154.5 138.5t-194 80.5t-212 24.5q-111 0 -220.5 -24.5t-219.5 -80.5t-198.5 -138.5t-154.5 -207.5 t-90 -278zM578 705q17 104 63 184.5t109 126.5t130.5 69t135.5 23q54 0 103 -14t94 -44t74 -77.5t42 -114t-2 -153.5q-17 -104 -63.5 -184.5t-109.5 -126.5t-130 -68.5t-135 -22.5q-69 0 -129 22.5t-108.5 68.5t-69.5 126.5t-4 184.5zM801 1923h307l92 -367h-254z" />
<glyph unicode="&#xd3;" horiz-adv-x="1685" d="M186 705q24 153 90 278t154.5 207.5t198.5 138.5t219.5 80.5t220.5 24.5q110 0 212 -24.5t194 -80.5t154.5 -138.5t88.5 -207.5t2 -278q-20 -128 -69.5 -237t-118.5 -187t-152.5 -137.5t-176 -95.5t-184.5 -53.5t-183 -17.5q-111 0 -213 24.5t-193.5 80.5t-154 138 t-88 207t-1.5 278zM578 705q-17 -104 4 -184.5t69.5 -126.5t108.5 -68.5t129 -22.5q68 0 135 22.5t130 68.5t109.5 126.5t63.5 184.5q15 87 2 153.5t-42 114t-74 77.5t-94 44t-103 14q-68 0 -135.5 -23t-130.5 -69t-109 -126.5t-63 -184.5zM958 1556l211 367h308l-265 -367 h-254z" />
<glyph unicode="&#xd4;" horiz-adv-x="1685" d="M186 705q-24 -153 1.5 -278t88 -207t154 -138t193.5 -80.5t213 -24.5q91 0 183 17.5t184.5 53.5t176 95.5t152.5 137.5t118.5 187t69.5 237q24 153 -2 278t-88.5 207.5t-154.5 138.5t-194 80.5t-212 24.5q-111 0 -220.5 -24.5t-219.5 -80.5t-198.5 -138.5t-154.5 -207.5 t-90 -278zM578 705q17 104 63 184.5t109 126.5t130.5 69t135.5 23q54 0 103 -14t94 -44t74 -77.5t42 -114t-2 -153.5q-17 -104 -63.5 -184.5t-109.5 -126.5t-130 -68.5t-135 -22.5q-69 0 -129 22.5t-108.5 68.5t-69.5 126.5t-4 184.5zM680 1556l305 367h326l186 -367h-252 l-127 175l-182 -175h-256z" />
<glyph unicode="&#xd5;" horiz-adv-x="1685" d="M186 705q24 153 90 278t154.5 207.5t198.5 138.5t219.5 80.5t220.5 24.5q110 0 212 -24.5t194 -80.5t154.5 -138.5t88.5 -207.5t2 -278q-20 -128 -69.5 -237t-118.5 -187t-152.5 -137.5t-176 -95.5t-184.5 -53.5t-183 -17.5q-111 0 -213 24.5t-193.5 80.5t-154 138 t-88 207t-1.5 278zM578 705q-17 -104 4 -184.5t69.5 -126.5t108.5 -68.5t129 -22.5q68 0 135 22.5t130 68.5t109.5 126.5t63.5 184.5q15 87 2 153.5t-42 114t-74 77.5t-94 44t-103 14q-68 0 -135.5 -23t-130.5 -69t-109 -126.5t-63 -184.5zM719 1579q23 140 108 223.5 t199 83.5q52 0 135 -49q5 -3 16.5 -9.5t16.5 -9.5t14.5 -7.5t15 -7t12.5 -4t13 -1.5q40 0 64 88h200q-8 -57 -29 -108t-58 -97.5t-98.5 -74t-141.5 -27.5q-50 0 -123 47q-61 37 -90 37q-19 0 -34 -19t-32 -65h-188z" />
<glyph unicode="&#xd6;" horiz-adv-x="1685" d="M186 705q-24 -153 1.5 -278t88 -207t154 -138t193.5 -80.5t213 -24.5q91 0 183 17.5t184.5 53.5t176 95.5t152.5 137.5t118.5 187t69.5 237q24 153 -2 278t-88.5 207.5t-154.5 138.5t-194 80.5t-212 24.5q-111 0 -220.5 -24.5t-219.5 -80.5t-198.5 -138.5t-154.5 -207.5 t-90 -278zM578 705q17 104 63 184.5t109 126.5t130.5 69t135.5 23q54 0 103 -14t94 -44t74 -77.5t42 -114t-2 -153.5q-17 -104 -63.5 -184.5t-109.5 -126.5t-130 -68.5t-135 -22.5q-69 0 -129 22.5t-108.5 68.5t-69.5 126.5t-4 184.5zM756 1706q12 76 52.5 118t129.5 42 q91 0 117 -41.5t14 -118.5q-25 -158 -182 -158q-156 0 -131 158zM1163 1706q12 77 52.5 118.5t132.5 41.5q88 0 113.5 -41.5t13.5 -118.5q-25 -158 -179 -158q-88 0 -116.5 41.5t-16.5 116.5z" />
<glyph unicode="&#xd7;" horiz-adv-x="1069" d="M143 348l263 221l-195 222l256 215l195 -224l260 222l182 -211l-262 -222l194 -221l-256 -215l-192 223l-262 -221z" />
<glyph unicode="&#xd8;" horiz-adv-x="1685" d="M78 20l213 183q-155 198 -105 502q25 153 91 278t154.5 207.5t198 138.5t219 80.5t220.5 24.5q130 0 253.5 -37t215.5 -111l215 189l78 -91l-211 -184q149 -190 100 -495q-24 -153 -90 -278t-154.5 -207t-198.5 -138t-219.5 -80.5t-219.5 -24.5q-131 0 -253 35t-210 105 l-2 2l-217 -189zM578 705q-23 -137 18 -234l645 557q-89 80 -225 80q-68 0 -135.5 -23t-130.5 -69t-109 -126.5t-63 -184.5zM668 375l2 2q89 -74 219 -74q68 0 135 22.5t130 68.5t109.5 126.5t63.5 184.5q21 135 -16 223z" />
<glyph unicode="&#xd9;" horiz-adv-x="1503" d="M227 598q-101 -621 523 -621q37 0 69.5 1.5t82 9t92.5 19.5t95.5 35t96.5 54t89.5 79t80.5 106.5t63.5 140t44.5 176.5l129 813h-389l-125 -778q-9 -54 -23 -100t-28 -77.5t-35.5 -57t-36.5 -40.5t-39.5 -26t-35.5 -15.5t-34.5 -7t-26 -2.5h-19.5h-4h-21.5t-27 3 t-31.5 8.5t-31 16.5t-30 27t-23.5 41t-16 56.5t-4 76t8.5 97.5l124 778h-389zM752 1923h307l94 -367h-254z" />
<glyph unicode="&#xda;" horiz-adv-x="1503" d="M227 598l129 813h389l-124 -778q-9 -54 -9 -100t4.5 -77.5t18.5 -57t24.5 -40.5t32 -26t31 -15.5t32.5 -7t26 -2.5h20h4q17 0 29 0.5t38 6.5t46 17.5t47 35.5t46.5 57.5t38 87.5t29.5 121l125 778h389l-129 -813q-16 -95 -44.5 -176.5t-63.5 -140t-80.5 -106.5t-89.5 -79 t-96.5 -54t-95.5 -35t-92.5 -19.5t-82 -9t-69.5 -1.5q-624 0 -523 621zM838 1556l209 367h307l-262 -367h-254z" />
<glyph unicode="&#xdb;" horiz-adv-x="1503" d="M227 598q-101 -621 523 -621q37 0 69.5 1.5t82 9t92.5 19.5t95.5 35t96.5 54t89.5 79t80.5 106.5t63.5 140t44.5 176.5l129 813h-389l-125 -778q-9 -54 -23 -100t-28 -77.5t-35.5 -57t-36.5 -40.5t-39.5 -26t-35.5 -15.5t-34.5 -7t-26 -2.5h-19.5h-4h-21.5t-27 3 t-31.5 8.5t-31 16.5t-30 27t-23.5 41t-16 56.5t-4 76t8.5 97.5l124 778h-389zM590 1556l303 367h326l188 -367h-252l-127 175l-182 -175h-256z" />
<glyph unicode="&#xdc;" horiz-adv-x="1503" d="M227 598q-101 -621 523 -621q37 0 69.5 1.5t82 9t92.5 19.5t95.5 35t96.5 54t89.5 79t80.5 106.5t63.5 140t44.5 176.5l129 813h-389l-125 -778q-9 -54 -23 -100t-28 -77.5t-35.5 -57t-36.5 -40.5t-39.5 -26t-35.5 -15.5t-34.5 -7t-26 -2.5h-19.5h-4h-21.5t-27 3 t-31.5 8.5t-31 16.5t-30 27t-23.5 41t-16 56.5t-4 76t8.5 97.5l124 778h-389zM664 1706q12 76 52.5 118t129.5 42q91 0 117 -41.5t14 -118.5q-25 -158 -182 -158q-156 0 -131 158zM1071 1706q12 77 52 118.5t132 41.5q88 0 113.5 -41.5t13.5 -118.5q-25 -158 -178 -158 q-88 0 -116.5 41.5t-16.5 116.5z" />
<glyph unicode="&#xdd;" horiz-adv-x="1314" d="M203 1411h442l152 -528l317 528h442l-608 -809l-94 -602h-391l94 602zM768 1556l209 367h307l-262 -367h-254z" />
<glyph unicode="&#xde;" horiz-adv-x="1312" d="M147 0l224 1411h389l-39 -254h264q93 0 170.5 -28t134.5 -81.5t80.5 -142t5.5 -200.5q-18 -113 -70.5 -201t-126.5 -141t-160 -80t-179 -27h-265l-38 -256h-390zM625 557h215q63 0 108.5 39.5t57.5 108.5q12 72 -22 112.5t-97 40.5h-215z" />
<glyph unicode="&#xdf;" horiz-adv-x="1241" d="M115 0l135 860q17 107 45.5 190t77.5 155t117 119.5t165.5 74t221.5 26.5h34q46 0 95 -10.5t104.5 -39.5t95.5 -73t60.5 -120t5.5 -172q-10 -69 -59.5 -135.5t-135.5 -106.5q61 -19 104 -75t58.5 -127.5t3.5 -141.5q-18 -109 -68.5 -190.5t-128 -131t-172 -74.5 t-210.5 -28h-82l45 291h84q57 0 111 45t63 104q7 44 -2.5 78.5t-30.5 53t-44.5 27.5t-47.5 9h-82l43 273h74q38 0 74 42t44 87q10 56 -20.5 90.5t-71.5 34.5q-156 0 -194 -275l-135 -860h-377z" />
<glyph unicode="&#xe0;" horiz-adv-x="1161" d="M106 299q-24 -146 61.5 -232.5t229.5 -86.5q71 0 166.5 29.5t149.5 88.5q12 -46 62.5 -83.5t105.5 -37.5q106 0 264 74l37 232q-72 -25 -103 -25q-34 0 -26 55l43 256q19 101 3.5 177t-47.5 127.5t-86.5 83t-114 45.5t-128.5 14q-115 0 -209 -20t-223 -64l-41 -254 q235 70 332 70q86 0 121 -34.5t24 -92.5q-71 8 -168 8q-70 0 -142 -19.5t-137.5 -58t-113 -104t-60.5 -148.5zM469 324q6 42 46.5 82t113.5 40q38 0 71 -2l-28 -174q-25 -20 -61 -30.5t-62 -10.5q-48 0 -66 31.5t-14 63.5zM475 1513h307l92 -366h-253z" />
<glyph unicode="&#xe1;" horiz-adv-x="1161" d="M106 299q13 83 60.5 148.5t113 104t137.5 58t142 19.5q97 0 168 -8q11 58 -24 92.5t-121 34.5q-97 0 -332 -70l41 254q129 44 223 64t209 20q69 0 128.5 -14t114 -45.5t86.5 -83t47.5 -127.5t-3.5 -177l-43 -256q-8 -55 26 -55q31 0 103 25l-37 -232q-158 -74 -264 -74 q-55 0 -105.5 37.5t-62.5 83.5q-54 -59 -149.5 -88.5t-166.5 -29.5q-144 0 -229.5 86.5t-61.5 232.5zM469 324q-4 -32 14 -63.5t66 -31.5q26 0 62 10.5t61 30.5l28 174q-33 2 -71 2q-73 0 -113.5 -40t-46.5 -82zM594 1147l211 366h307l-264 -366h-254z" />
<glyph unicode="&#xe2;" horiz-adv-x="1161" d="M106 299q-24 -146 61.5 -232.5t229.5 -86.5q71 0 166.5 29.5t149.5 88.5q12 -46 62.5 -83.5t105.5 -37.5q106 0 264 74l37 232q-72 -25 -103 -25q-34 0 -26 55l43 256q19 101 3.5 177t-47.5 127.5t-86.5 83t-114 45.5t-128.5 14q-115 0 -209 -20t-223 -64l-41 -254 q235 70 332 70q86 0 121 -34.5t24 -92.5q-71 8 -168 8q-70 0 -142 -19.5t-137.5 -58t-113 -104t-60.5 -148.5zM330 1147l305 366h326l186 -366h-252l-129 174l-180 -174h-256zM469 324q6 42 46.5 82t113.5 40q38 0 71 -2l-28 -174q-25 -20 -61 -30.5t-62 -10.5 q-48 0 -66 31.5t-14 63.5z" />
<glyph unicode="&#xe3;" horiz-adv-x="1161" d="M106 299q13 83 60.5 148.5t113 104t137.5 58t142 19.5q97 0 168 -8q11 58 -24 92.5t-121 34.5q-97 0 -332 -70l41 254q129 44 223 64t209 20q69 0 128.5 -14t114 -45.5t86.5 -83t47.5 -127.5t-3.5 -177l-43 -256q-8 -55 26 -55q31 0 103 25l-37 -232q-158 -74 -264 -74 q-55 0 -105.5 37.5t-62.5 83.5q-54 -59 -149.5 -88.5t-166.5 -29.5q-144 0 -229.5 86.5t-61.5 232.5zM406 1159q21 139 107 223t200 84q44 0 131 -49q68 -39 92 -39q39 0 63 88h201q-10 -58 -31 -108t-58 -97.5t-98 -74.5t-141 -27q-54 0 -124 47q-57 37 -91 37 q-38 0 -63 -84h-188zM469 324q-4 -32 14 -63.5t66 -31.5q26 0 62 10.5t61 30.5l28 174q-33 2 -71 2q-73 0 -113.5 -40t-46.5 -82z" />
<glyph unicode="&#xe4;" horiz-adv-x="1161" d="M106 299q-24 -146 61.5 -232.5t229.5 -86.5q71 0 166.5 29.5t149.5 88.5q12 -46 62.5 -83.5t105.5 -37.5q106 0 264 74l37 232q-72 -25 -103 -25q-34 0 -26 55l43 256q19 101 3.5 177t-47.5 127.5t-86.5 83t-114 45.5t-128.5 14q-115 0 -209 -20t-223 -64l-41 -254 q235 70 332 70q86 0 121 -34.5t24 -92.5q-71 8 -168 8q-70 0 -142 -19.5t-137.5 -58t-113 -104t-60.5 -148.5zM420 1286q12 76 52.5 118t129.5 42q91 0 117 -41.5t14 -118.5q-25 -158 -182 -158q-156 0 -131 158zM469 324q6 42 46.5 82t113.5 40q38 0 71 -2l-28 -174 q-25 -20 -61 -30.5t-62 -10.5q-48 0 -66 31.5t-14 63.5zM827 1286q12 77 52.5 118.5t132.5 41.5q88 0 113.5 -41.5t13.5 -118.5q-25 -158 -178 -158q-88 0 -117 41.5t-17 116.5z" />
<glyph unicode="&#xe5;" horiz-adv-x="1161" d="M106 299q-24 -146 61.5 -232.5t229.5 -86.5q71 0 166.5 29.5t149.5 88.5q12 -46 62.5 -83.5t105.5 -37.5q106 0 264 74l37 232q-72 -25 -103 -25q-34 0 -26 55l43 256q19 101 3.5 177t-47.5 127.5t-86.5 83t-114 45.5t-128.5 14q-115 0 -209 -20t-223 -64l-41 -254 q235 70 332 70q86 0 121 -34.5t24 -92.5q-71 8 -168 8q-70 0 -142 -19.5t-137.5 -58t-113 -104t-60.5 -148.5zM469 324q6 42 46.5 82t113.5 40q38 0 71 -2l-28 -174q-25 -20 -61 -30.5t-62 -10.5q-48 0 -66 31.5t-14 63.5zM514 1362q18 105 102.5 172.5t186.5 67.5 q103 0 165.5 -66.5t45.5 -173.5t-100.5 -173.5t-186.5 -66.5t-167 68t-46 172zM676 1362q-6 -37 16 -60.5t60 -23.5q37 0 65.5 23t34.5 61t-15.5 61t-58.5 23q-38 0 -67 -23.5t-35 -60.5z" />
<glyph unicode="&#xe6;" horiz-adv-x="1710" d="M106 299q13 83 60.5 148.5t113 104t137.5 58t142 19.5q97 0 168 -8q11 58 -24 92.5t-121 34.5q-97 0 -332 -70l41 254q129 44 223 64t209 20q189 0 270 -123q60 61 143.5 92t168.5 31q237 0 347.5 -142t69.5 -387l-16 -90h-619q-4 -62 43.5 -109.5t151.5 -47.5 q55 0 166.5 16t179.5 33l-37 -240q-137 -36 -233 -53.5t-205 -18.5q-122 0 -197.5 39t-113.5 131q-127 -167 -445 -167q-144 0 -229.5 86.5t-61.5 232.5zM469 324q-4 -32 14 -63.5t66 -31.5q82 0 125 52l26 163q-33 2 -71 2q-73 0 -113.5 -40t-46.5 -82zM1124 590h252 q5 33 3.5 68t-28.5 62.5t-75 27.5q-37 0 -66.5 -16t-46.5 -41t-27 -51t-12 -50z" />
<glyph unicode="&#xe7;" horiz-adv-x="1052" d="M139 492q15 96 60 181.5t109 147t141 106.5t157.5 67t157.5 22q167 0 360 -51l-43 -267q-72 19 -157 29t-127 8q-64 0 -115.5 -21t-84.5 -56.5t-52.5 -77t-26.5 -86.5q-15 -96 35 -166t166 -70q42 -2 130.5 8t166.5 29l-43 -268q-147 -35 -289 -45q63 -106 49 -191 q-18 -112 -109 -172t-235 -47q-48 5 -111 23t-110 43l31 202q119 -41 239 -41q39 0 62 17.5t27 46.5t0 59.5t-15 63.5q-85 13 -158.5 53t-128 102.5t-78.5 153.5t-8 197z" />
<glyph unicode="&#xe8;" horiz-adv-x="1136" d="M143 502q19 119 76 217.5t138 162.5t178 99t198 35q237 0 348 -142t70 -387l-16 -90h-619q-4 -62 42.5 -109.5t150.5 -47.5q56 0 168 16t178 33l-35 -240q-94 -24 -149 -36.5t-134 -23.5t-155 -12q-113 0 -201.5 31.5t-150 94.5t-85 165t-2.5 234zM492 1513h307l92 -366 h-254zM537 590h251q5 33 4 68t-27.5 62.5t-74.5 27.5q-37 0 -66.5 -16t-47 -41t-27.5 -51t-12 -50z" />
<glyph unicode="&#xe9;" horiz-adv-x="1136" d="M143 502q19 119 76 217.5t138 162.5t178 99t198 35q237 0 348 -142t70 -387l-16 -90h-619q-4 -62 42.5 -109.5t150.5 -47.5q56 0 168 16t178 33l-35 -240q-94 -24 -149 -36.5t-134 -23.5t-155 -12q-113 0 -201.5 31.5t-150 94.5t-85 165t-2.5 234zM537 590h251q5 33 4 68 t-27.5 62.5t-74.5 27.5q-37 0 -66.5 -16t-47 -41t-27.5 -51t-12 -50zM606 1147l211 366h307l-264 -366h-254z" />
<glyph unicode="&#xea;" horiz-adv-x="1136" d="M143 502q19 119 76 217.5t138 162.5t178 99t198 35q237 0 348 -142t70 -387l-16 -90h-619q-4 -62 42.5 -109.5t150.5 -47.5q56 0 168 16t178 33l-35 -240q-94 -24 -149 -36.5t-134 -23.5t-155 -12q-113 0 -201.5 31.5t-150 94.5t-85 165t-2.5 234zM346 1147l305 366h326 l186 -366h-252l-129 174l-180 -174h-256zM537 590h251q5 33 4 68t-27.5 62.5t-74.5 27.5q-37 0 -66.5 -16t-47 -41t-27.5 -51t-12 -50z" />
<glyph unicode="&#xeb;" horiz-adv-x="1136" d="M143 502q19 119 76 217.5t138 162.5t178 99t198 35q237 0 348 -142t70 -387l-16 -90h-619q-4 -62 42.5 -109.5t150.5 -47.5q56 0 168 16t178 33l-35 -240q-94 -24 -149 -36.5t-134 -23.5t-155 -12q-113 0 -201.5 31.5t-150 94.5t-85 165t-2.5 234zM416 1286 q12 75 53.5 117.5t130.5 42.5q62 0 94.5 -21.5t36.5 -57t-2 -81.5q-12 -74 -53.5 -116t-126.5 -42q-158 0 -133 158zM537 590h251q5 33 4 68t-27.5 62.5t-74.5 27.5q-37 0 -66.5 -16t-47 -41t-27.5 -51t-12 -50zM823 1286q12 76 53.5 118t133.5 42q88 0 112.5 -41.5 t12.5 -118.5q-25 -158 -177 -158q-88 0 -117.5 42t-17.5 116z" />
<glyph unicode="&#xec;" horiz-adv-x="598" d="M115 0l155 991h369l-156 -991h-368zM264 1503h307l93 -366h-254z" />
<glyph unicode="&#xed;" horiz-adv-x="598" d="M115 0l155 991h369l-156 -991h-368zM295 1137l211 366h307l-264 -366h-254z" />
<glyph unicode="&#xee;" horiz-adv-x="598" d="M76 1137l307 366h326l184 -366h-252l-127 174l-182 -174h-256zM115 0l155 991h369l-156 -991h-368z" />
<glyph unicode="&#xef;" horiz-adv-x="598" d="M115 0l155 991h369l-156 -991h-368zM150 1286q12 76 52.5 118t129.5 42q91 0 117 -41.5t14 -118.5q-12 -74 -53.5 -116t-126.5 -42q-158 0 -133 158zM557 1286q12 77 52 118.5t132 41.5q88 0 113.5 -41.5t13.5 -118.5q-25 -158 -176 -158q-88 0 -117.5 42t-17.5 116z" />
<glyph unicode="&#xf0;" horiz-adv-x="1265" d="M133 471q20 104 70 190t113.5 142t140.5 94.5t149.5 55t141.5 16.5q106 0 155 -51q-27 124 -147 206l-297 -172l20 125l172 101q-88 37 -233 63l205 234q188 -24 331 -123l238 137l-21 -125l-135 -78q148 -137 214 -340t30 -426q-27 -168 -123.5 -292.5t-233.5 -187 t-296 -63.5q-77 -2 -151.5 14.5t-143 55t-117 94.5t-72 141.5t-10.5 188.5zM504 463q-14 -102 32 -155.5t134 -53.5q81 0 148.5 63.5t82.5 161.5q15 97 -32.5 161.5t-127.5 64.5q-84 0 -153 -71t-84 -171z" />
<glyph unicode="&#xf1;" horiz-adv-x="1220" d="M115 0l155 991h348l3 -82q132 107 280 107q28 0 54 -3.5t58.5 -12.5t58.5 -25t54 -41t45 -60.5t30.5 -83.5t12 -109.5t-11.5 -139.5l-86 -541h-385l84 530q19 127 -3.5 174.5t-86.5 47.5q-57 0 -127 -45l-111 -707h-372zM434 1159q21 139 107 223t200 84q46 0 133 -49 q68 -39 91 -39q39 0 63 88h201q-10 -58 -31 -108t-58 -97.5t-98 -74.5t-141 -27q-55 0 -125 47q-57 37 -88 37q-40 0 -65 -84h-189z" />
<glyph unicode="&#xf2;" d="M137 492q-17 -107 4.5 -196t70 -147.5t117.5 -99t144.5 -57.5t153.5 -15q248 2 428.5 137t220.5 384q18 114 -1.5 204.5t-66 148t-116 96t-144 54t-157.5 15.5q-79 1 -160.5 -16.5t-163 -58.5t-148.5 -101t-116 -150t-66 -198zM504 500q17 100 87 169.5t154 69.5 q86 0 135.5 -67.5t32.5 -171.5q-17 -110 -86.5 -178t-156.5 -68q-86 0 -135 70t-31 176zM549 1513h307l94 -366h-254z" />
<glyph unicode="&#xf3;" d="M137 492q17 108 66 198t116 150t148.5 101t163 58.5t160.5 16.5q83 0 157.5 -15.5t144 -54t116 -96t66 -148t1.5 -204.5q-40 -249 -220.5 -384t-428.5 -137q-78 -2 -153.5 15t-144.5 57.5t-117.5 99t-70 147.5t-4.5 196zM504 500q-18 -106 31 -176t135 -70q87 0 156.5 68 t86.5 178q17 104 -32.5 171.5t-135.5 67.5q-84 0 -154 -69.5t-87 -169.5zM674 1147l209 366h307l-262 -366h-254z" />
<glyph unicode="&#xf4;" d="M137 492q-17 -107 4.5 -196t70 -147.5t117.5 -99t144.5 -57.5t153.5 -15q248 2 428.5 137t220.5 384q18 114 -1.5 204.5t-66 148t-116 96t-144 54t-157.5 15.5q-79 1 -160.5 -16.5t-163 -58.5t-148.5 -101t-116 -150t-66 -198zM401 1137l306 366h325l187 -366h-252 l-127 174l-183 -174h-256zM504 500q17 100 87 169.5t154 69.5q86 0 135.5 -67.5t32.5 -171.5q-17 -110 -86.5 -178t-156.5 -68q-86 0 -135 70t-31 176z" />
<glyph unicode="&#xf5;" d="M137 492q17 108 66 198t116 150t148.5 101t163 58.5t160.5 16.5q83 0 157.5 -15.5t144 -54t116 -96t66 -148t1.5 -204.5q-40 -249 -220.5 -384t-428.5 -137q-78 -2 -153.5 15t-144.5 57.5t-117.5 99t-70 147.5t-4.5 196zM440 1159q21 139 107.5 223t200.5 84 q46 0 133 -49q68 -39 92 -39q37 0 61 88h201q-10 -58 -31 -108t-58 -97.5t-98 -74.5t-141 -27q-55 0 -125 47q-57 37 -88 37q-40 0 -65 -84h-189zM504 500q-18 -106 31 -176t135 -70q87 0 156.5 68t86.5 178q17 104 -32.5 171.5t-135.5 67.5q-84 0 -154 -69.5t-87 -169.5z " />
<glyph unicode="&#xf6;" d="M137 492q-17 -107 4.5 -196t70 -147.5t117.5 -99t144.5 -57.5t153.5 -15q248 2 428.5 137t220.5 384q18 114 -1.5 204.5t-66 148t-116 96t-144 54t-157.5 15.5q-79 1 -160.5 -16.5t-163 -58.5t-148.5 -101t-116 -150t-66 -198zM475 1286q12 76 52.5 118t129.5 42 q91 0 117 -41.5t14 -118.5q-12 -74 -53.5 -116t-126.5 -42q-158 0 -133 158zM504 500q17 100 87 169.5t154 69.5q86 0 135.5 -67.5t32.5 -171.5q-17 -110 -86.5 -178t-156.5 -68q-86 0 -135 70t-31 176zM883 1286q12 77 52 118.5t132 41.5q88 0 113.5 -41.5t13.5 -118.5 q-25 -158 -176 -158q-88 0 -117.5 42t-17.5 116z" />
<glyph unicode="&#xf7;" horiz-adv-x="1196" d="M176 535l45 282h1012l-45 -282h-1012zM463 276q12 76 58 118t147 42q53 0 86.5 -12.5t47.5 -34t18 -50.5t-3 -63q-11 -75 -57.5 -117t-143.5 -42t-130.5 42t-22.5 117zM592 1083q10 75 57 117.5t148 42.5q100 0 129.5 -41t19.5 -119q-21 -159 -203 -159q-96 0 -128.5 42 t-22.5 117z" />
<glyph unicode="&#xf8;" d="M59 2l158 137q-114 133 -78 353q16 108 65 198t115.5 150t148 101t163 58.5t160.5 16.5q197 0 331 -88l148 131l80 -90l-142 -123q102 -134 68 -348q-40 -249 -220.5 -384t-428.5 -137q-180 -3 -318 82l-172 -147zM504 391l354 307q-44 41 -113 41q-85 0 -155.5 -69.5 t-85.5 -169.5q-9 -62 0 -109zM567 287q45 -33 103 -33q87 0 156 68t87 178q6 47 0 88z" />
<glyph unicode="&#xf9;" horiz-adv-x="1282" d="M161 312q1 63 13 139l86 540h383l-84 -530q-17 -87 -7.5 -135t32 -64t65.5 -16q25 0 64.5 13.5t66.5 31.5l111 700h371l-109 -678q-8 -55 27 -55q30 0 102 25l-37 -232q-158 -74 -264 -74q-55 0 -105.5 37.5t-62.5 83.5q-134 -121 -315 -121q-38 0 -70.5 3.5t-68 12 t-64 25.5t-55 41t-43.5 60.5t-27 83t-9 109.5zM553 1503h307l90 -366h-254z" />
<glyph unicode="&#xfa;" horiz-adv-x="1282" d="M161 312q1 63 13 139l86 540h383l-84 -530q-17 -87 -7.5 -135t32 -64t65.5 -16q25 0 64.5 13.5t66.5 31.5l111 700h371l-109 -678q-8 -55 27 -55q30 0 102 25l-37 -232q-158 -74 -264 -74q-55 0 -105.5 37.5t-62.5 83.5q-134 -121 -315 -121q-38 0 -70.5 3.5t-68 12 t-64 25.5t-55 41t-43.5 60.5t-27 83t-9 109.5zM580 1137l213 366h307l-266 -366h-254z" />
<glyph unicode="&#xfb;" horiz-adv-x="1282" d="M161 312q1 63 13 139l86 540h383l-84 -530q-17 -87 -7.5 -135t32 -64t65.5 -16q25 0 64.5 13.5t66.5 31.5l111 700h371l-109 -678q-8 -55 27 -55q30 0 102 25l-37 -232q-158 -74 -264 -74q-55 0 -105.5 37.5t-62.5 83.5q-134 -121 -315 -121q-38 0 -70.5 3.5t-68 12 t-64 25.5t-55 41t-43.5 60.5t-27 83t-9 109.5zM399 1137l308 366h325l185 -366h-252l-127 174l-183 -174h-256z" />
<glyph unicode="&#xfc;" horiz-adv-x="1282" d="M161 312q1 63 13 139l86 540h383l-84 -530q-17 -87 -7.5 -135t32 -64t65.5 -16q25 0 64.5 13.5t66.5 31.5l111 700h371l-109 -678q-8 -55 27 -55q30 0 102 25l-37 -232q-158 -74 -264 -74q-55 0 -105.5 37.5t-62.5 83.5q-134 -121 -315 -121q-38 0 -70.5 3.5t-68 12 t-64 25.5t-55 41t-43.5 60.5t-27 83t-9 109.5zM475 1286q12 76 52.5 118t129.5 42q91 0 117 -41.5t14 -118.5q-25 -158 -182 -158q-156 0 -131 158zM883 1286q12 77 52 118.5t132 41.5q88 0 113.5 -41.5t13.5 -118.5q-25 -158 -178 -158q-88 0 -116.5 41.5t-16.5 116.5z" />
<glyph unicode="&#xfd;" horiz-adv-x="1140" d="M47 -418l43 266h152q31 0 59 58l90 174l-235 911h405l82 -536l248 536h405l-671 -1190q-36 -72 -75 -116.5t-90 -67t-105.5 -30t-135.5 -5.5h-172zM590 1137l213 366h307l-266 -366h-254z" />
<glyph unicode="&#xfe;" horiz-adv-x="1247" d="M47 -410l297 1864h373l-82 -514q50 35 120.5 55.5t129.5 20.5q86 0 162 -36t131.5 -100.5t79 -164.5t4.5 -217q-18 -117 -74.5 -217.5t-132.5 -165.5t-164 -101.5t-174 -36.5q-59 0 -122 20.5t-101 55.5l-74 -463h-373zM530 281q53 -37 121 -37q97 0 167.5 77t84.5 179 q16 99 -30 174.5t-142 75.5q-67 0 -133 -37z" />
<glyph unicode="&#xff;" horiz-adv-x="1140" d="M47 -418l43 266h152q31 0 59 58l90 174l-235 911h405l82 -536l248 536h405l-671 -1190q-36 -72 -75 -116.5t-90 -67t-105.5 -30t-135.5 -5.5h-172zM422 1286q12 76 52.5 118t129.5 42q91 0 117 -41.5t14 -118.5q-12 -74 -53.5 -116t-126.5 -42q-158 0 -133 158zM829 1286 q12 77 52.5 118.5t132.5 41.5q88 0 113.5 -41.5t13.5 -118.5q-25 -158 -176 -158q-161 0 -136 158z" />
<glyph unicode="&#x152;" horiz-adv-x="2359" d="M186 705q24 153 90 278t154.5 207.5t198.5 138.5t219.5 80.5t220.5 24.5q255 0 356 -134l19 111h1040l-49 -309h-649l-37 -225h592l-47 -304h-592l-31 -184q-11 -80 60 -80h579l-49 -309h-655q-121 3 -203 42t-92 108q-86 -85 -218.5 -129t-256.5 -44q-111 0 -213 24.5 t-193.5 80.5t-154 138t-88 207t-1.5 278zM578 705q-17 -104 4 -184.5t69.5 -126.5t108.5 -68.5t129 -22.5q68 0 135 22.5t130 68.5t109.5 126.5t63.5 184.5q15 87 2 153.5t-42 114t-74 77.5t-94 44t-103 14q-68 0 -135.5 -23t-130.5 -69t-109 -126.5t-63 -184.5z" />
<glyph unicode="&#x153;" horiz-adv-x="1912" d="M137 492q17 108 66 198t116 150t148.5 101t163 58.5t160.5 16.5q107 0 205 -39t155 -117q75 76 168.5 116t189.5 40q237 0 347.5 -141.5t70.5 -387.5l-18 -90h-619q-4 -62 43.5 -109.5t151.5 -47.5q56 0 168 16t178 33l-37 -240q-97 -25 -149.5 -37t-133 -23.5 t-155.5 -11.5q-110 0 -201.5 39.5t-128.5 112.5q-71 -69 -180 -109.5t-219 -42.5q-79 -2 -154.5 15t-144.5 57.5t-117.5 99t-69.5 147.5t-4 196zM504 500q-18 -106 31 -176t135 -70q87 0 156.5 68t86.5 178q17 104 -32.5 171.5t-135.5 67.5q-84 0 -154 -69.5t-87 -169.5z M1325 590h252q5 33 3.5 68t-28.5 62.5t-75 27.5q-37 0 -66.5 -16t-46.5 -41t-27 -51t-12 -50z" />
<glyph unicode="&#x178;" horiz-adv-x="1314" d="M203 1411h442l152 -528l317 528h442l-608 -809l-94 -602h-391l94 602zM569 1706q12 76 53 118t130 42q91 0 117 -41.5t14 -118.5q-25 -158 -183 -158q-156 0 -131 158zM977 1706q12 77 52 118.5t132 41.5q88 0 113.5 -41.5t13.5 -118.5q-25 -158 -178 -158 q-88 0 -116.5 41.5t-16.5 116.5z" />
<glyph unicode="&#x2c6;" horiz-adv-x="1247" d="M395 1137l307 366h326l184 -366h-251l-127 174l-183 -174h-256z" />
<glyph unicode="&#x2dc;" horiz-adv-x="1073" d="M348 1159q21 139 107 223t200 84q44 0 131 -49q68 -39 93 -39q39 0 63 88h201q-10 -58 -31 -108t-58 -97.5t-98 -74.5t-141 -27q-55 0 -125 47q-57 37 -88 37q-40 0 -65 -84h-189z" />
<glyph unicode="&#x2000;" horiz-adv-x="1010" />
<glyph unicode="&#x2001;" horiz-adv-x="2021" />
<glyph unicode="&#x2002;" horiz-adv-x="1010" />
<glyph unicode="&#x2003;" horiz-adv-x="2021" />
<glyph unicode="&#x2004;" horiz-adv-x="673" />
<glyph unicode="&#x2005;" horiz-adv-x="505" />
<glyph unicode="&#x2006;" horiz-adv-x="336" />
<glyph unicode="&#x2007;" horiz-adv-x="336" />
<glyph unicode="&#x2008;" horiz-adv-x="252" />
<glyph unicode="&#x2009;" horiz-adv-x="404" />
<glyph unicode="&#x200a;" horiz-adv-x="112" />
<glyph unicode="&#x2010;" horiz-adv-x="1003" d="M168 428l43 274h803l-43 -274h-803z" />
<glyph unicode="&#x2011;" horiz-adv-x="1003" d="M168 428l43 274h803l-43 -274h-803z" />
<glyph unicode="&#x2012;" horiz-adv-x="1003" d="M168 428l43 274h803l-43 -274h-803z" />
<glyph unicode="&#x2013;" horiz-adv-x="1216" d="M172 436l39 246h1012l-39 -246h-1012z" />
<glyph unicode="&#x2014;" horiz-adv-x="1652" d="M172 436l39 246h1448l-39 -246h-1448z" />
<glyph unicode="&#x2018;" horiz-adv-x="565" d="M188 909l320 525h252l-242 -525h-330z" />
<glyph unicode="&#x2019;" horiz-adv-x="555" d="M199 909l241 525h330l-319 -525h-252z" />
<glyph unicode="&#x201a;" horiz-adv-x="563" d="M-16 -117l270 525h315l-323 -525h-262z" />
<glyph unicode="&#x201c;" horiz-adv-x="964" d="M188 909l320 525h266l-270 -525h-316zM608 909l279 525h272l-241 -525h-310z" />
<glyph unicode="&#x201d;" horiz-adv-x="954" d="M199 909l241 525h310l-279 -525h-272zM584 909l270 525h315l-319 -525h-266z" />
<glyph unicode="&#x201e;" horiz-adv-x="960" d="M-4 -117l242 525h309l-283 -525h-268zM377 -117l274 525h316l-324 -525h-266z" />
<glyph unicode="&#x2022;" horiz-adv-x="849" d="M169.5 403.5q-9.5 56.5 4.5 120.5q12 71 34.5 123t64.5 96.5t113.5 67.5t170.5 23t163.5 -24t91.5 -66t34.5 -98.5t-6.5 -121.5q-12 -69 -36 -121.5t-66.5 -96t-113 -66.5t-165.5 -23t-159 24t-92.5 65t-38 97.5z" />
<glyph unicode="&#x2026;" horiz-adv-x="1699" d="M96 147q12 81 61.5 126.5t159.5 45.5q58 0 95 -13.5t52 -36.5t19.5 -54.5t-2.5 -67.5q-25 -170 -219 -170q-105 0 -141.5 45t-24.5 125zM676 147q12 81 62.5 126.5t160.5 45.5q109 0 142.5 -45t21.5 -127q-25 -170 -219 -170q-193 0 -168 170zM1257 147q12 80 63 126 t161 46q109 0 142.5 -45t21.5 -127q-25 -170 -220 -170q-193 0 -168 170z" />
<glyph unicode="&#x202f;" horiz-adv-x="404" />
<glyph unicode="&#x2039;" horiz-adv-x="718" d="M127 506l365 426h323l-364 -426l227 -428h-324z" />
<glyph unicode="&#x203a;" horiz-adv-x="718" d="M63 78l363 428l-227 426h323l228 -426l-363 -428h-324z" />
<glyph unicode="&#x205f;" horiz-adv-x="505" />
<glyph unicode="&#x20ac;" horiz-adv-x="1421" d="M158 457l22 153h219l19 115h-219l26 160h240q63 165 181.5 287t263 182.5t298.5 60.5q164 0 326 -26l-49 -293q-145 16 -279 16q-109 0 -197.5 -61.5t-144.5 -165.5h369l-27 -160h-397q-1 -14 -8 -61.5t-8 -53.5h395l-23 -153h-344q20 -81 82.5 -129.5t167.5 -48.5 q127 0 287 14l-47 -287q-189 -29 -332 -29q-221 0 -380 129t-189 351h-252z" />
<glyph unicode="&#x2122;" horiz-adv-x="1628" d="M260 924l23 129h761l125 -467l277 467h170l-68 -727h-157l49 485l-242 -399h-117l-110 395l-109 -481h-160l142 598h-201l-96 -598h-160l96 598h-223z" />
<glyph unicode="&#xe000;" horiz-adv-x="993" d="M0 0v993h993v-993h-993z" />
</font>
</defs>
</svg>
