<?xml version="1.0" standalone="no"?>
<!DOCTYPE svg PUBLIC "-//W3C//DTD SVG 1.1//EN" "http://www.w3.org/Graphics/SVG/1.1/DTD/svg11.dtd" >
<svg xmlns="http://www.w3.org/2000/svg">
<metadata></metadata>
<defs>
<font id="kyrial_display_problack" horiz-adv-x="1261" >
<font-face units-per-em="2048" ascent="1536" descent="-512" />
<missing-glyph horiz-adv-x="409" />
<glyph unicode="&#xfb01;" horiz-adv-x="1509" d="M53 748v243h148v127q0 70 15.5 124.5t37.5 89.5t61 59.5t69.5 36.5t80.5 18t76.5 7t74.5 1h244v-270h-229q-58 0 -58 -64v-129h822v-991h-369v748h-453v-748h-372v748h-148zM1014 1284q0 81 42 125.5t152 44.5t151.5 -44.5t41.5 -125.5q0 -170 -193 -170q-194 0 -194 170 z" />
<glyph unicode="&#xfb02;" horiz-adv-x="1609" d="M53 748v243h148v127q0 70 15.5 124.5t37.5 89.5t61 59.5t69.5 36.5t80.5 18t76.5 7t74.5 1h244v-270h-229q-58 0 -58 -64v-129h234v-243h-234v-748h-372v748h-148zM1020 315q0 -96 22 -158.5t72.5 -99t122 -51t180.5 -14.5h166v278h-135q-62 0 -62 74v1110h-366v-1139z " />
<glyph unicode="&#xfb03;" horiz-adv-x="2383" d="M53 748v243h148v127q0 70 15.5 124.5t37.5 89.5t61 59.5t69.5 36.5t80.5 18t76.5 7t74.5 1h244v-270h-229q-58 0 -58 -64v-129h502v127q0 55 9.5 100t24 78t39.5 58.5t47 42t57 28t59 17t63.5 8.5t59.5 3.5t57 0.5h244v-270h-230q-57 0 -57 -64v-129h821v-991h-368v748 h-453v-748h-373v748h-502v-748h-372v748h-148zM1888 1284q0 81 42.5 125.5t152.5 44.5t151 -44.5t41 -125.5q0 -170 -192 -170q-195 0 -195 170z" />
<glyph unicode="&#xfb04;" horiz-adv-x="2484" d="M53 748v243h148v127q0 70 15.5 124.5t37.5 89.5t61 59.5t69.5 36.5t80.5 18t76.5 7t74.5 1h244v-270h-229q-58 0 -58 -64v-129h502v127q0 55 9.5 100t24 78t39.5 58.5t47 42t57 28t59 17t63.5 8.5t59.5 3.5t57 0.5h244v-270h-230q-57 0 -57 -64v-129h233v-243h-233v-748 h-373v748h-502v-748h-372v748h-148zM1894 315q0 -96 22 -158.5t73 -99t122.5 -51t180.5 -14.5h166v278h-136q-61 0 -61 74v1110h-367v-1139z" />
<glyph horiz-adv-x="2048" />
<glyph horiz-adv-x="2048" />
<glyph unicode="&#xd;" horiz-adv-x="2048" />
<glyph unicode=" "  horiz-adv-x="409" />
<glyph unicode="&#x09;" horiz-adv-x="409" />
<glyph unicode="&#xa0;" horiz-adv-x="409" />
<glyph unicode="!" horiz-adv-x="602" d="M109 147q0 81 42 126.5t152 45.5t151.5 -45.5t41.5 -126.5q0 -170 -193 -170q-194 0 -194 170zM113 1030v381h376v-381l-53 -614h-268z" />
<glyph unicode="&#x22;" horiz-adv-x="866" d="M88 1202v209h295v-209l-51 -426h-195zM485 1202v209h295v-209l-51 -426h-194z" />
<glyph unicode="#" horiz-adv-x="1570" d="M74 305l59 254h240l55 232h-240l60 253h239l84 367h285l-86 -367h211l86 367h285l-86 -367h229l-59 -253h-230l-55 -232h229l-59 -254h-229l-72 -305h-285l72 305h-211l-72 -305h-282l71 305h-239zM655 559h211l56 232h-211z" />
<glyph unicode="$" horiz-adv-x="1277" d="M92 999q0 169 125.5 284.5t351.5 141.5v201h140v-192q107 -3 234.5 -33t197.5 -70v-297q-265 92 -451 92q-100 0 -150.5 -35t-52.5 -90v-7.5t4 -17.5t11.5 -24t24 -23.5t40.5 -19.5l74 -22q118 -36 186.5 -60.5t152 -67t125.5 -89t69 -117.5t20 -160q-9 -106 -47.5 -183 t-104 -124.5t-147 -72t-186.5 -31.5v-222h-140v220q-119 4 -242.5 35t-213.5 79v322q95 -52 244 -91.5t253 -39.5q87 0 134 25.5t57 84.5q4 23 -7.5 43.5t-31 35t-55.5 30t-66.5 25.5t-79.5 24l-115 39q-73 21 -131 53t-94 64.5t-62.5 73t-39 70.5t-19 65.5t-7.5 50t-1 30.5 z" />
<glyph unicode="%" horiz-adv-x="1708" d="M80 1096q0 71 21.5 129.5t56.5 97t82 64.5t96 37t100 10q54 0 103 -9.5t96 -34t81 -61.5t54.5 -95.5t20.5 -133.5q0 -164 -96.5 -250t-258.5 -86q-64 -2 -125 16.5t-114 56.5t-85 105t-32 154zM178 0l1129 1411h184l-1129 -1411h-184zM315 1100q0 -61 31.5 -95t89.5 -34 q56 0 86.5 34t30.5 95q0 59 -31 92t-86 33q-58 0 -89.5 -33.5t-31.5 -91.5zM918 309q0 71 21.5 129.5t56.5 97t82 64.5t96 37t100 10q69 0 128.5 -16.5t112 -53t83 -104t30.5 -160.5q0 -164 -96 -250t-258 -86q-64 -2 -125 16.5t-114 56.5t-85 105t-32 154zM1153 313 q0 -61 31.5 -95t89.5 -34q56 0 86.5 34t30.5 95q0 59 -31 92t-86 33q-58 0 -89.5 -33.5t-31.5 -91.5z" />
<glyph unicode="&#x26;" horiz-adv-x="1406" d="M109 375q0 11 1.5 30t13.5 63t32.5 82.5t63.5 80t102 63.5q-59 21 -102.5 62.5t-64 80.5t-32 85t-13 64t-1.5 30q6 184 145.5 290.5t390.5 106.5q92 0 218 -24t184 -48v-274q-193 53 -338 53q-125 0 -180.5 -36t-55.5 -121q0 -4 1 -10.5t7.5 -24t18.5 -33.5t38 -33.5 t62 -27.5h789v-273h-248v-418q-108 -89 -242 -127.5t-254 -38.5q-251 0 -390.5 107.5t-145.5 290.5zM457 422q0 -89 53.5 -129.5t165.5 -40.5q39 0 84.5 10t70.5 23v276h-241q-37 -10 -64.5 -28.5t-40 -37t-19.5 -35.5t-8 -28z" />
<glyph unicode="'" horiz-adv-x="468" d="M88 1202v209h295v-209l-51 -426h-195z" />
<glyph unicode="(" horiz-adv-x="811" d="M59 504v8q0 168 40 316t109 255t159.5 185t193 116.5t207.5 38.5v-217q-61 -12 -115.5 -41.5t-105.5 -85t-87.5 -131.5t-58.5 -189t-22 -251t22 -252t58.5 -191.5t87.5 -134t105.5 -86.5t115.5 -43v-215q-105 0 -207.5 39.5t-192.5 118t-159.5 187t-109.5 257t-40 316.5z " />
<glyph unicode=")" horiz-adv-x="811" d="M43 -199q61 13 115.5 43t105.5 86.5t87.5 134t58.5 191.5t22 252t-22 251t-58.5 189t-87.5 131.5t-105.5 85t-115.5 41.5v217q105 0 207.5 -38.5t193 -116.5t159.5 -185t109 -255t40 -316v-8q0 -168 -40 -316.5t-109.5 -257t-159.5 -187t-192.5 -118t-207.5 -39.5v215z " />
<glyph unicode="*" horiz-adv-x="1005" d="M92 889v258l230 -23l-136 185l220 131l94 -230l94 230l221 -129l-143 -187l241 23v-258l-241 20l143 -184l-221 -129l-94 233l-94 -231l-220 127l136 184z" />
<glyph unicode="+" horiz-adv-x="1138" d="M84 481v283h322v313h327v-313h322v-283h-322v-315h-327v315h-322z" />
<glyph unicode="," horiz-adv-x="583" d="M-68 -311l218 528h354l-303 -528h-269z" />
<glyph unicode="-" horiz-adv-x="1003" d="M100 428v274h803v-274h-803z" />
<glyph unicode="." horiz-adv-x="538" d="M76 147q0 81 42 126.5t152 45.5t151.5 -45.5t41.5 -126.5q0 -170 -193 -170q-194 0 -194 170z" />
<glyph unicode="/" horiz-adv-x="993" d="M57 0l590 1411h289l-588 -1411h-291z" />
<glyph unicode="0" horiz-adv-x="1335" d="M82 696q0 127 24 234.5t66.5 185t98.5 137t122 95.5t134.5 53.5t138.5 17.5q87 0 168.5 -24.5t158.5 -80.5t134 -137.5t91.5 -205.5t34.5 -275q0 -327 -160.5 -523t-426.5 -196q-264 0 -424 196t-160 523zM444 696q0 -184 65 -303t161 -119q94 0 158.5 119.5t64.5 302.5 q0 108 -21 192.5t-55 133t-73 73.5t-78 25q-85 0 -153.5 -108.5t-68.5 -315.5z" />
<glyph unicode="1" horiz-adv-x="974" d="M94 0v272h234v809l-232 -98v272l342 156h267v-1139h231v-272h-842z" />
<glyph unicode="2" horiz-adv-x="1206" d="M59 0v207l559 575q43 43 69.5 78.5t36.5 64t12.5 43t2.5 36.5q0 49 -51 91t-153 42q-151 0 -406 -99v277q203 119 451 119q263 0 397.5 -114.5t134.5 -315.5q0 -20 -3 -41.5t-17.5 -65.5t-40.5 -89.5t-77.5 -110.5t-121.5 -132l-281 -266h539v-299h-1051z" />
<glyph unicode="3" horiz-adv-x="1155" d="M84 59v273q237 -80 379 -80q127 0 187.5 44t60.5 136q0 5 -1 12.5t-8.5 28.5t-19.5 38t-39 34.5t-63 25.5h-291v265h278q35 9 61 27t37.5 37t18 36.5t7.5 29.5l1 11q0 87 -55.5 126.5t-179.5 39.5q-149 0 -336 -72v277q59 25 184.5 52t218.5 27q250 0 388.5 -106 t146.5 -291q0 -7 -0.5 -16.5t-4.5 -36t-11 -51.5t-22.5 -58.5t-36 -61.5t-54.5 -55.5t-76 -45.5q42 -16 76 -42t54.5 -53.5t36 -61t22.5 -58.5t11 -52t4.5 -36.5t0.5 -16.5q-8 -185 -147.5 -296.5t-387.5 -111.5q-95 0 -239 28.5t-201 53.5z" />
<glyph unicode="4" horiz-adv-x="1308" d="M35 309v213l659 889h336v-817h223v-285h-223v-309h-375v309h-620zM424 594h231v319z" />
<glyph unicode="5" horiz-adv-x="1212" d="M80 78l39 287q247 -80 430 -80q98 0 156.5 47t58.5 114q0 21 -1.5 38.5t-12.5 49t-30.5 52.5t-60 38t-96.5 17h-450l69 770h889v-297h-579l-17 -178h160q112 0 200.5 -29.5t144.5 -78.5t93.5 -116.5t52.5 -138t15 -147.5q-4 -91 -43.5 -172.5t-109 -143t-172.5 -97.5 t-226 -36q-99 0 -244.5 27t-265.5 74z" />
<glyph unicode="6" horiz-adv-x="1306" d="M82 606q0 385 181.5 606.5t500.5 221.5q114 0 195 -13.5t180 -48.5v-272q-31 10 -61.5 17.5t-54 12.5t-52 8.5t-44 5t-41.5 2.5t-34.5 1h-32.5h-26q-56 0 -110.5 -21.5t-101.5 -61.5t-78.5 -103.5t-37.5 -141.5q76 135 301 135q112 0 202.5 -41t147.5 -109.5t87 -154 t30 -178.5q0 -227 -149 -360.5t-416 -133.5q-270 0 -428 166t-158 463zM477 473q0 -97 56.5 -147t138.5 -52q79 2 135.5 52.5t56.5 146.5q0 80 -51.5 137.5t-140.5 57.5q-88 0 -141.5 -58t-53.5 -137z" />
<glyph unicode="7" horiz-adv-x="1097" d="M63 1116v295h1008v-229l-567 -1182h-420l569 1116h-590z" />
<glyph unicode="8" horiz-adv-x="1290" d="M84 375q0 17 0.5 30t5 46.5t13 60.5t26.5 63.5t43.5 64t66 54t91.5 41.5q-58 21 -101 61.5t-63 79.5t-32 84t-13.5 64t-1.5 31q6 174 137 276t377 103h26q245 -1 375.5 -103t136.5 -276q0 -12 -1.5 -31t-13 -64t-31.5 -84t-63 -79.5t-101 -61.5q51 -15 91.5 -41.5 t65.5 -54t43.5 -64t26.5 -63t12.5 -60.5t5 -46.5t0.5 -30.5q0 -181 -144.5 -289t-402.5 -109h-26q-258 1 -403.5 109t-145.5 289zM440 410q0 -71 53.5 -116.5t147.5 -45.5q91 0 144 45.5t53 116.5q0 24 -4 46t-17 48.5t-33.5 46t-58 32.5t-86.5 13t-86.5 -13t-58 -32.5 t-33.5 -46t-17 -48.5t-4 -46zM471 1016q0 -61 46.5 -104.5t125.5 -43.5q82 0 129 43.5t47 104.5q0 20 -2.5 38t-13 44t-28 44.5t-51.5 32t-79 13.5t-79 -13.5t-51.5 -32t-28 -44.5t-13 -44t-2.5 -38z" />
<glyph unicode="9" horiz-adv-x="1308" d="M76 940q0 227 149 360.5t416 133.5q270 0 428 -166t158 -463q0 -385 -181.5 -606.5t-500.5 -221.5q-114 0 -195 13.5t-180 48.5v272q31 -10 61.5 -17.5t54 -12.5t52 -8.5t44 -5t41.5 -2.5t34.5 -1h32.5h26q56 0 110.5 21.5t101.5 61.5t78.5 103.5t37.5 141.5 q-76 -135 -301 -135q-112 0 -202.5 41t-147.5 109.5t-87 154t-30 178.5zM444 938q0 -80 52 -137.5t141 -57.5q88 0 141 58t53 137q0 97 -56 147t-138 52q-80 -2 -136.5 -52.5t-56.5 -146.5z" />
<glyph unicode=":" horiz-adv-x="587" d="M100 147q0 81 42.5 126.5t152.5 45.5t151 -45t41 -127q0 -170 -192 -170q-195 0 -195 170zM100 844q0 81 42.5 126.5t152.5 45.5t151 -45t41 -127q0 -170 -192 -170q-195 0 -195 170z" />
<glyph unicode=";" horiz-adv-x="626" d="M-66 -311h269l303 528h-354zM141 848q0 81 42.5 126.5t152.5 45.5t151 -45t41 -127q0 -170 -192 -170q-195 0 -195 170z" />
<glyph unicode="&#x3c;" horiz-adv-x="1501" d="M80 479v201l1286 477v-311l-795 -264l795 -269v-311z" />
<glyph unicode="=" horiz-adv-x="1232" d="M115 266v266h1003v-266h-1003zM115 725v266h1003v-266h-1003z" />
<glyph unicode="&#x3e;" horiz-adv-x="1503" d="M135 2v311l795 269l-795 264v311l1288 -477v-201z" />
<glyph unicode="?" horiz-adv-x="1075" d="M88 1317q164 105 381 117q117 7 216.5 -22t167.5 -84.5t106 -133t38 -166.5q-3 -93 -20 -149q-57 -183 -272 -273q-13 -6 -37.5 -16t-35.5 -15t-27.5 -15.5t-24 -21t-13.5 -27.5t-6 -38v-59h-332v35q0 40 0.5 61.5t3 55t8 53.5t15.5 47.5t25.5 46.5t37.5 41t52 40t69 35 q5 2 27.5 11.5t32 14t30.5 16t31.5 20t25.5 23.5t22.5 29.5t13.5 35t6 43.5q0 56 -40 94.5t-120 38.5q-159 0 -352 -102zM201 147q0 81 42 126.5t152 45.5t151.5 -45.5t41.5 -126.5q0 -170 -193 -170q-194 0 -194 170z" />
<glyph unicode="@" horiz-adv-x="2162" d="M88 506q0 187 81.5 359t218 296t322.5 197.5t388 73.5q141 0 267.5 -25t223.5 -69t178.5 -104t138 -129t95.5 -145t57.5 -151.5t18.5 -149.5q0 -107 -20 -199t-54.5 -159.5t-82.5 -121.5t-101 -88.5t-112.5 -58t-115.5 -33t-112 -9.5q-110 0 -185.5 53.5t-83.5 118.5 q-29 -41 -109 -76t-157 -35q-33 0 -70 6t-80.5 21t-80.5 39t-71 59.5t-52.5 84t-24.5 112t13 143.5q18 83 59 156.5t94 125.5t114.5 90t123.5 56.5t118 18.5q131 0 211 -74l33 74h232l-119 -547q-54 -246 61 -246q41 0 89 13t104 47t100 85t73.5 136t29.5 190q0 119 -48 222 t-129 176t-185 125.5t-216.5 78t-224.5 25.5q-159 0 -309 -61t-261 -163.5t-178 -243.5t-67 -294q0 -222 108.5 -396.5t304 -272t445.5 -97.5q454 0 784 258v-178q-129 -116 -350.5 -183t-446.5 -67q-237 0 -434.5 74.5t-329 202t-204 298t-72.5 361.5zM838 510 q-35 -111 16 -174.5t133 -63.5q97 0 172 52l78 387q-60 39 -135 39q-96 0 -164.5 -70t-99.5 -170z" />
<glyph unicode="A" horiz-adv-x="1394" d="M6 0q125 419 237.5 733.5t284.5 677.5h338q172 -364 285.5 -680t237.5 -731h-394q-65 266 -92 362h-411q-34 -122 -93 -362h-393zM573 641h250q-49 156 -125 379q-76 -223 -125 -379z" />
<glyph unicode="B" horiz-adv-x="1361" d="M147 0v1411h652q47 0 98 -10.5t111.5 -39.5t107 -73t78 -120.5t31.5 -172.5q0 -30 -9 -65.5t-28.5 -75t-57.5 -71t-88 -44.5q113 -18 179.5 -109.5t66.5 -203.5q0 -216 -136.5 -321t-375.5 -105h-629zM543 305h233q49 0 81 34.5t32 92.5q0 70 -35.5 103.5t-79.5 33.5 h-231v-264zM543 842h176q55 0 83.5 38.5t28.5 96.5q0 56 -31 92.5t-81 36.5h-176v-264z" />
<glyph unicode="C" horiz-adv-x="1384" d="M74 705q0 135 41 253.5t111.5 204.5t163 148t197.5 92.5t212 30.5q137 0 274.5 -17t220.5 -41v-297q-64 9 -117.5 15t-85 9.5t-67.5 5t-47 1.5h-43.5h-38.5q-201 0 -313.5 -107t-114.5 -294q2 -188 114.5 -297t313.5 -109h38.5h43.5t47 1.5t67.5 5t85 9.5t117.5 15v-297 q-83 -24 -220 -40.5t-275 -16.5q-108 0 -212 30t-197 91.5t-163.5 147t-111.5 203.5t-41 253z" />
<glyph unicode="D" horiz-adv-x="1476" d="M147 0v1411h555q137 0 261 -46t222 -132t156 -223.5t58 -307.5q0 -172 -58 -309t-156 -221t-221.5 -128t-261.5 -44h-555zM539 309h86q183 0 277.5 101.5t94.5 291.5q0 192 -92.5 296t-279.5 104h-86v-793z" />
<glyph unicode="E" horiz-adv-x="1280" d="M141 324v1087h1041v-309h-650v-225h592v-304h-592v-184q0 -80 70 -80h580v-309h-656q-205 6 -294.5 77t-90.5 247z" />
<glyph unicode="F" horiz-adv-x="1144" d="M147 0v1411h932v-309h-538v-225h497v-304h-497v-573h-394z" />
<glyph unicode="G" horiz-adv-x="1503" d="M74 702q0 169 64 309.5t172.5 231.5t250 141t299.5 50q223 0 479 -64v-307q-64 10 -115.5 17t-91 11.5t-64.5 7.5t-51 4t-34.5 1h-30.5h-24h-21q-194 0 -313 -108.5t-119 -293.5q0 -92 30.5 -168t82.5 -125t118.5 -75.5t141.5 -26.5q66 0 168 17v206h-336v283h719v-709 q-160 -72 -301.5 -99.5t-296.5 -27.5q-108 0 -212.5 29.5t-197.5 90t-163.5 145.5t-112 203.5t-41.5 256.5z" />
<glyph unicode="H" horiz-adv-x="1499" d="M147 0v1411h396v-526h413v526h396v-1411h-396v584h-413v-584h-396z" />
<glyph unicode="I" horiz-adv-x="686" d="M147 0v1411h392v-1411h-392z" />
<glyph unicode="J" horiz-adv-x="727" d="M-248 -104q157 -27 285 -27q74 0 112.5 56.5t38.5 193.5v1292h392v-1329q0 -508 -537 -508q-84 0 -291 31v291z" />
<glyph unicode="K" horiz-adv-x="1355" d="M147 0v1411h394v-387q158 145 305 387h426q-59 -144 -240.5 -371.5t-335.5 -339.5q98 -77 165 -132.5t163.5 -144.5t189 -195t181.5 -228h-475q-173 235 -379 379v-379h-394z" />
<glyph unicode="L" horiz-adv-x="1124" d="M141 324v1087h391v-1016q0 -86 74 -86h490v-309h-570q-204 6 -293 76.5t-92 247.5z" />
<glyph unicode="M" horiz-adv-x="1916" d="M100 0l119 1411h350q248 -434 389 -840q140 401 390 840h350l119 -1411h-390l-51 748q-48 -87 -98.5 -200t-84 -196.5t-87.5 -226.5h-295q-54 143 -87.5 226.5t-84 196.5t-98.5 200l-52 -748h-389z" />
<glyph unicode="N" horiz-adv-x="1482" d="M147 0v1411h369q342 -519 426 -713v713h393v-1411h-368q2 0 -16.5 45t-56 127t-86.5 180t-120 220t-145 231v-803h-396z" />
<glyph unicode="O" horiz-adv-x="1685" d="M76 705q0 153 46 278t121 207.5t176 138.5t206.5 80.5t216.5 24.5q110 0 216 -24.5t207 -80.5t177 -138.5t122 -207.5t46 -278t-46 -278t-122 -207t-177 -138t-207 -80.5t-216 -24.5q-111 0 -216.5 24.5t-206.5 80.5t-176 138t-121 207t-46 278zM467 705q0 -84 22.5 -153 t59.5 -114.5t86 -76.5t101 -44.5t106 -13.5q68 0 132 22.5t119.5 68.5t89.5 126.5t34 184.5t-34 185t-89.5 126.5t-119.5 68.5t-132 23q-54 0 -106 -13.5t-101 -45t-86 -77t-59.5 -114.5t-22.5 -153z" />
<glyph unicode="P" horiz-adv-x="1294" d="M147 0v1411h639q59 0 122 -17t123.5 -54t108.5 -88.5t77.5 -126t29.5 -160.5q0 -110 -34 -196t-84.5 -135.5t-117 -81t-123 -42t-110.5 -10.5h-237v-500h-394zM541 811h174q58 0 101.5 41t43.5 106q0 66 -42.5 105t-102.5 39h-174v-291z" />
<glyph unicode="Q" horiz-adv-x="1681" d="M74 700q0 110 24 206.5t65.5 170t100 134t125.5 101.5t143.5 69t153 40.5t154.5 12.5q110 0 216 -25t207 -82t177 -140t122 -208.5t46 -278.5q0 -274 -153.5 -459.5t-412.5 -240.5q16 -35 56 -68.5t102 -33.5q105 0 270 43v-256q-58 -26 -144.5 -41t-162.5 -15 q-115 0 -218 44t-174 127.5t-87 189.5q-270 52 -440 243.5t-170 466.5zM465 700q0 -178 105 -292.5t268 -114.5q164 0 270 114.5t106 292.5q0 104 -34 187t-89 132t-119.5 74t-131.5 25q-54 0 -106 -15t-101 -48.5t-86 -81.5t-59.5 -118.5t-22.5 -154.5z" />
<glyph unicode="R" horiz-adv-x="1378" d="M147 0v1411h615q135 0 241.5 -48t172 -150.5t65.5 -247.5q0 -90 -27.5 -164t-72.5 -121t-96 -75t-105 -38q19 -4 39.5 -18.5t29 -25t13.5 -17.5q199 -245 344 -506h-424q-55 95 -142 225t-163 232q-2 2 -9.5 12.5t-12 16t-12.5 13t-16 11.5t-16 4h-30v-514h-394zM535 811 h174q58 0 101.5 41t43.5 106q0 66 -42.5 105t-102.5 39h-174v-291z" />
<glyph unicode="S" d="M86 999q0 193 159.5 314t440.5 121q106 0 240.5 -30.5t208.5 -72.5v-297q-265 92 -451 92q-100 0 -150.5 -35t-52.5 -90v-7.5t4 -17.5t11.5 -24t24 -23.5t40.5 -19.5l74 -22q118 -36 186.5 -60.5t152 -67t125.5 -89t69 -117.5q21 -56 21 -124q0 -18 -1 -36 q-8 -95 -40.5 -167t-83 -119t-123 -76.5t-154.5 -41.5t-183 -12q-125 0 -262.5 32.5t-235.5 84.5v322q95 -52 244.5 -91.5t253.5 -39.5q87 0 134 25.5t57 84.5q4 23 -7.5 43.5t-31 35t-55.5 30t-66.5 25.5t-79.5 24l-115 39q-73 21 -131 53t-94 64.5t-62.5 73t-39 70.5 t-19 65.5t-7.5 50t-1 30.5z" />
<glyph unicode="T" horiz-adv-x="1249" d="M31 1102v309h1188v-309h-398v-1102h-391v1102h-399z" />
<glyph unicode="U" horiz-adv-x="1503" d="M133 598v813h389v-778q0 -67 10.5 -121t25.5 -87.5t38.5 -57.5t42 -35.5t44.5 -17.5t38 -7t29 0h4h4q17 0 28.5 0.5t37 6.5t44 17.5t41 35.5t37.5 57.5t25 87.5t10 121v778h389v-813q0 -122 -25.5 -220t-64.5 -161.5t-96.5 -110.5t-110.5 -71t-119 -38t-108.5 -17 t-91.5 -3q-50 0 -93 3t-109.5 17t-120 38t-111.5 71t-97 110.5t-64.5 161.5t-25.5 220z" />
<glyph unicode="V" horiz-adv-x="1345" d="M0 1411h416l258 -907l258 907h414l-500 -1411h-346z" />
<glyph unicode="W" horiz-adv-x="2088" d="M8 1411h408l235 -842q110 357 258 682h271q148 -325 258 -682l235 842h408l-424 -1411h-352q-67 224 -123.5 386t-137.5 343q-56 -125 -105.5 -258t-79 -226t-75.5 -245h-352z" />
<glyph unicode="X" horiz-adv-x="1361" d="M-2 0l461 729l-434 682h448l209 -407l207 407h444l-430 -680l465 -731h-450l-238 453l-238 -453h-444z" />
<glyph unicode="Y" horiz-adv-x="1314" d="M-20 1411h442l235 -528l234 528h442l-479 -809v-602h-391v602z" />
<glyph unicode="Z" horiz-adv-x="1380" d="M70 0v246l692 856h-658v309h1194v-248l-694 -854h686v-309h-1220z" />
<glyph unicode="[" horiz-adv-x="765" d="M121 -410v1821h592v-258h-258v-1305h258v-258h-592z" />
<glyph unicode="\" horiz-adv-x="993" d="M57 1411h289l590 -1411h-291z" />
<glyph unicode="]" horiz-adv-x="765" d="M53 -152h258v1305h-258v258h592v-1821h-592v258z" />
<glyph unicode="_" horiz-adv-x="1499" d="M172 -29h1155v-245h-1155v245z" />
<glyph unicode="`" horiz-adv-x="1085" d="M264 1503h307l152 -366h-254z" />
<glyph unicode="a" horiz-adv-x="1161" d="M59 299q0 67 24.5 123t65 93.5t93.5 63.5t108 38t111 12q97 0 170 -8q0 59 -40.5 93t-125.5 34q-96 0 -322 -70v254q120 43 212.5 63.5t207.5 20.5q88 0 163.5 -23t140 -72.5t102 -139.5t37.5 -212v-256q0 -55 36 -55q33 0 97 25v-232q-141 -74 -252 -74 q-55 0 -111.5 37.5t-77.5 83.5q-44 -59 -134.5 -88.5t-160.5 -29.5q-144 0 -244 86.5t-100 232.5zM420 324q0 -32 23 -63.5t71 -31.5q26 0 60 10.5t57 30.5v174q-33 2 -72 2q-38 0 -67 -12.5t-43.5 -32.5t-21.5 -39.5t-7 -37.5z" />
<glyph unicode="b" horiz-adv-x="1247" d="M115 0v1454h372v-514q44 35 110.5 55.5t125.5 20.5q86 0 168 -34.5t147.5 -97.5t105.5 -161t40 -215q0 -90 -18.5 -167t-48.5 -130t-71 -95.5t-82.5 -67.5t-86.5 -42t-80.5 -23t-65.5 -6q-170 0 -282 123l-21 -100h-313zM487 295q55 -41 144 -41q85 0 140.5 71.5 t55.5 174.5q0 99 -58.5 174.5t-154.5 75.5q-67 0 -127 -37v-418z" />
<glyph unicode="c" horiz-adv-x="1052" d="M61 492q0 96 32 181.5t85.5 147t123 106.5t146.5 67t154 22q165 0 369 -51v-267q-75 19 -162 29q-72 8 -114 8h-15q-64 0 -112 -21t-75 -56.5t-40 -76.5t-13 -87q0 -95 62 -165.5t178 -70.5h15q41 0 114 8q87 10 162 29v-268q-225 -50 -369 -50q-77 0 -153.5 21.5 t-146 65t-123 104t-85.5 144.5t-33 180z" />
<glyph unicode="d" horiz-adv-x="1308" d="M63 508q0 117 40 215t105.5 161t147.5 97.5t168 34.5q59 0 125.5 -20.5t110.5 -55.5v514h373v-1141q0 -55 36 -55q33 0 97 25v-232q-141 -74 -252 -74q-55 0 -111.5 37.5t-77.5 83.5q-111 -121 -309 -121q-30 0 -65.5 6t-80.5 23t-86.5 42t-82.5 67.5t-71 95.5t-48.5 130 t-18.5 167zM420 500q0 -103 55.5 -174.5t140.5 -71.5q89 0 144 41v418q-60 37 -127 37q-96 0 -154.5 -75.5t-58.5 -174.5z" />
<glyph unicode="e" horiz-adv-x="1136" d="M63 502q0 119 41.5 217.5t112 162.5t162 99t192.5 35q237 0 370.5 -141.5t133.5 -387.5l-4 -90h-618q5 -61 61 -109t160 -48q55 0 164 16t174 33v-240q-131 -36 -224 -53.5t-202 -18.5q-113 0 -206.5 31.5t-165 94.5t-111.5 165t-40 234zM444 590h252q1 7 1 13 q-1 17 -5 37q-6 26 -18.5 51.5t-39 41t-63.5 15.5t-64 -16t-41 -41q-12 -25 -18 -51q-4 -19 -5 -37q0 -7 1 -13z" />
<glyph unicode="f" horiz-adv-x="841" d="M53 748v243h148v127q0 70 15.5 124.5t37.5 89.5t61 59.5t69.5 36.5t80.5 18t76.5 7t74.5 1h244v-270h-229q-58 0 -58 -64v-129h234v-243h-234v-748h-372v748h-148z" />
<glyph unicode="g" horiz-adv-x="1249" d="M66 483q0 124 35 222.5t86.5 155t116.5 93.5t117 49.5t97 12.5q169 0 283 -125l20 100h314v-1014q0 -192 -133.5 -299.5t-385.5 -107.5q-293 0 -442 74v264q95 -38 200 -58t167 -20q139 0 196.5 44.5t57.5 133.5v51q-72 -82 -269 -82q-86 0 -167.5 34t-147 96.5 t-105.5 160.5t-40 215zM422 492q0 -99 58.5 -173.5t154.5 -74.5q71 0 127 35v417q-58 43 -144 43q-85 0 -140.5 -72t-55.5 -175z" />
<glyph unicode="h" horiz-adv-x="1216" d="M115 0v1436h362v-496q99 76 248 76q80 0 148.5 -23.5t125 -72t89 -134t32.5 -200.5v-586h-379v530q0 43 -2 72.5t-9.5 61.5t-21.5 51.5t-38 32t-58 12.5t-71 -11t-56 -26v-723h-370z" />
<glyph unicode="i" horiz-adv-x="598" d="M102 1284q0 81 42.5 125.5t152.5 44.5t151 -44.5t41 -125.5q0 -170 -192 -170q-195 0 -195 170zM115 0v991h368v-991h-368z" />
<glyph unicode="j" horiz-adv-x="602" d="M-94 -150h133q27 0 44 11.5t23 33t7.5 35t1.5 35.5v1026h372v-1059q0 -185 -103 -268.5t-312 -83.5h-166v270zM106 1284q0 81 42.5 125.5t152.5 44.5t151.5 -44.5t41.5 -125.5q0 -170 -193 -170q-195 0 -195 170z" />
<glyph unicode="k" horiz-adv-x="1144" d="M115 0v1454h370v-711q59 48 114.5 120.5t78.5 127.5h393q-169 -283 -369 -436q117 -104 244.5 -257t218.5 -298h-415q-45 76 -121.5 176t-143.5 160v-336h-370z" />
<glyph unicode="l" horiz-adv-x="700" d="M111 315v1139h366v-1110q0 -74 62 -74h135v-278h-166q-109 0 -180.5 14.5t-122 51t-72.5 99t-22 158.5z" />
<glyph unicode="m" horiz-adv-x="1748" d="M115 0v991h350l10 -82q47 56 106.5 81.5t112.5 25.5q156 0 250 -107q126 107 256 107q72 0 129.5 -9t119 -39t102.5 -80.5t67.5 -138.5t26.5 -208v-541h-383l-2 530q0 118 -25.5 170t-85.5 52q-55 0 -102 -43q14 -58 14 -113v-596h-375v530q0 117 -26 169.5t-85 52.5 q-17 0 -43.5 -11t-44.5 -32v-709h-372z" />
<glyph unicode="n" horiz-adv-x="1220" d="M115 0v991h348l14 -82q115 107 262 107q32 0 63 -4.5t69.5 -17.5t72 -34.5t66 -58t55.5 -85t37 -119t14 -156.5v-541h-385v530q0 127 -30.5 174.5t-94.5 47.5q-56 0 -119 -45v-707h-372z" />
<glyph unicode="o" d="M61 492q0 108 34.5 198t91.5 150t131 101q76 41 154 59q74 17 148 16h9q83 0 160.5 -15.5t153 -54t131 -96t90 -148t34.5 -204.5q0 -126 -43.5 -226.5t-121 -163.5t-179 -96.5t-221.5 -34.5h-17q-70 0 -140 15q-78 17 -153.5 57.5t-133.5 99t-93 147.5t-35 196zM426 500 q0 -106 59.5 -176t145.5 -70q87 0 146 68t59 178q0 104 -59.5 171.5t-145.5 67.5q-85 0 -145 -69.5t-60 -169.5z" />
<glyph unicode="p" horiz-adv-x="1247" d="M115 -410v1401h313l21 -100q114 125 282 125q30 0 65.5 -6.5t80.5 -23t87 -42t82.5 -68t70.5 -96t48.5 -130.5t18.5 -167q0 -117 -40 -215t-105.5 -160.5t-147.5 -96.5t-168 -34q-59 0 -126 19.5t-110 54.5v-461h-372zM487 279q56 -35 127 -35q96 0 154.5 74.5 t58.5 173.5q0 103 -55.5 175t-140.5 72q-86 0 -144 -43v-417z" />
<glyph unicode="q" horiz-adv-x="1247" d="M63 483q0 90 18.5 167t48.5 130.5t70.5 96t82.5 68t87 42t80.5 23t65.5 6.5q169 0 283 -125l20 100h314v-1401h-373v461q-43 -35 -110 -54.5t-126 -19.5q-86 0 -168 34t-147.5 96.5t-105.5 160.5t-40 215zM420 492q0 -99 58.5 -173.5t154.5 -74.5q71 0 127 35v417 q-58 43 -144 43q-85 0 -140.5 -72t-55.5 -175z" />
<glyph unicode="r" horiz-adv-x="868" d="M115 0v991h334l20 -106q132 121 256 121q44 0 106 -9v-280q-53 6 -86 6q-52 0 -129.5 -18t-126.5 -46v-659h-374z" />
<glyph unicode="s" horiz-adv-x="985" d="M74 685.5v19.5q0 129 112.5 220t323.5 91q89 0 186 -24t172 -58v-252q-72 32 -161 53t-156 21q-107 0 -107 -51q0 -37 82 -60q171 -54 218 -75q121 -54 158 -141q21 -49 21 -115q0 -11 -1 -23q-7 -77 -35 -134t-69.5 -91t-102.5 -54.5t-123.5 -27.5t-142.5 -7 q-87 0 -184.5 24t-174.5 58v254q75 -33 184.5 -57.5t178.5 -24.5q110 0 110 54q0 13 -7 23t-27 18.5t-33 12.5t-47 13l-111 31q-56 18 -100.5 45t-71 53t-46 60t-28 56.5t-13.5 51.5t-5 36.5z" />
<glyph unicode="t" horiz-adv-x="823" d="M43 748v243h145v205l373 113v-318h187v-243h-187v-412q0 -74 62 -74h133v-270h-164q-110 0 -182.5 14.5t-124 51t-74.5 99t-23 158.5v433h-145z" />
<glyph unicode="u" horiz-adv-x="1282" d="M104 451v540h383v-530q0 -86 16 -134.5t42 -64.5t69 -16q25 0 61.5 13.5t59.5 31.5v700h371v-678q0 -28 11 -41.5t26 -13.5q32 0 96 25v-232q-141 -74 -252 -74q-55 0 -111 37.5t-77 83.5q-61 -65 -140.5 -93t-154.5 -28q-63 0 -114 9t-106.5 39t-93 80t-62 138.5 t-24.5 207.5z" />
<glyph unicode="v" horiz-adv-x="1122" d="M0 991h393l168 -549l164 549h397l-397 -991h-328z" />
<glyph unicode="w" horiz-adv-x="1624" d="M8 991h400l137 -555l112 518h310l120 -518l132 555h397l-334 -991h-348l-119 471l-121 -471h-350z" />
<glyph unicode="x" horiz-adv-x="1189" d="M8 0l365 500l-359 491h430l150 -266l154 266h430l-361 -491l365 -500h-432l-156 276l-156 -276h-430z" />
<glyph unicode="y" horiz-adv-x="1140" d="M0 991h406l165 -536l164 536h406l-482 -1190q-25 -72 -57 -116t-79 -67t-100 -30q-42 -6 -101 -6h-33h-172v266h151q29 0 49 58l64 174z" />
<glyph unicode="z" horiz-adv-x="1126" d="M63 0v223l457 502h-424v266h951v-223l-459 -502h459v-266h-984z" />
<glyph unicode="{" horiz-adv-x="819" d="M43 428v131q68 23 102.5 49t34.5 68v371q0 176 92 270t281 94h215v-237h-180q-34 0 -54 -19t-20 -55v-320q0 -121 -38 -186.5t-130 -89.5q168 -48 168 -281v-297q0 -43 20 -70.5t54 -27.5h180v-238h-215q-189 0 -281 94.5t-92 270.5v371q0 39 -41 67.5t-96 34.5z" />
<glyph unicode="|" horiz-adv-x="376" d="M119 -238v1864h139v-1864h-139z" />
<glyph unicode="}" horiz-adv-x="819" d="M51 -172h180q34 0 54 27.5t20 70.5v297q0 233 168 281q-92 24 -130 89.5t-38 186.5v320q0 36 -20 55t-54 19h-180v237h215q189 0 281 -94t92 -270v-371q0 -42 34.5 -68t102.5 -49v-131q-55 -6 -96 -34.5t-41 -67.5v-371q0 -176 -92 -270.5t-281 -94.5h-215v238z" />
<glyph unicode="&#xa1;" horiz-adv-x="565" d="M90 854q0 170 195 170q192 0 192 -170q0 -82 -41 -127t-151 -45t-152.5 45.5t-42.5 126.5zM94 -29l56 615h268l53 -615v-381h-377v381z" />
<glyph unicode="&#xa2;" horiz-adv-x="1107" d="M90 492q0 118 47.5 218.5t124 165t170 101.5t189.5 39v196h139v-204q110 -11 239 -43v-267q-75 19 -161.5 29t-128.5 8q-64 0 -112 -21t-75 -56.5t-40 -76.5t-13 -87q0 -95 62 -165.5t178 -70.5q42 -2 128.5 8t161.5 29v-268q-123 -29 -239 -41v-209h-139v200 q-96 2 -189 38t-170 99t-124 161.5t-48 216.5z" />
<glyph unicode="&#xa3;" horiz-adv-x="1243" d="M106 0v274h158v330h-155v225h155v127q0 210 148.5 338.5t421.5 128.5q108 0 260 -34v-273q-168 31 -265 31q-90 0 -138 -61.5t-48 -139.5v-117h254v-225h-254v-330h512v-274h-1049z" />
<glyph unicode="&#xa4;" horiz-adv-x="1243" d="M96 264l170 170q-49 91 -48 182.5t48 176.5l-170 170l176 176l168 -168q87 47 180.5 48.5t184.5 -46.5l166 166l176 -176l-166 -168q50 -91 48 -184.5t-50 -178.5l166 -166l-176 -176l-168 166q-85 -45 -175.5 -45.5t-181.5 47.5l-172 -170zM480.5 618.5 q-1.5 -54.5 43.5 -102.5q49 -46 103.5 -44.5t97.5 44.5q42 43 43.5 97t-43.5 102q-49 46 -103.5 44.5t-97.5 -44.5q-42 -42 -43.5 -96.5z" />
<glyph unicode="&#xa5;" horiz-adv-x="1466" d="M63 1395h437l233 -455l232 455h438l-408 -686h219v-168h-286v-168h286v-164h-286v-209h-387v209h-295v164h295v168h-295v168h229z" />
<glyph unicode="&#xa6;" horiz-adv-x="407" />
<glyph unicode="&#xa7;" horiz-adv-x="1175" d="M94.5 525.5q2.5 17.5 1.5 27.5q16 154 148 244q-108 120 -90 276q21 153 150 246.5t339 93.5q187 0 395 -96l-86 -266q-158 66 -252 75q-176 17 -190 -84q0 -2 -0.5 -5.5t2 -14t8 -20.5t19.5 -22.5t34 -21.5l60 -30q51 -22 83.5 -36.5t76.5 -36t72 -37.5t62.5 -39t55 -43 t43 -46.5t34.5 -53t19.5 -59t7.5 -67.5q0 -36 -6 -74q-24 -151 -137 -239q86 -92 86 -211q0 -36 -6 -70q-34 -175 -148 -250.5t-298 -75.5q-46 0 -121 7q-163 16 -359 108l86 266q199 -83 310 -94q37 -2 71.5 -1.5t63.5 19.5t37 56q6 25 -6 46.5t-40.5 39.5t-64 34.5 t-82.5 35.5q-4 1 -6 2l-98 45q-59 26 -106 60t-75 68t-49 70.5t-28 67.5t-13 59.5t-3.5 46zM430 545q0 -63 71 -120t181 -83q74 54 74 113q0 57 -76.5 110t-187.5 84q-62 -47 -62 -104z" />
<glyph unicode="&#xa8;" horiz-adv-x="1210" d="M246 1286q0 76 34 118t123 42q91 0 123.5 -41.5t32.5 -118.5q0 -158 -156 -158q-157 0 -157 158zM653 1286q0 77 34 118.5t126 41.5q88 0 120 -41.5t32 -118.5q0 -158 -152 -158q-88 0 -124 42t-36 116z" />
<glyph unicode="&#xa9;" horiz-adv-x="1603" d="M94 700q0 154 41.5 279.5t111 208.5t162 139.5t191.5 81.5t203 25t202.5 -25t191.5 -81.5t162 -139.5t110.5 -208.5t41.5 -279.5q0 -329 -194 -526t-516 -197h4q-322 0 -516.5 197t-194.5 526zM254 700q0 -254 150.5 -406.5t400.5 -152.5h-4q250 0 400.5 152.5 t150.5 406.5q0 119 -32.5 217t-86 162.5t-125.5 108.5t-148 63t-157 19t-157 -19t-148 -63t-125.5 -108.5t-86 -162.5t-32.5 -217zM459 698q0 -81 29 -148t77 -109t107 -64.5t121 -22.5q120 0 219 29v115q-48 -8 -85 -12t-48.5 -5t-37 -0.5t-26.5 0.5q-84 0 -143.5 59 t-59.5 158t57.5 158t145.5 59q103 0 197 -18v119q-107 26 -219 26q-83 0 -158 -39t-125.5 -119.5t-50.5 -185.5z" />
<glyph unicode="&#xaa;" horiz-adv-x="811" d="M86 973q0 68 42.5 118.5t98.5 72.5t113 22q100 0 131 -10v28q0 39 -29.5 55.5t-99.5 16.5q-59 0 -184 -39v149q124 48 248 48q141 0 216.5 -64.5t75.5 -216.5v-367h-204l-17 58q-19 -30 -74.5 -49t-99.5 -19q-87 0 -152 54t-65 143zM106 545v139h592v-139h-592zM295 985 q0 -24 18 -41.5t62 -17.5q20 0 50.5 11.5t45.5 25.5l-2 106q-24 4 -84 4q-30 0 -50 -8t-27.5 -23.5t-10 -27.5t-2.5 -29z" />
<glyph unicode="&#xab;" horiz-adv-x="1185" d="M49 506l293 426h324l-293 -426l293 -428h-324zM516 506l295 426h324l-295 -426l295 -428h-324z" />
<glyph unicode="&#xac;" horiz-adv-x="1277" d="M102 500v303h1051v-596h-336v293h-715z" />
<glyph unicode="&#xad;" horiz-adv-x="1003" d="M100 428v274h803v-274h-803z" />
<glyph unicode="&#xae;" horiz-adv-x="1603" d="M94 700q0 154 41.5 279.5t111 208.5t162 139.5t191.5 81.5t203 25t202.5 -25t191.5 -81.5t162 -139.5t110.5 -208.5t41.5 -279.5q0 -329 -194 -526t-516 -197h4q-322 0 -516.5 197t-194.5 526zM254 700q0 -254 150.5 -406.5t400.5 -152.5h-4q250 0 400.5 152.5 t150.5 406.5q0 119 -32.5 217t-86 162.5t-125.5 108.5t-148 63t-157 19t-157 -19t-148 -63t-125.5 -108.5t-86 -162.5t-32.5 -217zM567 365v667h277q93 0 154 -53.5t61 -149.5q0 -88 -37 -139t-104 -59q50 -59 101.5 -134t80.5 -132h-166q-61 110 -131 204q-33 47 -45 47 h-41v-251h-150zM717 735h129q63 0 63 86q0 36 -22 60t-56 24h-114v-170z" />
<glyph unicode="&#xaf;" horiz-adv-x="1087" d="M246 1176v219h596v-219h-596z" />
<glyph unicode="&#xb0;" horiz-adv-x="755" d="M63 1126q0 67 17 120.5t45.5 88t69 57.5t85 32.5t95.5 9.5q66 0 121 -16t100 -50.5t70.5 -96t25.5 -145.5q0 -82 -25.5 -143t-71 -96t-100.5 -51.5t-120 -16.5q-64 0 -118 16.5t-98.5 51.5t-70 96t-25.5 143zM254 1126q0 -61 35 -90.5t86 -29.5q55 0 90 29t35 91 q0 63 -34.5 92t-90.5 29q-53 0 -87 -29t-34 -92z" />
<glyph unicode="&#xb1;" horiz-adv-x="1189" d="M111 0v260h968v-260h-968zM111 623v284h321v264h330v-264h317v-284h-317v-263h-330v263h-321z" />
<glyph unicode="&#xb2;" horiz-adv-x="774" d="M49 942v131l340 350q31 32 47.5 59.5t18.5 39.5t2 30q0 29 -27 52.5t-84 23.5q-87 0 -256 -67v182q130 76 283 76q165 0 249.5 -71.5t84.5 -195.5q0 -113 -160 -268l-160 -149h318v-193h-656z" />
<glyph unicode="&#xb3;" horiz-adv-x="745" d="M63 983v178q157 -55 240 -55q72 0 104.5 24.5t32.5 77.5q-1 1 0.5 6.5t-2 16t-9 21t-20.5 20.5t-36 14h-187v172h176q28 9 45 28.5t20 34.5l3 15q0 50 -30.5 72t-100.5 22q-90 0 -213 -49v180q37 17 117 35.5t137 18.5q157 0 244 -66t92 -180q0 -7 -1 -17.5t-7.5 -36.5 t-17.5 -49.5t-35 -50t-56 -43.5q33 -15 57.5 -40.5t35.5 -47.5t17 -49t6.5 -36t0.5 -17q-5 -117 -92 -185.5t-244 -68.5q-57 0 -148.5 19t-128.5 36z" />
<glyph unicode="&#xb4;" horiz-adv-x="1085" d="M264 1137l152 366h307l-205 -366h-254z" />
<glyph unicode="&#xb6;" horiz-adv-x="1302" d="M68 1040q0 153 115.5 262t277.5 109h676v-1741h-271v1479h-168v-1479h-270v1004q-151 14 -255.5 118.5t-104.5 247.5z" />
<glyph unicode="&#xb7;" horiz-adv-x="546" d="M80 639q0 81 42 126.5t152 45.5t151.5 -45.5t41.5 -126.5q0 -168 -193 -168q-106 0 -150 44.5t-44 123.5z" />
<glyph unicode="&#xb8;" horiz-adv-x="1198" d="M328 -160q124 -41 245 -41q55 0 71.5 33.5t1 79.5t-38 86.5t-42.5 62.5h144q69 -58 115 -131t46 -139q0 -112 -81 -172t-228 -47q-118 12 -233 66v202z" />
<glyph unicode="&#xb9;" horiz-adv-x="636" d="M70 942v176h143v469l-141 -59v178l215 98h176v-686h139v-176h-532z" />
<glyph unicode="&#xba;" horiz-adv-x="856" d="M82 1100q0 87 31.5 154.5t83 106t110.5 57t119 16.5q64 0 121.5 -17t109 -53t82.5 -103t31 -157q0 -160 -95.5 -246t-246.5 -86q-60 -2 -119.5 17t-111 56.5t-83.5 104t-32 150.5zM133 545v139h596v-139h-596zM291 1106q0 -70 39.5 -115t97.5 -45t96.5 44t38.5 116 q0 68 -38.5 112t-96.5 44q-57 0 -97 -45.5t-40 -110.5z" />
<glyph unicode="&#xbb;" horiz-adv-x="1185" d="M51 78l295 428l-295 426h324l295 -426l-295 -428h-324zM520 78l293 428l-293 426h324l293 -426l-293 -428h-324z" />
<glyph unicode="&#xbc;" horiz-adv-x="1867" d="M100 549v176h144v469l-142 -59v178l215 98h177v-686h139v-176h-533zM516 0l586 1411h188l-585 -1411h-189zM1061 186h375v-186h250v186h98v185h-98v491h-222l-403 -538v-138zM1286 371l150 198v-198h-150z" />
<glyph unicode="&#xbd;" horiz-adv-x="1904" d="M98 549v176h144v469l-142 -59v178l215 98h177v-686h139v-176h-533zM514 0l586 1411h188l-586 -1411h-188zM1161 0v131l340 350q31 32 47.5 59.5t18.5 39.5t2 30q0 29 -27 52.5t-84 23.5q-84 0 -256 -68v183q130 76 283 76q165 0 249.5 -71.5t84.5 -195.5 q0 -113 -160 -268l-160 -149h318v-193h-656z" />
<glyph unicode="&#xbe;" horiz-adv-x="1929" d="M92 594v178q157 -55 240 -55q72 0 104.5 24.5t32.5 77.5q-1 1 0.5 6.5t-2.5 16t-9.5 21t-20.5 20.5t-36 14h-186v172h176q28 9 45 28.5t20 34.5l3 15q0 50 -30.5 72t-100.5 22q-90 0 -213 -49v180q36 17 116.5 35t137.5 18q157 0 244 -65.5t92 -179.5q0 -7 -1 -17.5 t-7.5 -36.5t-17.5 -49.5t-35 -50t-56 -43.5q33 -15 57.5 -40.5t35.5 -47.5t17 -49t6.5 -36t0.5 -17q-5 -117 -92 -185.5t-244 -68.5q-57 0 -148.5 19t-128.5 36zM578 0l585 1411h189l-586 -1411h-188zM1122 186h375v-186h250v186h98v185h-98v491h-221l-404 -538v-138z M1348 371l149 198v-198h-149z" />
<glyph unicode="&#xbf;" horiz-adv-x="1060" d="M70 -23q3 93 20 149q57 183 272 273q13 6 37.5 16t35.5 15t27.5 15.5t24 21t13.5 27.5t6 38v60h332v-35q0 -40 -0.5 -61.5t-3 -55.5t-8 -54t-15.5 -47.5t-25.5 -46.5t-37.5 -40.5t-52 -40t-69 -35.5q-6 -3 -27.5 -12t-32 -13.5t-30.5 -15.5t-31 -20t-26 -23.5 t-22.5 -29.5t-13.5 -35t-6 -43q0 -56 40.5 -95t119.5 -39q157 0 352 103l29 -264q-164 -105 -381 -117q-155 -10 -277 42.5t-186.5 148t-64.5 214.5zM479 858q0 170 193 170q194 0 194 -170q0 -81 -42 -126.5t-152 -45.5t-151.5 45.5t-41.5 126.5z" />
<glyph unicode="&#xc0;" horiz-adv-x="1394" d="M6 0q125 419 237.5 733.5t284.5 677.5h338q172 -364 285.5 -680t237.5 -731h-394q-65 266 -92 362h-411q-34 -122 -93 -362h-393zM381 1923h307l152 -367h-254zM573 641h250q-49 156 -125 379q-76 -223 -125 -379z" />
<glyph unicode="&#xc1;" horiz-adv-x="1394" d="M6 0q125 419 237.5 733.5t284.5 677.5h338q172 -364 285.5 -680t237.5 -731h-394q-65 266 -92 362h-411q-34 -122 -93 -362h-393zM569 1556l152 367h307l-205 -367h-254zM573 641h250q-49 156 -125 379q-76 -223 -125 -379z" />
<glyph unicode="&#xc2;" horiz-adv-x="1394" d="M6 0q125 419 237.5 733.5t284.5 677.5h338q172 -364 285.5 -680t237.5 -731h-394q-65 266 -92 362h-411q-34 -122 -93 -362h-393zM289 1556l246 367h325l246 -367h-252l-156 175l-153 -175h-256zM573 641h250q-49 156 -125 379q-76 -223 -125 -379z" />
<glyph unicode="&#xc3;" horiz-adv-x="1394" d="M6 0q125 419 237.5 733.5t284.5 677.5h338q172 -364 285.5 -680t237.5 -731h-394q-65 266 -92 362h-411q-34 -122 -93 -362h-393zM324 1579q0 139 72 223t186 84q45 0 141 -49q72 -39 96 -39q38 0 49 88h201q0 -58 -12.5 -108.5t-42 -97t-86.5 -74t-137 -27.5 q-51 0 -132 47q-65 37 -96 37q-37 0 -51 -84h-188zM573 641h250q-49 156 -125 379q-76 -223 -125 -379z" />
<glyph unicode="&#xc4;" horiz-adv-x="1394" d="M6 0q125 419 237.5 733.5t284.5 677.5h338q172 -364 285.5 -680t237.5 -731h-394q-65 266 -92 362h-411q-34 -122 -93 -362h-393zM338 1706q0 76 34.5 118t123.5 42q91 0 123 -41.5t32 -118.5q0 -74 -35 -116t-120 -42q-158 0 -158 158zM573 641h250q-49 156 -125 379 q-76 -223 -125 -379zM745 1706q0 77 34 118.5t126 41.5q88 0 120 -41.5t32 -118.5q0 -158 -152 -158q-88 0 -124 42t-36 116z" />
<glyph unicode="&#xc5;" horiz-adv-x="1394" d="M6 0q125 419 237.5 733.5t284.5 677.5h338q172 -364 285.5 -680t237.5 -731h-394q-65 266 -92 362h-411q-34 -122 -93 -362h-393zM446 1782q0 105 73.5 172t176.5 67t176.5 -66t73.5 -173t-73.5 -173.5t-176.5 -66.5t-176.5 67.5t-73.5 172.5zM573 641h250 q-49 156 -125 379q-76 -223 -125 -379zM608 1782q0 -38 25 -61t63 -23t63 23t25 61t-25 61t-63 23t-63 -23t-25 -61z" />
<glyph unicode="&#xc6;" horiz-adv-x="1939" d="M4 0q119 394 238 717.5t293 693.5h1306v-309h-649v-225h592v-304h-592v-184q0 -80 70 -80h579v-309h-653q-206 6 -296 76.5t-91 247.5v36h-297l-111 -360h-389zM590 651h211v451h-78q-19 -51 -40 -119.5t-32 -108t-34.5 -125.5t-26.5 -98z" />
<glyph unicode="&#xc7;" horiz-adv-x="1386" d="M74 705q0 135 41 253.5t111.5 204.5t163 148t197.5 92.5t212 30.5q137 0 274.5 -17t220.5 -41v-297q-64 9 -117.5 15t-85 9.5t-67.5 5t-47 1.5h-43.5h-38.5q-201 0 -313.5 -107t-114.5 -294q2 -188 114.5 -297t313.5 -109h38.5h43.5t47 1.5t67.5 5t85 9.5t117.5 15v-297 q-161 -49 -434 -55q82 -99 82 -191q0 -112 -81 -172t-228 -47q-119 12 -234 66v202q124 -41 246 -41q40 0 60 18t19 48t-10.5 61t-27.5 64q-96 14 -185.5 52t-167 100.5t-135.5 144t-91 189.5t-33 229z" />
<glyph unicode="&#xc8;" horiz-adv-x="1280" d="M141 324v1087h1041v-309h-650v-225h592v-304h-592v-184q0 -80 70 -80h580v-309h-656q-205 6 -294.5 77t-90.5 247zM328 1923h307l151 -367h-254z" />
<glyph unicode="&#xc9;" horiz-adv-x="1280" d="M141 324v1087h1041v-309h-650v-225h592v-304h-592v-184q0 -80 70 -80h580v-309h-656q-205 6 -294.5 77t-90.5 247zM492 1556l151 367h307l-205 -367h-253z" />
<glyph unicode="&#xca;" horiz-adv-x="1280" d="M141 324v1087h1041v-309h-650v-225h592v-304h-592v-184q0 -80 70 -80h580v-309h-656q-205 6 -294.5 77t-90.5 247zM211 1556l246 367h325l246 -367h-252l-155 175l-154 -175h-256z" />
<glyph unicode="&#xcb;" horiz-adv-x="1280" d="M141 324v1087h1041v-309h-650v-225h592v-304h-592v-184q0 -80 70 -80h580v-309h-656q-205 6 -294.5 77t-90.5 247zM260 1706q0 76 34.5 118t123.5 42q91 0 123 -41.5t32 -118.5q0 -74 -35 -116t-120 -42q-158 0 -158 158zM668 1706q0 77 33.5 118.5t125.5 41.5 q88 0 120 -41.5t32 -118.5q0 -158 -152 -158q-88 0 -123.5 41.5t-35.5 116.5z" />
<glyph unicode="&#xcc;" horiz-adv-x="686" d="M70 1923h307l151 -367h-254zM147 0v1411h392v-1411h-392z" />
<glyph unicode="&#xcd;" horiz-adv-x="686" d="M147 0v1411h392v-1411h-392zM156 1556l151 367h307l-204 -367h-254z" />
<glyph unicode="&#xce;" horiz-adv-x="686" d="M-66 1556l246 367h326l246 -367h-252l-156 175l-154 -175h-256zM147 0v1411h392v-1411h-392z" />
<glyph unicode="&#xcf;" horiz-adv-x="686" d="M-16 1706q0 76 34 118t123 42q91 0 123.5 -41.5t32.5 -118.5q0 -158 -156 -158q-157 0 -157 158zM147 0v1411h392v-1411h-392zM391 1706q0 77 34 118.5t126 41.5q88 0 119.5 -41.5t31.5 -118.5q0 -158 -151 -158q-88 0 -124 42t-36 116z" />
<glyph unicode="&#xd0;" horiz-adv-x="1521" d="M6 598v219h187v594h555q137 0 261 -46t221.5 -132t155.5 -223.5t58 -307.5q0 -139 -38 -255t-103.5 -197.5t-154 -138.5t-189.5 -84t-211 -27h-555v598h-187zM584 309h86q183 0 277.5 101.5t94.5 291.5q0 192 -92.5 296t-279.5 104h-86v-285h227v-219h-227v-289z" />
<glyph unicode="&#xd1;" horiz-adv-x="1482" d="M147 0v1411h369q342 -519 426 -713v713h393v-1411h-368q2 0 -16.5 45t-56 127t-86.5 180t-120 220t-145 231v-803h-396zM369 1579q0 139 72 223t186 84q45 0 141 -49q72 -39 96 -39q38 0 49 88h201q0 -58 -12.5 -108.5t-42 -97t-86.5 -74t-137 -27.5q-50 0 -131 47 q-65 37 -97 37q-37 0 -51 -84h-188z" />
<glyph unicode="&#xd2;" horiz-adv-x="1685" d="M76 705q0 -153 46 -278t121 -207t176 -138t206.5 -80.5t216.5 -24.5q110 0 216 24.5t207 80.5t177 138t122 207t46 278t-46 278t-122 207.5t-177 138.5t-207 80.5t-216 24.5q-111 0 -216.5 -24.5t-206.5 -80.5t-176 -138.5t-121 -207.5t-46 -278zM467 705q0 84 22.5 153 t59.5 114.5t86 77t101 45t106 13.5q68 0 132 -23t119.5 -68.5t89.5 -126.5t34 -185t-34 -184.5t-89.5 -126.5t-119.5 -68.5t-132 -22.5q-54 0 -106 13.5t-101 44.5t-86 76.5t-59.5 114.5t-22.5 153zM496 1923h307l151 -367h-254z" />
<glyph unicode="&#xd3;" horiz-adv-x="1685" d="M76 705q0 153 46 278t121 207.5t176 138.5t206.5 80.5t216.5 24.5q110 0 216 -24.5t207 -80.5t177 -138.5t122 -207.5t46 -278t-46 -278t-122 -207t-177 -138t-207 -80.5t-216 -24.5q-111 0 -216.5 24.5t-206.5 80.5t-176 138t-121 207t-46 278zM467 705q0 -84 22.5 -153 t59.5 -114.5t86 -76.5t101 -44.5t106 -13.5q68 0 132 22.5t119.5 68.5t89.5 126.5t34 184.5t-34 185t-89.5 126.5t-119.5 68.5t-132 23q-54 0 -106 -13.5t-101 -45t-86 -77t-59.5 -114.5t-22.5 -153zM713 1556l151 367h307l-204 -367h-254z" />
<glyph unicode="&#xd4;" horiz-adv-x="1685" d="M76 705q0 -153 46 -278t121 -207t176 -138t206.5 -80.5t216.5 -24.5q110 0 216 24.5t207 80.5t177 138t122 207t46 278t-46 278t-122 207.5t-177 138.5t-207 80.5t-216 24.5q-111 0 -216.5 -24.5t-206.5 -80.5t-176 -138.5t-121 -207.5t-46 -278zM434 1556l246 367h326 l245 -367h-252l-155 175l-154 -175h-256zM467 705q0 84 22.5 153t59.5 114.5t86 77t101 45t106 13.5q68 0 132 -23t119.5 -68.5t89.5 -126.5t34 -185t-34 -184.5t-89.5 -126.5t-119.5 -68.5t-132 -22.5q-54 0 -106 13.5t-101 44.5t-86 76.5t-59.5 114.5t-22.5 153z" />
<glyph unicode="&#xd5;" horiz-adv-x="1685" d="M76 705q0 153 46 278t121 207.5t176 138.5t206.5 80.5t216.5 24.5q110 0 216 -24.5t207 -80.5t177 -138.5t122 -207.5t46 -278t-46 -278t-122 -207t-177 -138t-207 -80.5t-216 -24.5q-111 0 -216.5 24.5t-206.5 80.5t-176 138t-121 207t-46 278zM467 705q0 -84 22.5 -153 t59.5 -114.5t86 -76.5t101 -44.5t106 -13.5q68 0 132 22.5t119.5 68.5t89.5 126.5t34 184.5t-34 185t-89.5 126.5t-119.5 68.5t-132 23q-54 0 -106 -13.5t-101 -45t-86 -77t-59.5 -114.5t-22.5 -153zM469 1579q0 139 72 223t186 84q45 0 141 -49q72 -39 97 -39q38 0 49 88 h200q0 -58 -12.5 -108.5t-42 -97t-86.5 -74t-137 -27.5q-50 0 -131 47q-65 37 -96 37q-38 0 -52 -84h-188z" />
<glyph unicode="&#xd6;" horiz-adv-x="1685" d="M76 705q0 -153 46 -278t121 -207t176 -138t206.5 -80.5t216.5 -24.5q110 0 216 24.5t207 80.5t177 138t122 207t46 278t-46 278t-122 207.5t-177 138.5t-207 80.5t-216 24.5q-111 0 -216.5 -24.5t-206.5 -80.5t-176 -138.5t-121 -207.5t-46 -278zM467 705q0 84 22.5 153 t59.5 114.5t86 77t101 45t106 13.5q68 0 132 -23t119.5 -68.5t89.5 -126.5t34 -185t-34 -184.5t-89.5 -126.5t-119.5 -68.5t-132 -22.5q-54 0 -106 13.5t-101 44.5t-86 76.5t-59.5 114.5t-22.5 153zM483 1706q0 76 34.5 118t123.5 42q91 0 123.5 -41.5t32.5 -118.5 q0 -158 -156 -158q-158 0 -158 158zM891 1706q0 77 34 118.5t126 41.5q88 0 119.5 -41.5t31.5 -118.5q0 -158 -151 -158q-88 0 -124 42t-36 116z" />
<glyph unicode="&#xd7;" horiz-adv-x="1069" d="M86 791l221 215l230 -224l225 222l217 -211l-227 -222l229 -221l-221 -215l-228 223l-227 -221l-217 211l227 221z" />
<glyph unicode="&#xd8;" horiz-adv-x="1685" d="M76 20l182 183q-182 192 -182 502q0 153 46 278t121 207.5t176 138.5t206.5 80.5t216.5 24.5q130 0 258 -37t233 -111l185 189l92 -91l-180 -184q180 -190 180 -495q0 -153 -46 -278t-122 -207t-177 -138t-207 -80.5t-216 -24.5q-131 0 -257.5 34.5t-228.5 105.5v2 l-188 -189zM467 705q0 -143 57 -234l553 557q-102 80 -235 80q-54 0 -106 -13.5t-101 -45t-86 -77t-59.5 -114.5t-22.5 -153zM610 375v2q102 -74 232 -74q68 0 132 22.5t119.5 68.5t89.5 126.5t34 184.5q0 135 -56 223z" />
<glyph unicode="&#xd9;" horiz-adv-x="1503" d="M133 598q0 -122 25.5 -220t64.5 -161.5t97 -110.5t111.5 -71t120 -38t109.5 -17t93 -3q49 0 91.5 3t108.5 17t119 38t110.5 71t96.5 110.5t64.5 161.5t25.5 220v813h-389v-778q0 -67 -10 -121t-24.5 -87.5t-37.5 -57.5t-41.5 -35.5t-44 -17.5t-37 -6.5t-28.5 -0.5h-4h-4 q-17 0 -29 0.5t-38 6.5t-44.5 17.5t-42 35.5t-38.5 57.5t-25.5 87.5t-10.5 121v778h-389v-813zM446 1923h308l151 -367h-254z" />
<glyph unicode="&#xda;" horiz-adv-x="1503" d="M133 598v813h389v-778q0 -67 10.5 -121t25.5 -87.5t38.5 -57.5t42 -35.5t44.5 -17.5t38 -6.5t29 -0.5h4h4q17 0 28.5 0.5t37 6.5t44 17.5t41 35.5t37.5 57.5t25 87.5t10 121v778h389v-813q0 -122 -25.5 -220t-64.5 -161.5t-96.5 -110.5t-110.5 -71t-119 -38t-108.5 -17 t-91.5 -3q-50 0 -93 3t-109.5 17t-120 38t-111.5 71t-97 110.5t-64.5 161.5t-25.5 220zM590 1556l151 367h308l-205 -367h-254z" />
<glyph unicode="&#xdb;" horiz-adv-x="1503" d="M133 598q0 -122 25.5 -220t64.5 -161.5t97 -110.5t111.5 -71t120 -38t109.5 -17t93 -3q49 0 91.5 3t108.5 17t119 38t110.5 71t96.5 110.5t64.5 161.5t25.5 220v813h-389v-778q0 -67 -10 -121t-24.5 -87.5t-37.5 -57.5t-41.5 -35.5t-44 -17.5t-37 -6.5t-28.5 -0.5h-4h-4 q-17 0 -29 0.5t-38 6.5t-44.5 17.5t-42 35.5t-38.5 57.5t-25.5 87.5t-10.5 121v778h-389v-813zM342 1556l246 367h325l246 -367h-252l-155 175l-154 -175h-256z" />
<glyph unicode="&#xdc;" horiz-adv-x="1503" d="M133 598q0 -122 25.5 -220t64.5 -161.5t97 -110.5t111.5 -71t120 -38t109.5 -17t93 -3q49 0 91.5 3t108.5 17t119 38t110.5 71t96.5 110.5t64.5 161.5t25.5 220v813h-389v-778q0 -67 -10 -121t-24.5 -87.5t-37.5 -57.5t-41.5 -35.5t-44 -17.5t-37 -6.5t-28.5 -0.5h-4h-4 q-17 0 -29 0.5t-38 6.5t-44.5 17.5t-42 35.5t-38.5 57.5t-25.5 87.5t-10.5 121v778h-389v-813zM391 1706q0 76 34.5 118t123.5 42q91 0 123.5 -41.5t32.5 -118.5q0 -158 -156 -158q-158 0 -158 158zM799 1706q0 77 33.5 118.5t125.5 41.5q88 0 120 -41.5t32 -118.5 q0 -158 -152 -158q-88 0 -123.5 41.5t-35.5 116.5z" />
<glyph unicode="&#xdd;" horiz-adv-x="1314" d="M-20 1411h442l235 -528l234 528h442l-479 -809v-602h-391v602zM520 1556l152 367h307l-205 -367h-254z" />
<glyph unicode="&#xde;" horiz-adv-x="1312" d="M147 0v1411h390v-254h264q93 0 175 -28t147.5 -81.5t104 -142t38.5 -200.5q0 -91 -25 -166t-68.5 -126.5t-103 -87.5t-127 -52.5t-141.5 -16.5h-264v-256h-390zM537 557h215q63 0 103 39.5t40 108.5q0 72 -40 112.5t-103 40.5h-215v-301z" />
<glyph unicode="&#xdf;" horiz-adv-x="1241" d="M115 0v860q0 107 15 190t52.5 155t97.5 119.5t153.5 74t217.5 26.5h35q46 0 97 -10.5t111 -39.5t107 -73t79 -120t32 -172q0 -70 -38 -136t-118 -106q96 -28 159 -131.5t63 -212.5t-37.5 -190.5t-107.5 -131t-161.5 -74.5t-207.5 -28h-82v291h84q57 0 104 45t47 104 q0 84 -49 126t-104 42h-82v273h73q38 0 68.5 42t30.5 87q0 56 -36 90.5t-77 34.5q-49 0 -81.5 -25t-46 -70t-18 -86t-3.5 -94v-860h-377z" />
<glyph unicode="&#xe0;" horiz-adv-x="1161" d="M59 299q0 -146 100 -232.5t244 -86.5q70 0 160.5 29.5t134.5 88.5q21 -46 77.5 -83.5t111.5 -37.5q111 0 252 74v232q-64 -25 -97 -25q-36 0 -36 55v256q0 122 -37.5 212t-102 139.5t-140 72.5t-163.5 23q-115 0 -207.5 -20.5t-212.5 -63.5v-254q226 70 322 70 q85 0 125.5 -34t40.5 -93q-73 8 -170 8q-56 0 -111 -12t-108 -38t-93.5 -63.5t-65 -93.5t-24.5 -123zM233 1513h308l151 -366h-254zM420 324q0 18 7 37.5t21.5 39.5t43.5 32.5t67 12.5q39 0 72 -2v-174q-23 -20 -57 -30.5t-60 -10.5q-48 0 -71 31.5t-23 63.5z" />
<glyph unicode="&#xe1;" horiz-adv-x="1161" d="M59 299q0 67 24.5 123t65 93.5t93.5 63.5t108 38t111 12q97 0 170 -8q0 59 -40.5 93t-125.5 34q-96 0 -322 -70v254q120 43 212.5 63.5t207.5 20.5q88 0 163.5 -23t140 -72.5t102 -139.5t37.5 -212v-256q0 -55 36 -55q33 0 97 25v-232q-141 -74 -252 -74 q-55 0 -111.5 37.5t-77.5 83.5q-44 -59 -134.5 -88.5t-160.5 -29.5q-144 0 -244 86.5t-100 232.5zM412 1147l151 366h307l-204 -366h-254zM420 324q0 -32 23 -63.5t71 -31.5q26 0 60 10.5t57 30.5v174q-33 2 -72 2q-38 0 -67 -12.5t-43.5 -32.5t-21.5 -39.5t-7 -37.5z" />
<glyph unicode="&#xe2;" horiz-adv-x="1161" d="M59 299q0 -146 100 -232.5t244 -86.5q70 0 160.5 29.5t134.5 88.5q21 -46 77.5 -83.5t111.5 -37.5q111 0 252 74v232q-64 -25 -97 -25q-36 0 -36 55v256q0 122 -37.5 212t-102 139.5t-140 72.5t-163.5 23q-115 0 -207.5 -20.5t-212.5 -63.5v-254q226 70 322 70 q85 0 125.5 -34t40.5 -93q-73 8 -170 8q-56 0 -111 -12t-108 -38t-93.5 -63.5t-65 -93.5t-24.5 -123zM147 1147l246 366h326l246 -366h-252l-156 174l-154 -174h-256zM420 324q0 18 7 37.5t21.5 39.5t43.5 32.5t67 12.5q39 0 72 -2v-174q-23 -20 -57 -30.5t-60 -10.5 q-48 0 -71 31.5t-23 63.5z" />
<glyph unicode="&#xe3;" horiz-adv-x="1161" d="M59 299q0 67 24.5 123t65 93.5t93.5 63.5t108 38t111 12q97 0 170 -8q0 59 -40.5 93t-125.5 34q-96 0 -322 -70v254q120 43 212.5 63.5t207.5 20.5q88 0 163.5 -23t140 -72.5t102 -139.5t37.5 -212v-256q0 -55 36 -55q33 0 97 25v-232q-141 -74 -252 -74 q-55 0 -111.5 37.5t-77.5 83.5q-44 -59 -134.5 -88.5t-160.5 -29.5q-144 0 -244 86.5t-100 232.5zM221 1159q0 139 72 223t186 84q46 0 142 -49q72 -39 96 -39q38 0 49 88h201q0 -58 -13 -108.5t-42.5 -97t-86.5 -74t-137 -27.5q-50 0 -131 47q-65 37 -96 37q-37 0 -51 -84 h-189zM420 324q0 -32 23 -63.5t71 -31.5q26 0 60 10.5t57 30.5v174q-33 2 -72 2q-38 0 -67 -12.5t-43.5 -32.5t-21.5 -39.5t-7 -37.5z" />
<glyph unicode="&#xe4;" horiz-adv-x="1161" d="M59 299q0 -146 100 -232.5t244 -86.5q70 0 160.5 29.5t134.5 88.5q21 -46 77.5 -83.5t111.5 -37.5q111 0 252 74v232q-64 -25 -97 -25q-36 0 -36 55v256q0 122 -37.5 212t-102 139.5t-140 72.5t-163.5 23q-115 0 -207.5 -20.5t-212.5 -63.5v-254q226 70 322 70 q85 0 125.5 -34t40.5 -93q-73 8 -170 8q-56 0 -111 -12t-108 -38t-93.5 -63.5t-65 -93.5t-24.5 -123zM215 1286q0 76 34.5 118t123.5 42q91 0 123 -41.5t32 -118.5q0 -74 -35 -116t-120 -42q-158 0 -158 158zM420 324q0 18 7 37.5t21.5 39.5t43.5 32.5t67 12.5q39 0 72 -2 v-174q-23 -20 -57 -30.5t-60 -10.5q-48 0 -71 31.5t-23 63.5zM623 1286q0 77 33.5 118.5t125.5 41.5q88 0 120 -41.5t32 -118.5q0 -158 -152 -158q-88 0 -123.5 41.5t-35.5 116.5z" />
<glyph unicode="&#xe5;" horiz-adv-x="1161" d="M59 299q0 -146 100 -232.5t244 -86.5q70 0 160.5 29.5t134.5 88.5q21 -46 77.5 -83.5t111.5 -37.5q111 0 252 74v232q-64 -25 -97 -25q-36 0 -36 55v256q0 122 -37.5 212t-102 139.5t-140 72.5t-163.5 23q-115 0 -207.5 -20.5t-212.5 -63.5v-254q226 70 322 70 q85 0 125.5 -34t40.5 -93q-73 8 -170 8q-56 0 -111 -12t-108 -38t-93.5 -63.5t-65 -93.5t-24.5 -123zM299 1362q0 105 73.5 172.5t176.5 67.5t176.5 -66.5t73.5 -173.5t-73.5 -173.5t-176.5 -66.5t-176.5 67.5t-73.5 172.5zM420 324q0 18 7 37.5t21.5 39.5t43.5 32.5 t67 12.5q39 0 72 -2v-174q-23 -20 -57 -30.5t-60 -10.5q-48 0 -71 31.5t-23 63.5zM461 1362q0 -38 25 -61t63 -23t63 23t25 61t-25 61t-63 23t-63 -23t-25 -61z" />
<glyph unicode="&#xe6;" horiz-adv-x="1710" d="M59 299q0 67 24.5 123t65 93.5t93.5 63.5t108 38t111 12q97 0 170 -8q0 59 -40.5 93t-125.5 34q-96 0 -322 -70v254q120 43 212.5 63.5t207.5 20.5q187 0 291 -123q50 61 128 92t163 31q237 0 370.5 -141.5t133.5 -387.5l-4 -90h-619q5 -61 61 -109t160 -48q55 0 164 16 t174 33v-240q-131 -36 -224 -53.5t-202 -18.5q-121 0 -202.5 39t-135.5 131q-102 -167 -418 -167q-144 0 -244 86.5t-100 232.5zM420 324q0 -32 23 -63.5t71 -31.5q80 0 117 52v163q-33 2 -72 2q-38 0 -67 -12.5t-43.5 -32.5t-21.5 -39.5t-7 -37.5zM1032 590h252 q2 25 -3.5 50.5t-18.5 51t-39.5 41t-63.5 15.5t-64 -16t-40.5 -41t-19 -51t-3.5 -50z" />
<glyph unicode="&#xe7;" horiz-adv-x="1052" d="M61 492q0 96 32 181.5t85.5 147t123 106.5t146.5 67t154 22q165 0 369 -51v-267q-75 19 -162 29t-129 8q-64 0 -112 -21t-75 -56.5t-40 -76.5t-13 -87q0 -95 62 -165.5t178 -70.5q42 -2 129 8t162 29v-268q-142 -35 -285 -45q82 -103 82 -191q0 -112 -81 -172t-228 -47 q-119 12 -234 66v202q124 -41 246 -41q40 0 59.5 17.5t19 46.5t-9.5 59.5t-26 63.5q-87 13 -166.5 53t-144 102.5t-103 153.5t-39.5 197z" />
<glyph unicode="&#xe8;" horiz-adv-x="1136" d="M63 502q0 119 41.5 217.5t112 162.5t162 99t192.5 35q237 0 370.5 -141.5t133.5 -387.5l-4 -90h-618q5 -61 61 -109t160 -48q55 0 164 16t174 33v-240q-131 -36 -224 -53.5t-202 -18.5q-113 0 -206.5 31.5t-165 94.5t-111.5 165t-40 234zM248 1513h307l152 -366h-254z M444 590h252q2 25 -3.5 50.5t-18.5 51t-39.5 41t-63.5 15.5t-64 -16t-40.5 -41t-19 -51t-3.5 -50z" />
<glyph unicode="&#xe9;" horiz-adv-x="1136" d="M63 502q0 119 41.5 217.5t112 162.5t162 99t192.5 35q237 0 370.5 -141.5t133.5 -387.5l-4 -90h-618q5 -61 61 -109t160 -48q55 0 164 16t174 33v-240q-131 -36 -224 -53.5t-202 -18.5q-113 0 -206.5 31.5t-165 94.5t-111.5 165t-40 234zM422 1147l151 366h308l-205 -366 h-254zM444 590h252q2 25 -3.5 50.5t-18.5 51t-39.5 41t-63.5 15.5t-64 -16t-40.5 -41t-19 -51t-3.5 -50z" />
<glyph unicode="&#xea;" horiz-adv-x="1136" d="M63 502q0 119 41.5 217.5t112 162.5t162 99t192.5 35q237 0 370.5 -141.5t133.5 -387.5l-4 -90h-618q5 -61 61 -109t160 -48q55 0 164 16t174 33v-240q-131 -36 -224 -53.5t-202 -18.5q-113 0 -206.5 31.5t-165 94.5t-111.5 165t-40 234zM162 1147l246 366h325l246 -366 h-252l-156 174l-153 -174h-256zM444 590h252q2 25 -3.5 50.5t-18.5 51t-39.5 41t-63.5 15.5t-64 -16t-40.5 -41t-19 -51t-3.5 -50z" />
<glyph unicode="&#xeb;" horiz-adv-x="1136" d="M63 502q0 119 41.5 217.5t112 162.5t162 99t192.5 35q237 0 370.5 -141.5t133.5 -387.5l-4 -90h-618q5 -61 61 -109t160 -48q55 0 164 16t174 33v-240q-131 -36 -224 -53.5t-202 -18.5q-113 0 -206.5 31.5t-165 94.5t-111.5 165t-40 234zM211 1286q0 76 34.5 118 t123.5 42q91 0 123 -41.5t32 -118.5q0 -74 -35 -116t-120 -42q-158 0 -158 158zM444 590h252q2 25 -3.5 50.5t-18.5 51t-39.5 41t-63.5 15.5t-64 -16t-40.5 -41t-19 -51t-3.5 -50zM618 1286q0 77 34 118.5t126 41.5q88 0 120 -41.5t32 -118.5q0 -158 -152 -158 q-88 0 -124 42t-36 116z" />
<glyph unicode="&#xec;" horiz-adv-x="598" d="M25 1503h307l151 -366h-254zM115 0v991h368v-991h-368z" />
<glyph unicode="&#xed;" horiz-adv-x="598" d="M115 0v991h368v-991h-368zM115 1137l151 366h307l-204 -366h-254z" />
<glyph unicode="&#xee;" horiz-adv-x="598" d="M-104 1137l245 366h326l246 -366h-252l-156 174l-153 -174h-256zM115 0v991h368v-991h-368z" />
<glyph unicode="&#xef;" horiz-adv-x="598" d="M-55 1286q0 76 34 118t123 42q91 0 123.5 -41.5t32.5 -118.5q0 -158 -156 -158q-157 0 -157 158zM115 0v991h368v-991h-368zM352 1286q0 77 34 118.5t126 41.5q88 0 120 -41.5t32 -118.5q0 -158 -152 -158q-88 0 -124 42t-36 116z" />
<glyph unicode="&#xf0;" horiz-adv-x="1265" d="M61 471q3 104 38.5 190t90.5 142t126 94.5t141 55t139 16.5q106 0 162 -51q-47 125 -180 206l-269 -172v125l156 101q-91 36 -244 63l166 234q194 -24 352 -123l215 137v-125l-123 -78q170 -136 268.5 -339t98.5 -427q0 -168 -76 -292.5t-203 -187t-286 -63.5 q-77 -2 -154.5 14.5t-152 55t-132 94.5t-94 141.5t-39.5 188.5zM430 463q0 -102 56 -155.5t145 -53.5q80 0 138 63t58 162q0 96 -58 161t-138 65q-84 0 -142.5 -71t-58.5 -171z" />
<glyph unicode="&#xf1;" horiz-adv-x="1220" d="M115 0v991h348l14 -82q115 107 262 107q32 0 63 -4.5t69.5 -17.5t72 -34.5t66 -58t55.5 -85t37 -119t14 -156.5v-541h-385v530q0 127 -30.5 174.5t-94.5 47.5q-56 0 -119 -45v-707h-372zM250 1159q0 139 72 223t186 84q45 0 141 -49q72 -39 96 -39q39 0 50 88h200 q0 -58 -12.5 -108.5t-42 -97t-86.5 -74t-137 -27.5q-50 0 -131 47q-65 37 -97 37q-37 0 -51 -84h-188z" />
<glyph unicode="&#xf2;" d="M61 492q0 -107 35 -196t93 -147.5t133 -99t153.5 -57.5t157.5 -15q120 1 221.5 34.5t179 96.5t121 163.5t43.5 226.5q0 114 -34.5 204.5t-90 148t-131 96t-153 54t-160.5 15.5q-79 1 -157.5 -16.5t-153 -58.5t-131.5 -101t-91.5 -150t-34.5 -198zM307 1513h307l152 -366 h-254zM426 500q0 100 60 169.5t145 69.5q86 0 145.5 -67.5t59.5 -171.5q0 -110 -59 -178t-146 -68q-86 0 -145.5 70t-59.5 176z" />
<glyph unicode="&#xf3;" d="M61 492q0 108 34.5 198t91.5 150t131.5 101t153 58.5t157.5 16.5q83 0 160.5 -15.5t153 -54t131 -96t90 -148t34.5 -204.5q0 -126 -43.5 -226.5t-121 -163.5t-179 -96.5t-221.5 -34.5q-79 -2 -157.5 15t-153.5 57.5t-133 99t-93 147.5t-35 196zM426 500q0 -106 59.5 -176 t145.5 -70q87 0 146 68t59 178q0 104 -59.5 171.5t-145.5 67.5q-85 0 -145 -69.5t-60 -169.5zM489 1147l152 366h307l-205 -366h-254z" />
<glyph unicode="&#xf4;" d="M61 492q0 -107 35 -196t93 -147.5t133 -99t153.5 -57.5t157.5 -15q120 1 221.5 34.5t179 96.5t121 163.5t43.5 226.5q0 114 -34.5 204.5t-90 148t-131 96t-153 54t-160.5 15.5q-79 1 -157.5 -16.5t-153 -58.5t-131.5 -101t-91.5 -150t-34.5 -198zM221 1137l246 366h326 l245 -366h-252l-155 174l-154 -174h-256zM426 500q0 100 60 169.5t145 69.5q86 0 145.5 -67.5t59.5 -171.5q0 -110 -59 -178t-146 -68q-86 0 -145.5 70t-59.5 176z" />
<glyph unicode="&#xf5;" d="M61 492q0 108 34.5 198t91.5 150t131.5 101t153 58.5t157.5 16.5q83 0 160.5 -15.5t153 -54t131 -96t90 -148t34.5 -204.5q0 -126 -43.5 -226.5t-121 -163.5t-179 -96.5t-221.5 -34.5q-79 -2 -157.5 15t-153.5 57.5t-133 99t-93 147.5t-35 196zM256 1159q0 139 72 223 t186 84q45 0 141 -49q72 -39 97 -39q38 0 49 88h200q0 -58 -12.5 -108.5t-42 -97t-86.5 -74t-137 -27.5q-50 0 -131 47q-65 37 -96 37q-38 0 -52 -84h-188zM426 500q0 -106 59.5 -176t145.5 -70q87 0 146 68t59 178q0 104 -59.5 171.5t-145.5 67.5q-85 0 -145 -69.5 t-60 -169.5z" />
<glyph unicode="&#xf6;" d="M61 492q0 -107 35 -196t93 -147.5t133 -99t153.5 -57.5t157.5 -15q120 1 221.5 34.5t179 96.5t121 163.5t43.5 226.5q0 114 -34.5 204.5t-90 148t-131 96t-153 54t-160.5 15.5q-79 1 -157.5 -16.5t-153 -58.5t-131.5 -101t-91.5 -150t-34.5 -198zM270 1286q0 76 34.5 118 t123.5 42q91 0 123.5 -41.5t32.5 -118.5q0 -158 -156 -158q-158 0 -158 158zM426 500q0 100 60 169.5t145 69.5q86 0 145.5 -67.5t59.5 -171.5q0 -110 -59 -178t-146 -68q-86 0 -145.5 70t-59.5 176zM678 1286q0 77 34 118.5t126 41.5q88 0 119.5 -41.5t31.5 -118.5 q0 -158 -151 -158q-88 0 -124 42t-36 116z" />
<glyph unicode="&#xf7;" horiz-adv-x="1196" d="M92 535v282h1012v-282h-1012zM420 276q0 76 38.5 118t139.5 42t138.5 -42t37.5 -118t-39.5 -117.5t-136.5 -41.5t-137.5 42t-40.5 117zM420 1083q0 76 38.5 118t139.5 42t138.5 -42t37.5 -118q0 -74 -40 -116.5t-136 -42.5q-178 0 -178 159z" />
<glyph unicode="&#xf8;" d="M61 2l136 137q-136 136 -136 353q0 108 34.5 198t91.5 150t131.5 101t153 58.5t157.5 16.5q201 0 346 -88l129 131l92 -90l-121 -123q123 -133 123 -348q0 -126 -43.5 -226.5t-121 -163.5t-179 -96.5t-221.5 -34.5q-179 -3 -332 82l-147 -147zM426 500q0 -62 18 -109 l304 307q-50 41 -117 41q-85 0 -145 -69.5t-60 -169.5zM524 287q51 -33 107 -33q87 0 146 68t59 178q0 37 -15 88z" />
<glyph unicode="&#xf9;" horiz-adv-x="1282" d="M104 451v540h383v-530q0 -86 16 -134.5t42 -64.5t69 -16q25 0 61.5 13.5t59.5 31.5v700h371v-678q0 -28 11 -41.5t26 -13.5q32 0 96 25v-232q-141 -74 -252 -74q-55 0 -111 37.5t-77 83.5q-61 -65 -140.5 -93t-154.5 -28q-63 0 -114 9t-106.5 39t-93 80t-62 138.5 t-24.5 207.5zM313 1503h308l151 -366h-254z" />
<glyph unicode="&#xfa;" horiz-adv-x="1282" d="M104 451v540h383v-530q0 -86 16 -134.5t42 -64.5t69 -16q25 0 61.5 13.5t59.5 31.5v700h371v-678q0 -28 11 -41.5t26 -13.5q32 0 96 25v-232q-141 -74 -252 -74q-55 0 -111 37.5t-77 83.5q-61 -65 -140.5 -93t-154.5 -28q-63 0 -114 9t-106.5 39t-93 80t-62 138.5 t-24.5 207.5zM401 1137l152 366h307l-205 -366h-254z" />
<glyph unicode="&#xfb;" horiz-adv-x="1282" d="M104 451v540h383v-530q0 -86 16 -134.5t42 -64.5t69 -16q25 0 61.5 13.5t59.5 31.5v700h371v-678q0 -28 11 -41.5t26 -13.5q32 0 96 25v-232q-141 -74 -252 -74q-55 0 -111 37.5t-77 83.5q-61 -65 -140.5 -93t-154.5 -28q-63 0 -114 9t-106.5 39t-93 80t-62 138.5 t-24.5 207.5zM221 1137l246 366h326l245 -366h-252l-155 174l-154 -174h-256z" />
<glyph unicode="&#xfc;" horiz-adv-x="1282" d="M104 451v540h383v-530q0 -86 16 -134.5t42 -64.5t69 -16q25 0 61.5 13.5t59.5 31.5v700h371v-678q0 -28 11 -41.5t26 -13.5q32 0 96 25v-232q-141 -74 -252 -74q-55 0 -111 37.5t-77 83.5q-61 -65 -140.5 -93t-154.5 -28q-63 0 -114 9t-106.5 39t-93 80t-62 138.5 t-24.5 207.5zM270 1286q0 76 34.5 118t123.5 42q91 0 123.5 -41.5t32.5 -118.5q0 -158 -156 -158q-158 0 -158 158zM678 1286q0 77 34 118.5t126 41.5q88 0 119.5 -41.5t31.5 -118.5q0 -158 -151 -158q-88 0 -124 42t-36 116z" />
<glyph unicode="&#xfd;" horiz-adv-x="1140" d="M0 991h406l165 -536l164 536h406l-482 -1190q-25 -72 -57 -116t-79 -67t-100 -30.5t-134 -5.5h-172v266h151q29 0 49 58l64 174zM412 1137l151 366h307l-204 -366h-254z" />
<glyph unicode="&#xfe;" horiz-adv-x="1247" d="M115 -410v1864h372v-514q44 35 110.5 55.5t125.5 20.5q86 0 168 -36t147.5 -100.5t105.5 -164.5t40 -217t-40 -217t-105.5 -165.5t-147.5 -102t-168 -36.5q-59 0 -125.5 20.5t-110.5 55.5v-463h-372zM487 281q60 -37 127 -37q97 0 155 76.5t58 179.5q0 99 -58.5 174.5 t-154.5 75.5q-67 0 -127 -37v-432z" />
<glyph unicode="&#xff;" horiz-adv-x="1140" d="M0 991h406l165 -536l164 536h406l-482 -1190q-25 -72 -57 -116t-79 -67t-100 -30.5t-134 -5.5h-172v266h151q29 0 49 58l64 174zM217 1286q0 76 34.5 118t123.5 42q91 0 123 -41.5t32 -118.5q0 -74 -35 -116t-120 -42q-158 0 -158 158zM625 1286q0 77 33.5 118.5 t125.5 41.5q88 0 120 -41.5t32 -118.5q0 -158 -152 -158q-88 0 -123.5 41.5t-35.5 116.5z" />
<glyph unicode="&#x152;" horiz-adv-x="2359" d="M76 705q0 153 46 278t121 207.5t176 138.5t206.5 80.5t216.5 24.5q256 0 379 -134v111h1040v-309h-649v-225h592v-304h-592v-184q0 -80 69 -80h580v-309h-655q-120 3 -207.5 42t-108.5 108q-73 -85 -198.5 -129t-249.5 -44q-111 0 -216.5 24.5t-206.5 80.5t-176 138 t-121 207t-46 278zM467 705q0 -84 22.5 -153t59.5 -114.5t86 -76.5t101 -44.5t106 -13.5q68 0 132 22.5t119.5 68.5t89.5 126.5t34 184.5t-34 185t-89.5 126.5t-119.5 68.5t-132 23q-54 0 -106 -13.5t-101 -45t-86 -77t-59.5 -114.5t-22.5 -153z" />
<glyph unicode="&#x153;" horiz-adv-x="1912" d="M61 492q0 108 34.5 198t91.5 150t131.5 101t153 58.5t157.5 16.5q107 0 212 -39.5t175 -116.5q62 76 149 116t183 40q236 0 369.5 -141.5t133.5 -387.5l-4 -90h-618q5 -61 61 -109t160 -48q55 0 164 16t174 33v-240q-131 -36 -224 -53.5t-202 -18.5q-110 0 -207.5 39.5 t-146.5 112.5q-59 -69 -162 -109.5t-213 -42.5q-79 -2 -157.5 15t-153.5 57.5t-133 99t-93 147.5t-35 196zM426 500q0 -106 59.5 -176t145.5 -70q87 0 146 68t59 178q0 104 -59.5 171.5t-145.5 67.5q-85 0 -145 -69.5t-60 -169.5zM1233 590h252q2 25 -3.5 50.5t-18.5 51 t-39.5 41t-63.5 15.5t-64 -16t-40.5 -41t-19 -51t-3.5 -50z" />
<glyph unicode="&#x178;" horiz-adv-x="1314" d="M-20 1411h442l235 -528l234 528h442l-479 -809v-602h-391v602zM297 1706q0 76 34.5 118t123.5 42q91 0 123 -41.5t32 -118.5q0 -74 -35 -116t-120 -42q-158 0 -158 158zM705 1706q0 77 33.5 118.5t125.5 41.5q88 0 120 -41.5t32 -118.5q0 -158 -152 -158 q-88 0 -123.5 41.5t-35.5 116.5z" />
<glyph unicode="&#x2c6;" horiz-adv-x="1247" d="M215 1137l246 366h325l246 -366h-252l-155 174l-154 -174h-256z" />
<glyph unicode="&#x2dc;" horiz-adv-x="1073" d="M164 1159q0 139 72 223t186 84q45 0 141 -49q72 -39 96 -39q39 0 50 88h200q0 -58 -12.5 -108.5t-42 -97t-86.5 -74t-137 -27.5q-50 0 -131 47q-65 37 -97 37q-37 0 -51 -84h-188z" />
<glyph unicode="&#x2000;" horiz-adv-x="1010" />
<glyph unicode="&#x2001;" horiz-adv-x="2021" />
<glyph unicode="&#x2002;" horiz-adv-x="1010" />
<glyph unicode="&#x2003;" horiz-adv-x="2021" />
<glyph unicode="&#x2004;" horiz-adv-x="673" />
<glyph unicode="&#x2005;" horiz-adv-x="505" />
<glyph unicode="&#x2006;" horiz-adv-x="336" />
<glyph unicode="&#x2007;" horiz-adv-x="336" />
<glyph unicode="&#x2008;" horiz-adv-x="252" />
<glyph unicode="&#x2009;" horiz-adv-x="404" />
<glyph unicode="&#x200a;" horiz-adv-x="112" />
<glyph unicode="&#x2010;" horiz-adv-x="1003" d="M100 428v274h803v-274h-803z" />
<glyph unicode="&#x2011;" horiz-adv-x="1003" d="M100 428v274h803v-274h-803z" />
<glyph unicode="&#x2012;" horiz-adv-x="1003" d="M100 428v274h803v-274h-803z" />
<glyph unicode="&#x2013;" horiz-adv-x="1216" d="M102 436v246h1012v-246h-1012z" />
<glyph unicode="&#x2014;" horiz-adv-x="1652" d="M102 436v246h1448v-246h-1448z" />
<glyph unicode="&#x2018;" horiz-adv-x="565" d="M45 909l238 525h252l-160 -525h-330z" />
<glyph unicode="&#x2019;" horiz-adv-x="555" d="M55 909l160 525h330l-238 -525h-252z" />
<glyph unicode="&#x201a;" horiz-adv-x="563" d="M2 -117l188 525h316l-238 -525h-266z" />
<glyph unicode="&#x201c;" horiz-adv-x="964" d="M45 909l238 525h266l-189 -525h-315zM465 909l197 525h272l-160 -525h-309z" />
<glyph unicode="&#x201d;" horiz-adv-x="954" d="M55 909l160 525h309l-196 -525h-273zM440 909l189 525h315l-237 -525h-267z" />
<glyph unicode="&#x201e;" horiz-adv-x="960" d="M14 -117l160 525h309l-196 -525h-273zM399 -117l189 525h315l-237 -525h-267z" />
<glyph unicode="&#x2022;" horiz-adv-x="849" d="M92 524q0 71 14 123t49.5 96.5t103.5 67.5t167 23t166.5 -23t102.5 -67.5t49 -96.5t14 -123q0 -69 -15.5 -121.5t-51.5 -96t-103 -66.5t-162 -23t-162 23t-103.5 66.5t-52.5 96.5t-16 121z" />
<glyph unicode="&#x2026;" horiz-adv-x="1699" d="M76 147q0 82 41 127t151 45q111 0 152 -45t41 -127q0 -170 -193 -170q-105 0 -148.5 45t-43.5 125zM655 147q0 81 42.5 126.5t152.5 45.5t151 -45t41 -127q0 -80 -43.5 -125t-148.5 -45q-195 0 -195 170zM1237 147q0 81 42.5 126.5t152.5 45.5t151 -45t41 -127 q0 -170 -192 -170q-195 0 -195 170z" />
<glyph unicode="&#x202f;" horiz-adv-x="404" />
<glyph unicode="&#x2039;" horiz-adv-x="718" d="M49 506l295 426h324l-295 -426l295 -428h-324z" />
<glyph unicode="&#x203a;" horiz-adv-x="718" d="M51 78l295 428l-295 426h324l295 -426l-295 -428h-324z" />
<glyph unicode="&#x205f;" horiz-adv-x="505" />
<glyph unicode="&#x20ac;" horiz-adv-x="1421" d="M86 457v153h219v115h-219v160h240q36 165 135.5 287t234.5 182.5t289 60.5q162 0 328 -26v-293q-150 16 -283 16q-109 0 -187 -61.5t-118 -165.5h369v-160h-398q0 -97 2 -115h396v-153h-344q34 -82 104.5 -130t175.5 -48q127 0 283 14v-287q-185 -29 -328 -29 q-221 0 -400 129t-247 351h-252z" />
<glyph unicode="&#x2122;" horiz-adv-x="1628" d="M115 924v129h762l200 -467l201 467h170l51 -727h-158l-30 485l-176 -399h-117l-174 395l-31 -481h-160l45 598h-200v-598h-160v598h-223z" />
<glyph unicode="&#xe000;" horiz-adv-x="993" d="M0 0v993h993v-993h-993z" />
</font>
</defs>
</svg>
